#TITLE:Fascination MAXX;
#SUBTITLE:;
#ARTIST:100-200-400;
#TITLETRANSLIT:;
#SUBTITLETRANSLIT:;
#ARTISTTRANSLIT:;
#GENRE:;
#CREDIT:;
#BANNER:;
#BACKGROUND:;
#LYRICSPATH:;
#CDTITLE:;
#MUSIC:Fascination MAXX.ogg;
#OFFSET:-0.079;
#SAMPLESTART:19.790;
#SAMPLELENGTH:15.000;
#SELECTABLE:YES;
#DISPLAYBPM:200.000;
#BPMS:0.000=200.000
,297.000=100.000
,301.000=200.000
;
#STOPS:224.000=2.100
;
#BGCHANGES:;
#KEYSOUNDS:;
#ATTACKS:;

//---------------dance-single - Copied from----------------
#NOTES:
     dance-single:
     Copied from:
     Hard:
     9:
     0.730,0.869,0.304,0.245,0.226,465.000,31.000,25.000,0.000,0.000,0.000,0.730,0.869,0.304,0.245,0.226,465.000,31.000,25.000,0.000,0.000,0.000:
0000
0000
0000
0000
,
0000
0000
1000
0100
1100
0000
0022
0000
,
0000
0000
0000
0000
,
0033
0000
0000
0000
1000
0100
0010
0001
,
0010
0100
1000
0001
0100
0010
1000
0100
,
0010
0001
0010
0100
1000
0000
0001
0010
,
0022
0000
0000
0000
0033
0000
1000
0020
,
0000
0000
0230
0000
0301
0100
0010
1000
,
0100
0010
0001
0010
0100
1000
0010
0200
,
0000
0000
0000
0000
0301
0010
0200
1000
,
0000
1000
0000
2300
0000
0000
3000
0000
,
0000
1000
0100
0010
0001
0010
0100
2000
,
0000
0000
3000
0000
0001
0001
2000
0001
,
0000
0001
0000
3010
0000
1000
0010
0100
,
0001
0100
0000
0010
0000
1000
0100
1000
,
0010
0100
0001
0100
0010
1000
0100
1000
,
0100
0000
0110
0000
0001
0010
0001
0010
,
0001
0010
0100
1000
0100
1000
0100
0010
,
0001
0100
0010
1000
0010
0000
1000
0100
,
0010
0001
0010
0100
1000
0100
0010
0001
,
1000
1000
0000
0000
0001
1000
0100
0010
,
0001
0010
0001
1000
0100
0010
0001
1000
,
0100
0010
0100
0010
0100
1000
0000
0010
,
1000
0100
0010
0001
0010
0001
0010
0010
,
0002
0000
0000
0103
,
1001
0000
0000
0010
0100
0000
0000
0001
,
0100
0101
2001
0000
,
3000
0000
0100
0000
0010
0000
0000
0000
0001
0000
0010
0000
,
0000
0000
0100
0000
,
0100
0000
1000
0000
0010
0000
0000
0000
0000
0000
0000
0000
,
0100
0000
0001
0000
0100
0000
0010
0000
1000
0000
0100
0000
,
0010
0001
0010
0100
1000
0001
0100
0001
,
0101
0010
1000
0010
,
1000
0000
0100
0000
0010
0000
0001
0010
,
0200
2300
3020
0230
,
0302
0000
0013
0000
0010
0000
0100
1000
,
0100
1000
0100
0010
,
0001
0000
0020
0000
0130
0000
1000
0010
,
0200
0301
0010
0100
,
1000
0000
0100
0000
0010
0000
0001
0100
,
0010
2000
3100
0010
,
0002
0000
0103
0000
0010
0000
1000
0100
,
0010
0000
0001
0000
0020
0000
0130
1000
,
0100
0000
1000
0000
0100
0010
0001
1000
,
0100
1100
0100
0110
,
0010
0000
0001
0000
0011
0000
0001
0100
,
0101
0001
0011
0010
,
0110
0000
0000
0010
0000
0100
1000
0000
,
0010
0100
0001
0100
0001
0000
0000
1000
,
0000
0100
0010
0000
0001
0000
0100
0001
,
0101
0000
0010
1000
0100
0000
1100
0000
,
0010
0001
0010
0000
0011
0000
0100
1000
,
0001
1001
1010
0101
,
0011
0000
0100
0000
1000
0000
0100
0010
,
0110
0000
0011
0000
0001
0100
0001
0010
,
0100
1000
0100
0010
0001
0010
0001
1000
,
0001
0000
0000
0100
1000
0100
1000
0100
1000
0100
1000
0100
,
1000
0100
1000
0100
1000
0100
1000
0100
1000
0100
1000
0100
,
1000
0100
1000
0000
0000
0000
0100
0010
0100
0010
0100
0010
,
0100
0010
0100
0010
0100
0010
0100
0010
0100
0010
0100
0010
,
0100
0000
0010
0000
0100
0000
1000
0000
0000
0000
0000
0000
0001
0000
0000
0100
0000
0000
0010
0000
0000
0000
0000
0000
,
0010
0100
0001
0000
0001
1000
0001
0000
,
0100
0010
0100
0000
0001
1000
0001
0000
,
0100
0010
1000
0000
0001
1000
0100
0010
,
0001
0010
0100
1000
0010
0001
0010
1000
,
0100
0001
0100
1000
0010
0100
0001
0100
,
0010
1000
0100
0010
0001
0100
0010
1000
,
0100
0010
0001
0010
0100
1000
0001
1000
,
0100
0010
0001
0010
0000
0010
0000
0010
,
0000
0010
0000
0010
0100
0001
0010
0100
,
1000
0100
0010
0001
1000
0001
0100
0001
,
1000
0001
0010
0100
1000
0100
0010
0100
,
0001
0100
0010
0100
1000
0010
0100
0001
,
0010
0100
1000
0100
0010
0001
1000
1000
,
0001
0000
0001
0000
1000
0100
0010
0001
0010
0000
0100
1000
0010
0000
0100
0001
,
0000
1000
0000
0001
1001
0000
0000
0000
0000
0000
0110
0000
0000
0000
0101
0000
,
0000
0011
0000
0000
0110
0000
1100
0000
,
1001
0000
0001
1000
0001
0000
0010
0100
,
0000
1000
0100
0000
0010
0001
0100
0010
,
1000
0010
0000
0000
0000
0000
0100
0001
,
1000
2002
0000
0000
3003
0000
0000
0000
;

//---------------dance-single - Blank----------------
#NOTES:
     dance-single:
     Blank:
     Medium:
     7:
     0.551,0.511,0.451,0.157,0.029,331.000,46.000,16.000,0.000,0.000,0.000,0.551,0.511,0.451,0.157,0.029,331.000,46.000,16.000,0.000,0.000,0.000:
0000
0000
0000
0000
,
0000
0000
0000
0000
,
0000
0000
0000
0000
,
0000
0000
0010
0100
0010
0000
0220
0000
,
0000
0000
0000
0000
,
0330
0000
0001
1000
0001
0000
0001
1000
,
2002
0000
0000
0000
3003
0000
1000
0100
,
0000
0000
0010
0000
0001
1000
0001
1000
,
0001
0100
0001
0000
1000
0001
1000
0002
,
0000
0000
0000
0003
1000
0010
2000
0010
,
0000
0010
0000
3010
0000
0000
0000
0000
,
0000
0001
0100
0010
2000
0000
3001
0100
,
0000
0000
0000
0000
0001
1000
0001
0100
,
0000
0010
0000
2000
0000
3000
0000
0000
,
1001
0001
1000
0001
,
1001
0100
0100
0010
,
1001
0000
1000
0000
1001
0000
1000
0100
,
1000
0000
0100
0010
0100
0000
0010
0001
,
0010
0000
0001
1000
0001
0000
1000
0001
,
1000
0000
0100
0010
0100
0000
0010
0001
,
0010
0001
0000
0000
1001
0000
0010
0000
,
0010
0100
0010
0000
0001
0010
0001
0000
,
1000
0001
1000
0000
0001
0010
0000
0000
,
0001
0000
1000
0000
0001
1000
0001
0000
,
1000
0000
0000
1000
,
1001
0000
0000
0010
0100
0000
0000
0100
,
1000
0100
0010
0000
,
0002
0000
2003
0000
,
3002
0000
0003
0000
,
1000
0000
1000
0000
1000
0000
0000
0000
0000
0000
0000
0000
,
0001
0000
0001
0000
0001
0000
1000
0000
1000
0000
1000
0000
,
0000
0000
0000
0000
0001
1000
0001
1000
,
1001
0100
0010
0100
,
0010
0001
1000
0001
,
1000
1001
0110
1001
,
1001
0100
0010
0100
,
1000
0001
1000
0100
,
0001
1001
1000
0100
,
1100
1000
0100
0010
,
0001
1000
0001
1000
,
0001
1002
0100
0103
,
2001
0010
3010
0100
,
0001
0100
1001
0001
,
1000
1001
1000
0001
,
1001
1000
0100
0010
,
0001
0010
0110
0010
,
0001
1001
1000
0100
,
0110
0010
0001
1000
,
1001
1001
1001
0001
,
1000
0001
1000
0010
,
0110
0010
0001
1001
,
1000
0010
0110
0010
,
0001
0011
0011
0011
,
0101
1000
0001
1000
,
1001
1001
1001
0100
,
0010
0110
0001
1000
,
1001
1000
1000
0100
,
0100
0010
0010
0001
,
0001
0000
1001
1000
,
0100
0100
0010
0010
,
0001
0000
0001
0000
1000
0100
1000
0000
,
0001
0100
0001
0000
1000
0010
1000
0000
,
0001
0100
0001
0000
1000
0001
1000
0000
,
0100
0010
0100
0000
0010
0001
0010
0000
,
0001
1000
0001
0000
0100
0010
0100
0000
,
0010
0001
0010
0000
0001
1000
0001
0000
,
0100
0001
1000
0000
0100
0010
0100
0000
,
1000
0001
1000
0000
0001
1000
0001
1000
,
0100
1000
0100
0000
0100
0000
0010
0000
,
0010
0001
0001
1000
,
1000
0001
0001
0100
,
0100
0010
0010
1000
,
1000
0001
0001
1000
,
0001
0000
0100
0000
0010
0000
1000
0001
,
1000
0001
2000
0000
0000
0000
3200
0000
,
0000
0000
0310
0000
0000
1001
0000
0110
,
0000
1001
0000
0000
0101
0000
1001
0000
,
1100
0000
0001
0010
0001
0000
0001
1000
,
0000
1000
0100
0000
0100
0010
0100
0010
,
0100
0020
0000
0000
0000
0000
0031
1000
,
0001
1001
0000
0000
0000
0000
0000
0000
;

//---------------dance-single - Blank----------------
#NOTES:
     dance-single:
     Blank:
     Easy:
     4:
     0.270,0.354,0.137,0.314,0.000,147.000,14.000,32.000,0.000,0.000,0.000,0.270,0.354,0.137,0.314,0.000,147.000,14.000,32.000,0.000,0.000,0.000:
0000
0000
0000
0000
,
0000
0000
0000
0000
,
0000
0000
0000
0000
,
0000
0000
0000
2002
,
0000
0000
0000
0000
,
0000
0000
3003
0000
,
0110
0000
0000
0000
,
0001
0000
1000
0000
,
0001
0000
1000
0000
,
0100
0000
0010
0000
,
0001
0000
1000
0000
,
0001
0000
0100
0000
,
0010
0000
1000
0000
,
0001
0000
1000
0000
,
0100
0000
0010
0000
,
0001
0000
0001
0000
,
0110
0000
1000
0001
,
1000
0000
0100
0010
,
0100
0000
0001
0000
,
0001
1000
0001
1000
,
0000
0000
0001
0100
,
0001
0000
1000
0010
,
1000
0000
0001
0000
,
1000
0000
0001
0000
,
1001
0000
0000
0000
,
0100
0000
0000
0000
,
0000
0000
0000
0000
,
1000
0000
0000
0000
,
0001
0000
0000
0000
,
1000
0000
0000
0000
,
0001
0000
1000
0000
,
0000
0001
1000
0001
,
1001
0000
0100
0010
,
1000
0000
0001
0000
,
0000
2000
3002
2003
,
3002
0003
0000
0000
,
0000
0000
0000
0000
,
0000
2000
0000
0000
,
0002
0000
0000
0000
,
3003
0000
0000
0000
,
0000
0200
0000
0000
,
0020
0000
0000
0000
,
0330
0000
2000
0000
,
0000
0000
0000
3000
,
0001
0000
0000
0000
,
0000
0000
2000
0000
,
0000
0002
0000
3003
,
1001
0000
0000
0000
,
1000
0001
1000
0000
,
0000
0000
1001
0000
,
1001
0000
0000
0110
,
0000
0000
1001
0000
,
0000
1000
0001
1000
,
1001
0000
0000
0000
,
0100
0010
0200
0000
,
0000
0002
0000
0303
,
1001
1000
0100
1000
,
0100
0010
0001
1000
,
0000
0000
0000
0000
,
0001
1000
0001
0100
,
0001
1000
0000
0002
,
0000
2003
0000
3002
,
0000
2003
0000
3002
,
0000
0203
0000
0320
,
0000
2030
0000
3002
,
0000
2003
0000
3020
,
0030
2000
0000
3002
,
0000
2003
0000
3001
,
1000
0001
0000
1000
,
0000
0001
0100
0001
,
0000
1000
0000
0010
,
1000
0010
0000
1000
,
0000
0001
0000
0100
,
0000
0000
0010
0001
,
1000
0002
0000
2003
,
0000
3000
1001
0000
0000
0001
0000
0001
,
0000
0001
0000
0000
1000
0000
1000
0000
,
1000
0001
1000
0100
,
0000
0010
0001
1000
,
0000
0002
0000
0000
0000
0000
1003
0000
,
0000
1001
0000
0000
0000
0000
0000
0000
;

//---------------dance-single - HARD!!!----------------
#NOTES:
     dance-single:
     HARD!!!:
     Edit:
     14:
     1.000,1.000,0.373,0.951,1.000,707.000,38.000,97.000,25.000,0.000,0.000,1.000,1.000,0.373,0.951,1.000,707.000,38.000,97.000,25.000,0.000,0.000:
0000
0000
0000
0000
,
0000
0000
1000
0100
1100
0000
0022
0000
,
0000
0000
0000
0000
,
0033
0000
0000
0000
0001
0000
0010
0000
0100
1000
0100
1000
0001
1000
0001
1000
,
0010
1000
0010
1000
0100
1000
0100
1000
0010
1000
0010
0100
0001
0100
0001
0100
,
0010
1000
0010
1000
0100
0010
0001
0010
0100
1000
0001
0010
0001
1000
0100
1000
,
0001
0100
0001
1000
0010
1000
0100
0010
0001
0010
0100
1000
0010
0100
0010
1000
,
0010
0100
0001
0100
0010
0100
0001
0010
0100
1000
0100
0010
0001
0100
0010
1000
,
0002
0023
0230
2300
3020
0230
0302
0203
,
0310
1000
0010
0100
0002
0023
0230
2300
,
3010
2000
3001
2000
3100
0010
0001
0100
,
0010
2000
3200
0320
0032
0023
0230
2300
,
3010
0010
0100
0001
0200
0320
2030
3002
,
0103
0002
1003
0002
0013
0100
1000
0010
,
1010
0101
0000
0011
0000
1100
0100
1000
,
0010
0100
0001
0100
0010
1000
0100
1000
,
1100
0000
0110
0000
0100
0010
0010
0001
,
0010
0010
0100
1000
1000
0001
1000
1000
,
0100
0100
0010
0001
0010
0000
0100
1000
,
1000
0010
0100
0100
0001
0100
0100
0010
,
1000
1000
0000
0000
0001
1000
1000
0100
,
0010
0010
0001
0100
0100
0010
1000
1000
,
0100
0010
0010
0001
0100
0100
0000
0010
,
1000
1000
0100
0010
0010
0001
0010
0010
,
0100
1000
0100
1000
0100
1000
0100
1000
0100
1000
0100
1000
0100
1000
0100
1000
,
0100
0010
0100
0010
0100
0010
0100
0010
0100
0010
0100
0010
0100
0010
0100
0010
,
0001
0010
0001
0010
0001
0010
0001
0010
0001
0010
0001
0010
0001
0010
0001
0010
,
0001
0100
0001
0100
0001
0100
0001
0100
0001
0100
0001
0100
0001
0100
0001
0100
,
0010
1000
0010
0100
0001
0010
0100
1000
0010
1000
0010
0100
0001
0100
0001
0010
,
0001
0010
0001
0100
0001
0100
0010
1000
0010
1000
0100
0010
0001
0010
0100
1000
,
0010
1000
0010
0100
0001
0100
0001
0100
0010
1000
0010
1000
0100
0010
0001
0010
,
0100
1000
0010
0100
0010
1000
0010
0100
0001
0100
0010
0100
0001
0100
0010
1000
,
0200
1300
0010
M100
,
0001
M000
M100
0000
001M
0000
1000
010M
,
002M
0000
0M32
0000
0023
M000
M230
0000
,
23M0
0000
3010
000M
010M
0000
M001
0100
,
0010
000M
100M
0000
010M
0000
0010
M000
,
M001
0000
M020
0000
0130
0000
1000
0010
,
0200
0000
0301
M000
M010
0000
M100
0000
,
1000
000M
010M
0000
001M
0000
0001
0100
,
0010
2000
3100
0010
,
0002
0000
0103
0000
0010
0000
1000
0100
,
0010
0000
0001
0000
0020
0000
0130
1000
,
0100
0000
1000
0000
0100
0010
0001
1000
,
0200
0300
1100
0000
0100
0000
0110
0000
,
0010
0000
0001
0000
0021
0030
0001
0100
,
0101
0000
0002
0003
0011
0000
0010
0000
,
0220
0330
0000
0010
0000
0100
1000
0000
,
0020
0130
0002
0103
0020
0030
0000
1000
,
0000
0100
0010
0000
0001
0000
0100
0001
,
0202
0303
0010
1000
0100
0000
2200
3300
,
0010
0001
0010
0000
0022
0033
0100
1000
,
0001
0000
2002
3003
2020
3030
0202
0303
,
0022
0033
0100
0000
1000
0000
0100
0010
,
0210
0310
0022
0033
0102
0103
0001
0010
,
0100
1000
2100
3100
0010
0100
0010
0001
,
0011
0000
0000
0100
1000
0100
0010
0001
0100
0010
1000
0010
,
0100
0001
0010
0100
1000
0100
0010
0001
0100
0001
0100
0010
,
1000
0010
1000
0000
0000
0000
0010
0100
0001
0100
0001
0010
,
0100
1000
0100
0010
0001
0100
0001
0100
0010
1000
0010
1000
,
0001
0000
0000
0000
0010
0000
0000
0000
0100
0000
0000
0000
1000
0000
0000
0100
0000
0000
0010
0000
0000
0001
0000
0000
0100
0000
0000
0010
0000
0000
1000
0000
0000
0010
0000
0000
0100
0000
0000
0001
0000
0000
0010
0000
0000
0100
0000
0000
,
1000
0010
0100
0001
1000
0010
0100
0001
1000
0010
0100
0001
1000
0010
0100
0001
,
1000
0100
0010
0001
1000
0100
0010
0001
1000
0100
0010
0001
1000
0100
0010
0001
,
1000
0100
1000
0100
1000
0001
1000
0001
1000
0010
1000
0010
1000
0001
1000
0001
,
1000
0100
1000
0100
0010
0001
0010
0001
1000
0001
1000
0001
0100
0001
0100
0001
,
1000
0001
1000
0001
0010
0001
0010
0100
1000
0100
0010
0001
0100
0001
0100
0010
,
1000
0010
1000
0010
0100
0001
0100
0001
0010
0100
1000
0100
0010
0001
0100
0010
,
1000
0100
0010
0100
0010
0001
0010
0100
0010
0100
1000
0010
0100
0001
0010
0100
,
0010
0100
1000
0100
0010
0000
0001
0000
0010
0000
0011
0000
0010
0000
0110
0000
,
0100
1100
1000
1010
0100
0002
0023
0230
,
1300
0002
0013
0002
1003
0002
0103
0002
,
1003
0002
0023
0230
1300
0200
0310
0200
,
0301
0200
0310
0200
2300
3020
0230
0302
,
0013
0000
0100
0000
1000
0000
0100
0000
0010
0000
0001
0000
0100
0001
0100
0010
,
1000
0010
1000
0010
0200
0302
0023
0230
2300
0000
3200
0320
0032
0000
0203
0320
,
0000
1030
0000
0010
1010
0000
0000
0000
0000
0000
0110
0000
0000
0000
0101
0000
,
0000
0011
0000
0000
0110
0000
1100
0000
,
1001
0000
0001
1000
0001
0000
0010
0100
,
0000
1000
0100
0000
0010
0001
0100
0010
,
1000
0010
0000
0000
0000
0000
0100
0001
,
1000
2002
0000
0000
3003
0000
0000
0000
;

//---------------dance-single - Copied from----------------
#NOTES:
     dance-single:
     Copied from:
     Challenge:
     10:
     0.928,1.000,0.373,1.000,0.324,513.000,38.000,111.000,0.000,0.000,0.000,0.928,1.000,0.373,1.000,0.324,513.000,38.000,111.000,0.000,0.000,0.000:
0000
0000
0000
0000
,
0000
0000
1000
0100
1100
0000
0022
0000
,
0000
0000
0000
0000
,
0033
0000
0001
0010
0100
1000
0010
0001
,
0010
1000
0100
0001
0100
1000
0010
0100
,
0001
0100
0020
2030
3200
0310
0002
0023
,
0230
1300
0010
0001
0010
1000
0200
0302
,
0103
1000
0020
0130
0002
0203
0320
2030
,
3200
0320
0032
0023
0230
2300
3020
0230
,
0301
0100
0010
1000
0002
0023
0230
2300
,
3010
2000
3001
2000
3100
0010
0001
0100
,
0010
2000
3200
0320
0032
0023
0230
2300
,
3010
0010
0100
0001
0200
0320
2030
3002
,
0103
0002
1003
0002
0013
0100
1000
0010
,
1010
0101
0000
0011
0000
1100
0100
1000
,
0010
0100
0001
0100
0010
1000
0100
1000
,
1100
0000
0110
0000
0100
0010
0010
0001
,
0010
0010
0100
1000
1000
0001
1000
1000
,
0100
0100
0010
0001
0010
0000
0100
1000
,
1000
0010
0100
0100
0001
0100
0100
0010
,
1000
1000
0000
0000
0001
1000
1000
0100
,
0010
0010
0001
0100
0100
0010
1000
1000
,
0100
0010
0010
0001
0100
0100
0000
0010
,
1000
1000
0100
0010
0010
0001
0010
0010
,
0000
0000
0000
0100
,
1000
0000
0000
0010
0100
0000
0000
0001
,
0100
0010
1000
0000
,
0000
0000
0100
0000
0010
0000
0000
0000
0001
0000
0010
0000
,
0000
0000
0100
0000
,
0100
0000
1000
0000
0010
0000
0000
0000
0000
0000
0000
0000
,
0100
0000
0001
0000
0100
0000
0010
0000
1000
0000
0100
0000
,
0010
0000
0001
0000
0010
0000
0100
0000
1000
0010
1000
0010
0100
0001
0100
0001
,
0200
0310
1000
0010
,
1000
0000
0100
0000
0010
0000
0001
0010
,
0200
2300
3020
0230
,
0302
0000
0013
0000
0010
0000
0100
1000
,
0100
1000
0100
0010
,
0001
0000
0020
0000
0130
0000
1000
0010
,
0200
0301
0010
0100
,
1000
0000
0100
0000
0010
0000
0001
0100
,
0010
2000
3100
0010
,
0002
0000
0103
0000
0010
0000
1000
0100
,
0010
0000
0001
0000
0020
0000
0130
1000
,
0100
0000
1000
0000
0100
0010
0001
1000
,
0200
0300
1100
0000
0100
0000
0110
0000
,
0010
0000
0001
0000
0021
0030
0001
0100
,
0101
0000
0002
0003
0011
0000
0010
0000
,
0220
0330
0000
0010
0000
0100
1000
0000
,
0020
0130
0002
0103
0020
0030
0000
1000
,
0000
0100
0010
0000
0001
0000
0100
0001
,
0202
0303
0010
1000
0100
0000
2200
3300
,
0010
0001
0010
0000
0022
0033
0100
1000
,
0001
0000
2002
3003
2020
3030
0202
0303
,
0022
0033
0100
0000
1000
0000
0100
0010
,
0220
0330
0022
0033
0102
0103
0001
0010
,
0100
1000
2100
3100
0010
0100
0010
0001
,
0011
0000
0000
0100
1000
0100
1000
0100
1000
0100
1000
0100
,
1000
0100
1000
0100
1000
0100
1000
0100
1000
0100
1000
0100
,
1000
0100
1000
0000
0000
0000
0100
0010
0100
0010
0100
0010
,
0100
0010
0100
0010
0100
0010
0100
0010
0100
0010
0100
0010
,
0100
0000
0000
0000
0010
0000
0000
0000
0100
0000
0000
0000
1000
0000
0000
0000
0000
0000
0000
0000
0000
0000
0000
0000
0001
0000
0000
0010
0000
0000
0001
0000
0000
0010
0000
0000
0001
0000
0000
0000
0000
0000
0000
0000
0000
0000
0000
0000
,
1000
0100
1000
0100
1000
0000
0000
0000
0001
0100
0001
0100
0001
0000
0000
0000
,
1000
0010
1000
0010
1000
0000
0000
0000
0100
0010
0001
0010
0100
0000
0000
0000
,
1000
0010
0100
0001
0100
0000
0000
0000
0010
1000
0100
0010
0100
0000
0010
0000
,
0001
0010
0100
1000
0010
0001
0010
1000
,
0100
0001
0100
1000
0010
0100
0001
0100
,
0010
1000
0100
0010
0001
0100
0010
1000
,
0100
0010
0001
0010
0100
1000
0001
1000
,
0100
0010
0001
0010
0000
0011
0000
0110
,
0000
1100
0000
1010
0100
0002
0023
0230
,
1300
0002
0013
0002
1003
0002
0103
0002
,
1003
0002
0023
0230
1300
0200
0310
0200
,
0301
0200
0310
0200
2300
3020
0230
0302
,
0013
0000
0100
0000
1000
0000
0100
0000
0010
0000
0001
0000
1000
0100
1000
0000
,
0001
0010
0001
0000
2000
3200
0320
0032
0023
0030
0200
2300
3020
0000
0230
0302
,
0000
1003
0000
0010
1010
0000
0000
0000
0000
0000
0110
0000
0000
0000
0101
0000
,
0000
0011
0000
0000
0110
0000
1100
0000
,
1001
0000
0001
1000
0001
0000
0010
0100
,
0000
1000
0100
0000
0010
0001
0100
0010
,
1000
0010
0000
0000
0000
0000
0100
0001
,
1000
2002
0000
0000
3003
0000
0000
0000
;

//---------------dance-single - Blank----------------
#NOTES:
     dance-single:
     Blank:
     Beginner:
     1:
     0.108,0.156,0.020,0.000,0.000,75.000,2.000,0.000,0.000,0.000,0.000,0.108,0.156,0.020,0.000,0.000,75.000,2.000,0.000,0.000,0.000,0.000: // measure 0
0000
0000
0000
0000
,  // measure 1
0000
0000
0000
0000
,  // measure 2
0000
0000
0000
0000
,  // measure 3
0000
0000
0000
0000
,  // measure 4
0000
0000
0000
0000
,  // measure 5
0000
0000
0000
0000
,  // measure 6
0000
0000
0000
0000
,  // measure 7
0000
0000
0000
0000
,  // measure 8
1000
0000
0000
0000
,  // measure 9
0001
0000
0000
0000
,  // measure 10
1000
0000
0000
0000
,  // measure 11
0100
0000
0000
0000
,  // measure 12
0010
0000
0000
0000
,  // measure 13
0001
0000
0000
0000
,  // measure 14
1000
0000
0000
0000
,  // measure 15
0001
0000
0000
0000
,  // measure 16
1000
0000
0000
0000
,  // measure 17
0001
0000
0000
0000
,  // measure 18
1000
0000
0000
0000
,  // measure 19
0010
0000
0000
0000
,  // measure 20
0100
0000
0000
0000
,  // measure 21
0010
0000
0000
0000
,  // measure 22
1000
0000
0000
0000
,  // measure 23
0001
0000
0000
0000
,  // measure 24
1000
0000
0000
0000
,  // measure 25
0000
0000
0000
0000
,  // measure 26
0000
0000
0000
0000
,  // measure 27
0000
0000
0000
0000
,  // measure 28
0000
0000
0000
0000
,  // measure 29
0000
0000
0000
0000
,  // measure 30
0000
0000
0000
0000
,  // measure 31
0000
0000
0000
0000
,  // measure 32
0001
0000
0001
0000
,  // measure 33
1000
0000
1000
0000
,  // measure 34
0010
0000
0010
0000
,  // measure 35
0100
0000
0001
0000
,  // measure 36
0001
0000
1000
0000
,  // measure 37
0001
0000
0000
0000
,  // measure 38
0001
0000
0000
0000
,  // measure 39
0000
0000
0000
0000
,  // measure 40
0000
1000
0000
0000
,  // measure 41
1000
0000
0000
0000
,  // measure 42
0000
0000
0000
0000
,  // measure 43
0000
0000
0000
0000
,  // measure 44
0001
0000
0000
0000
,  // measure 45
0000
0000
1000
0000
,  // measure 46
0000
0001
0000
0000
,  // measure 47
1000
0000
0000
0000
,  // measure 48
0001
0001
0001
0000
,  // measure 49
0000
0000
0000
0000
,  // measure 50
1000
0000
0000
0010
,  // measure 51
0000
0000
0100
0000
,  // measure 52
0000
0000
0001
0001
,  // measure 53
0001
0000
0000
0000
,  // measure 54
1000
0000
1000
0000
,  // measure 55
0000
0001
0000
0000
,  // measure 56
1001
0000
0000
0000
,  // measure 57
0000
0000
0000
0000
,  // measure 58
0000
0000
0001
0000
,  // measure 59
0000
0000
0000
0000
,  // measure 60
0000
1000
0000
0100
,  // measure 61
0000
0010
0000
0001
,  // measure 62
0000
0100
0000
0010
,  // measure 63
0000
1000
0000
0001
,  // measure 64
0000
1000
0000
0001
,  // measure 65
0000
0100
0000
0010
,  // measure 66
0000
1000
0000
0000
,  // measure 67
1000
0000
0000
0001
,  // measure 68
0000
0000
0000
0000
,  // measure 69
0000
0000
0000
0000
,  // measure 70
0000
0000
0000
0000
,  // measure 71
0000
0001
0000
0000
,  // measure 72
0000
0000
0000
1000
,  // measure 73
0000
0000
0000
0000
,  // measure 74
0001
0001
0000
0000
,  // measure 75
0000
1000
0000
0000
,  // measure 76
0100
0000
0000
0000
,  // measure 77
0000
0010
0000
0100
,  // measure 78
0000
0010
0000
0100
,  // measure 79
0000
0000
0000
1001
;
