#TITLE:Bulletproof;
#SUBTITLE:;
#ARTIST:La Roux;
#TITLETRANSLIT:;
#SUBTITLETRANSLIT:;
#ARTISTTRANSLIT:;
#CREDIT:;
#BANNER:;
#BACKGROUND:;
#LYRICSPATH:;
#CDTITLE:;
#MUSIC:Bulletproof.mp3;
#OFFSET:-7.850;
#SAMPLESTART:40.760;
#SAMPLELENGTH:15.610;
#SELECTABLE:YES;
#BPMS:0.000=123.000;
#STOPS:;
#BGCHANGES:;

//---------------dance-single - ----------------
#NOTES:
     dance-single:
     :
     Hard:
     7:
     0.450,0.420,0.283,0.238,0.155: // measure 1
1000
0100
0010
0100
1000
0000
1001
0000
,  // measure 2
0001
0100
0010
0100
0001
0000
1001
0000
,  // measure 3
1000
0001
1000
0010
0100
0010
1000
0100
,  // measure 4
0010
0011
0001
1001
,  // measure 5
1000
0001
0010
0100
0010
0000
0011
0000
,  // measure 6
0001
0100
1000
0100
0010
0000
1010
0000
,  // measure 7
1000
0001
0010
0100
0010
0001
0100
1000
,  // measure 8
0100
0000
0110
0000
0010
1000
1001
0000
,  // measure 9
0001
0001
0001
0100
0010
1000
0100
0000
,  // measure 10
0010
0001
0100
0000
0001
0000
1100
0000
,  // measure 11
1000
1000
0001
0001
0010
0100
0010
0001
,  // measure 12
2000
0000
0000
0000
0001
0000
0000
0001
0000
0000
0001
0000
0000
3001
0000
0000
,  // measure 13
0001
0001
0100
0100
0010
0000
0101
0000
,  // measure 14
0001
0001
0010
0010
0001
0000
1100
0000
,  // measure 15
0001
0100
0010
1000
0001
0010
0100
1000
,  // measure 16
0100
0000
1100
0000
1000
0001
0101
0000
,  // measure 17
2001
0000
0000
0000
0010
0000
0000
0010
0000
0000
0010
0000
0000
3010
0000
0000
,  // measure 18
1000
0001
0000
0000
0100
0000
0000
0000
0001
0000
0100
0000
1000
0000
0000
0000
,  // measure 19
1000
0100
0000
0000
0001
0000
0000
0000
0010
0000
0001
0000
1000
0000
0000
0000
,  // measure 20
0001
0100
0010
0000
1000
0100
0001
0100
,  // measure 21
1000
0100
0000
0000
0010
0000
0001
0010
0000
0000
0001
0000
1001
0000
0000
0000
,  // measure 22
1000
0010
0001
0010
0000
1010
0000
1000
,  // measure 23
0100
0010
0000
0000
0001
0000
1000
0000
0001
0000
0000
0000
0101
0000
0000
0000
,  // measure 24
0100
0010
1000
0100
0001
0000
0100
0000
,  // measure 25
1000
0100
0010
0100
0100
0010
0001
0000
,  // measure 26
1002
0000
0000
2000
0000
0000
0000
0000
0000
0000
0000
0000
3003
0000
0000
0000
,  // measure 27
2010
0000
0000
0020
0000
0000
0000
0000
0000
0000
0000
0000
3030
0000
0000
0000
,  // measure 28
0220
0000
0000
0330
,  // measure 29
0202
0000
0000
0303
,  // measure 30
0012
0000
0000
0020
0000
0000
0000
0000
0000
0000
0000
0000
0033
0000
0000
0000
,  // measure 31
2100
0000
0000
0200
0000
0000
0000
0000
0000
0000
0000
0000
3300
0000
0000
0000
,  // measure 32
2002
0000
0000
3003
,  // measure 33
0220
0000
0000
0330
,  // measure 34
0010
1000
0010
0100
0001
0100
0001
0010
,  // measure 35
0100
0010
0100
0010
0001
0010
0001
1000
,  // measure 36
0010
0100
0010
1000
0010
1000
0001
0100
,  // measure 37
0002
0000
0000
0000
1000
0000
0000
1000
0000
0000
1000
0000
0000
1003
0000
0000
,  // measure 38
1000
0000
0010
0000
0100
0000
0001
0000
1000
0000
0000
0001
0000
0000
1000
0000
,  // measure 39
0001
0000
0010
0000
0100
0000
0010
0000
0001
0000
1000
0001
0000
0001
1000
0000
,  // measure 40
0001
0000
0010
0000
0100
0000
0010
0000
0001
0000
0000
1000
0000
0000
0001
0000
,  // measure 41
1002
0000
0000
0000
0010
0000
0000
0010
0000
0000
1000
0000
0000
1003
0000
0000
,  // measure 42
1000
0001
0000
0000
0100
0000
0001
1000
0000
0000
0100
0000
0010
0000
0000
0000
,  // measure 43
0100
1000
0000
0000
0001
0000
1000
0100
0000
0000
0010
0000
0001
0000
0000
0000
,  // measure 44
1000
0010
0200
0000
1000
0000
0301
0000
,  // measure 45
0001
0010
0200
0000
0010
0000
1300
0000
,  // measure 46
0001
0100
0000
0000
0001
0000
1000
0100
1000
0000
0000
0100
0000
0000
1000
0000
,  // measure 47
0001
0010
0000
0000
0001
0000
1000
0010
1000
0000
0000
0001
0000
0000
1000
0000
,  // measure 48
0100
0010
0002
0000
0010
0000
1003
0000
,  // measure 49
1000
0010
0200
0000
1000
0000
0301
0000
,  // measure 50
0001
0000
1000
0000
1200
0000
0000
0000
0010
0000
0000
0010
0000
0000
0310
0000
,  // measure 51
0001
0000
0010
0000
0012
0000
0000
0000
1000
0000
0000
1000
0000
0000
1003
0000
,  // measure 52
0010
0000
1000
0000
2100
0000
0000
0000
0100
0000
0000
0100
0000
0000
3100
0000
,  // measure 53
1000
0000
0001
0000
0101
0000
0000
0000
0100
0000
0000
0110
0000
0000
1001
0000
;

//---------------dance-single - ----------------
#NOTES:
     dance-single:
     :
     Medium:
     5:
     0.338,0.304,0.203,0.177,0.040: // measure 1
1000
0001
0100
0000
0010
0000
0110
0000
,  // measure 2
0100
0001
1000
0000
0001
1000
0001
0000
,  // measure 3
1000
0100
0001
0100
,  // measure 4
0020
0001
1000
0031
,  // measure 5
1000
0001
0100
0000
1000
0000
1100
0000
,  // measure 6
0001
0010
0100
0000
0010
0000
0001
0000
,  // measure 7
1000
0001
0100
0000
1000
0000
0100
0010
,  // measure 8
1000
0100
0001
0100
,  // measure 9
0010
0010
0001
0000
1000
1000
0001
0000
,  // measure 10
1000
0000
0010
0000
0100
0010
0100
0000
,  // measure 11
0010
1000
0001
0000
1000
0000
1001
0000
,  // measure 12
0002
0010
1000
0103
,  // measure 13
0010
0010
0010
0000
0100
0100
0100
0000
,  // measure 14
0010
1000
0001
0000
1000
0000
1001
0000
,  // measure 15
0001
0000
0010
0100
1000
0000
0100
0000
,  // measure 16
0010
0000
0001
1000
0000
0001
0100
0001
,  // measure 17
0020
0000
0000
0030
,  // measure 18
0110
0000
0000
0100
1000
0000
0001
0000
,  // measure 19
0101
0000
0000
0100
0010
0000
1000
0000
,  // measure 20
1001
0000
0000
0001
0010
0000
0100
0000
,  // measure 21
1000
0100
0001
0100
,  // measure 22
1000
0001
0000
0001
1000
0000
1001
0000
,  // measure 23
0001
0100
0000
0100
0001
0000
0101
0000
,  // measure 24
0100
0010
0000
0010
0100
0000
0110
0000
,  // measure 25
0010
1000
0000
1000
0002
0000
0003
0000
,  // measure 26
1000
0000
0000
2000
0000
0000
0000
0000
0000
0000
0000
0000
3000
0000
0000
0000
,  // measure 27
0001
0000
0000
0002
0000
0000
0000
0000
0000
0000
0000
0000
0003
0000
0000
0000
,  // measure 28
0220
0000
0000
0330
,  // measure 29
2002
0000
0000
3003
,  // measure 30
2100
0000
0000
0200
0000
0000
0000
0000
0000
0000
0000
0000
3300
0000
0000
0000
,  // measure 31
0012
0000
0000
0020
0000
0000
0000
0000
0000
0000
0000
0000
0033
0000
0000
0000
,  // measure 32
2002
0000
0000
3003
,  // measure 33
0220
0000
0000
0330
,  // measure 34
0010
0000
0000
0000
1000
0000
0000
0000
0001
0000
0000
0001
0000
0000
0001
0000
,  // measure 35
1000
0000
0000
0000
0100
0000
0000
0000
0010
0000
0000
0010
0000
0000
0010
0000
,  // measure 36
0100
0000
0010
0000
0001
0000
1000
0010
,  // measure 37
0200
1000
0010
0301
,  // measure 38
0001
0000
0000
0000
1000
0000
0000
0000
0100
0000
0000
0100
0000
0000
0100
0000
,  // measure 39
0010
0000
0000
0000
0001
0000
0000
0000
1000
0000
0000
1000
0000
0000
1000
0000
,  // measure 40
0001
0000
0100
0000
0010
0000
1000
0001
,  // measure 41
0200
0000
0000
0300
,  // measure 42
1001
0000
1000
0000
0100
0010
0001
0000
,  // measure 43
0100
0000
0010
0000
0100
0010
1000
0000
,  // measure 44
0001
0100
0000
0100
0001
0000
1000
0000
,  // measure 45
0100
1000
0000
1000
0100
0000
0010
0000
,  // measure 46
0001
1000
0001
0000
1000
0000
0010
0000
,  // measure 47
0100
0001
0010
0000
0100
0000
0010
0000
,  // measure 48
0001
1000
0000
1000
0010
0000
0110
0000
,  // measure 49
0100
0001
0000
0001
0010
0000
0110
0000
,  // measure 50
1000
0001
1000
0000
0001
0000
0101
0000
,  // measure 51
0100
0010
0100
0000
0010
0000
1010
0000
,  // measure 52
1000
0001
0010
0000
0100
0000
0110
0000
,  // measure 53
0010
0000
0001
0000
1000
0000
0000
0000
0001
0000
0000
1000
0000
0000
1001
0000
;

//---------------dance-single - ----------------
#NOTES:
     dance-single:
     :
     Easy:
     3:
     0.192,0.233,0.035,0.106,0.000: // measure 1
1000
0001
1000
0000
,  // measure 2
0001
0100
0001
0000
,  // measure 3
1000
0010
1000
0001
,  // measure 4
1000
0000
0001
0000
,  // measure 5
0010
0001
0100
0000
,  // measure 6
0010
1000
0100
0000
,  // measure 7
0010
0100
0010
0001
,  // measure 8
0010
0000
0001
0000
,  // measure 9
1000
0001
1000
0000
,  // measure 10
0001
0010
0001
0000
,  // measure 11
1000
0100
0001
0100
,  // measure 12
1000
0000
0001
0000
,  // measure 13
1000
0010
1000
0000
,  // measure 14
0001
0010
0001
0000
,  // measure 15
1000
0100
0010
0100
,  // measure 16
1000
1000
0001
0001
,  // measure 17
2002
0000
0000
3003
,  // measure 18
1000
0001
0010
0100
,  // measure 19
0010
0000
0100
0000
,  // measure 20
1000
0000
0001
0100
,  // measure 21
0001
0000
1000
0000
,  // measure 22
0001
0010
0100
0010
,  // measure 23
0001
0000
1000
0000
,  // measure 24
0010
0000
0100
0010
,  // measure 25
1000
0000
0001
1000
,  // measure 26
1002
0000
0000
0000
,  // measure 27
0023
0000
0000
0000
,  // measure 28
0230
0000
0000
0000
,  // measure 29
2300
0000
0000
0000
,  // measure 30
3020
0000
0000
0000
,  // measure 31
0230
0000
0000
0000
,  // measure 32
0302
0000
0000
0000
,  // measure 33
2000
0000
0000
3003
,  // measure 34
1000
0000
0000
1000
,  // measure 35
0100
0000
0000
0100
,  // measure 36
0010
0000
0001
0010
,  // measure 37
0001
0000
1000
0000
,  // measure 38
0001
0000
0000
0001
,  // measure 39
0100
0000
0000
0100
,  // measure 40
0010
0000
0010
1000
,  // measure 41
2002
0000
0000
3003
,  // measure 42
1000
0100
1000
0100
,  // measure 43
0010
0000
0100
0000
,  // measure 44
0010
0001
0010
0001
,  // measure 45
1000
0000
0001
0000
,  // measure 46
0100
0001
0100
0001
,  // measure 47
1000
0000
0001
0000
,  // measure 48
1000
0010
1000
0010
,  // measure 49
0100
0000
0001
0000
,  // measure 50
1000
0100
1000
0000
,  // measure 51
0001
0010
0001
0000
,  // measure 52
1000
0001
0100
0000
,  // measure 53
0100
0010
1000
1001
;

//---------------dance-single - ----------------
#NOTES:
     dance-single:
     :
     Beginner:
     1:
     0.098,0.138,0.026,0.000,0.000: // measure 1
1000
0000
0000
0000
,  // measure 2
0001
0000
0100
0000
,  // measure 3
0001
0000
1000
0000
,  // measure 4
0001
0000
0000
0000
,  // measure 5
0010
0000
0000
0000
,  // measure 6
0001
0000
0010
0000
,  // measure 7
0100
0000
0010
0000
,  // measure 8
0001
0000
0000
0000
,  // measure 9
1000
0000
0000
0000
,  // measure 10
0010
0000
1000
0000
,  // measure 11
0100
0000
1000
0000
,  // measure 12
0001
0000
0000
0000
,  // measure 13
0100
0000
0000
0000
,  // measure 14
0010
0000
0100
0000
,  // measure 15
0001
0000
1000
0000
,  // measure 16
0001
0000
0010
0000
,  // measure 17
0100
0000
0000
0000
,  // measure 18
0010
0000
0001
0000
,  // measure 19
0010
0000
0000
0000
,  // measure 20
0001
0000
0000
0000
,  // measure 21
1000
0000
0000
0000
,  // measure 22
0001
0000
0100
0000
,  // measure 23
0001
0000
0000
0000
,  // measure 24
1000
0000
0000
0000
,  // measure 25
0010
0000
0000
0000
,  // measure 26
1000
0000
0000
0000
,  // measure 27
0100
0000
0000
0000
,  // measure 28
0010
0000
0000
0000
,  // measure 29
0001
0000
0000
0000
,  // measure 30
1000
0000
0000
0000
,  // measure 31
0001
0000
0000
0000
,  // measure 32
0100
0000
0000
0000
,  // measure 33
0110
0000
0000
0000
,  // measure 34
1001
0000
0000
1000
,  // measure 35
1000
0000
0000
0100
,  // measure 36
0100
0000
0000
0010
,  // measure 37
0010
0000
0000
0000
,  // measure 38
0001
0000
0000
0100
,  // measure 39
0100
0000
0000
0010
,  // measure 40
0010
0000
0000
1000
,  // measure 41
1000
0000
0000
0000
,  // measure 42
1001
0000
1000
0000
,  // measure 43
0001
0000
0000
0000
,  // measure 44
0010
0000
0000
0000
,  // measure 45
0001
0000
0000
0000
,  // measure 46
1000
0000
0010
0000
,  // measure 47
0100
0000
0000
0000
,  // measure 48
0001
0000
0000
0000
,  // measure 49
1000
0000
0000
0000
,  // measure 50
0001
0000
1000
0000
,  // measure 51
0001
0000
0100
0000
,  // measure 52
0010
0000
0100
0000
,  // measure 53
0001
0000
0000
0000
;
