#TITLE:A Thousand Miles (Speedo Mix) (The New Attack Mix);
#SUBTITLE:;
#ARTIST:DJ Speedo feat. Wildside;
#TITLETRANSLIT:;
#SUBTITLETRANSLIT:;
#ARTISTTRANSLIT:;
#CREDIT:;
#BANNER:;
#BACKGROUND:;
#LYRICSPATH:;
#CDTITLE:;
#MUSIC:Free Week 1 - A Thousand Miles (Speedo Mix) (The New Attack Mix).mp3;
#OFFSET:-0.700;
#SAMPLESTART:63.640;
#SAMPLELENGTH:12.000;
#SELECTABLE:YES;
#BPMS:0.000=190.001;
#STOPS:;
#BGCHANGES:;

//---------------dance-single - ----------------
#NOTES:
     dance-single:
     :
     Beginner:
     2:
     0.232,0.301,0.104,0.144,0.000: // measure 1
0000
0000
0000
0000
,  // measure 2
2000
0000
3000
0000
,  // measure 3
0002
0000
0003
0000
,  // measure 4
0200
0000
0300
0000
,  // measure 5
0020
0000
0030
0000
,  // measure 6
2000
0000
3000
0000
,  // measure 7
0200
0000
0300
0000
,  // measure 8
0020
0000
0030
0000
,  // measure 9
0002
0000
0003
0000
,  // measure 10
0200
0000
0300
0000
,  // measure 11
0002
0000
0003
0000
,  // measure 12
2000
0000
3000
0000
,  // measure 13
0020
0000
0030
0000
,  // measure 14
0200
0000
0300
0000
,  // measure 15
0002
0000
0003
0000
,  // measure 16
2000
0000
0000
0000
,  // measure 17
0000
0000
3000
0000
,  // measure 18
0001
0001
0001
0001
,  // measure 19
0001
0000
0100
0000
,  // measure 20
0010
0000
1000
0000
,  // measure 21
0001
0000
0010
0000
,  // measure 22
0100
0000
1000
0000
,  // measure 23
0010
0000
0100
0000
,  // measure 24
0001
0000
0010
0000
,  // measure 25
0001
0000
0100
0000
,  // measure 26
0010
0000
1000
0000
,  // measure 27
0001
0000
1001
0000
,  // measure 28
1000
0000
1001
0000
,  // measure 29
0100
0000
0110
0000
,  // measure 30
0010
0000
0110
0000
,  // measure 31
0100
0000
0001
0000
,  // measure 32
0100
0000
0010
0000
,  // measure 33
1000
0000
0100
0000
,  // measure 34
1000
0000
0010
0000
,  // measure 35
0100
0000
0110
0000
,  // measure 36
0010
0000
0110
0000
,  // measure 37
0001
0000
1001
0000
,  // measure 38
1000
0000
1001
0000
,  // measure 39
0010
0000
1000
0000
,  // measure 40
0100
0000
0010
0000
,  // measure 41
0001
0000
0100
0000
,  // measure 42
0010
0000
0100
0000
,  // measure 43
0001
0000
1000
0000
,  // measure 44
0001
0001
0001
0000
,  // measure 45
0100
0000
0010
0000
,  // measure 46
0100
0100
0100
0000
,  // measure 47
0001
0000
0010
0000
,  // measure 48
0100
0100
0100
0000
,  // measure 49
2000
0000
3000
0000
,  // measure 50
0002
0000
0003
0000
,  // measure 51
0100
0000
0010
0000
,  // measure 52
1000
0000
0001
0000
,  // measure 53
0010
0000
0100
0000
,  // measure 54
1000
0000
1000
0000
,  // measure 55
0001
0000
0100
0000
,  // measure 56
0010
0000
0010
0000
,  // measure 57
0100
0000
0001
0000
,  // measure 58
1000
1000
1000
1000
,  // measure 59
1000
0000
0100
0000
,  // measure 60
1000
0000
0010
0000
,  // measure 61
0100
0000
0001
0000
,  // measure 62
0110
0000
1001
0000
,  // measure 63
0110
0000
0000
0100
,  // measure 64
0000
0000
0010
0000
,  // measure 65
1000
1000
1000
0000
,  // measure 66
0010
0010
0010
0000
,  // measure 67
0100
0000
0000
1001
,  // measure 68
0000
0000
0020
0000
,  // measure 69
0000
0000
0000
0000
,  // measure 70
0000
0000
0030
0000
,  // measure 71
1000
0000
0001
0000
,  // measure 72
0100
0000
0010
0000
,  // measure 73
0100
0000
0001
0000
,  // measure 74
0010
0000
0100
0000
,  // measure 75
1000
0000
0010
0000
,  // measure 76
0100
0000
0010
0000
,  // measure 77
1000
0000
0100
0000
,  // measure 78
0010
0000
0001
0000
,  // measure 79
1000
0000
0001
0000
,  // measure 80
0100
0000
0010
0000
,  // measure 81
0100
0000
0001
0000
,  // measure 82
0010
0000
0001
0000
,  // measure 83
0100
0000
0010
0000
,  // measure 84
1000
0000
0100
0000
,  // measure 85
1000
0000
0001
0000
,  // measure 86
0100
0000
0010
0000
,  // measure 87
0100
0000
0001
0000
,  // measure 88
0010
0000
0100
0000
,  // measure 89
1000
0000
0001
0000
,  // measure 90
0100
0000
0010
0010
,  // measure 91
0010
0000
0100
0000
,  // measure 92
0001
0000
1000
0000
,  // measure 93
0100
0000
0010
0000
,  // measure 94
0001
0000
1000
0000
,  // measure 95
1001
0000
0000
0000
;

//---------------dance-single - ----------------
#NOTES:
     dance-single:
     :
     Easy:
     5:
     0.358,0.414,0.168,0.176,0.000:
0000
0000
0000
0000
,
2000
0000
0000
0000
,
3002
0000
0000
0000
,
0203
0000
0320
0000
,
2030
0000
0000
0000
,
3002
0000
0000
0000
,
0023
0000
0000
0000
,
0230
0000
2300
0000
,
3020
0000
0000
0000
,
0230
0000
0000
0000
,
0302
0000
0000
0000
,
2003
0000
3200
0000
,
0320
0000
0000
0000
,
0032
0000
0000
0000
,
0203
0000
0000
0020
,
0000
0000
0000
0000
,
0000
0000
0000
0330
,
1000
0001
1000
0001
,
1000
0010
0100
0001
,
0010
0100
1000
0100
,
1000
0001
0010
0001
,
0100
0010
1000
0001
,
0010
0100
1000
0100
,
1000
0010
0100
0001
,
1000
1001
0001
1001
,
0100
1000
0100
1000
,
0100
1000
0001
0000
,
0010
0001
1000
0000
,
0010
0100
1000
0000
,
0100
0010
0001
0000
,
1000
0001
0100
0010
,
0100
0001
1000
0100
,
1000
0010
0100
0010
,
1000
0100
0010
0001
,
1000
0010
0100
0000
,
0001
0100
0010
0000
,
1000
0001
0100
0000
,
0001
1000
0010
0000
,
0100
0001
0010
0100
,
0010
0001
0010
0100
,
1000
0001
0100
0010
,
1000
0100
0010
0011
,
0001
0000
0000
0001
0000
0000
0001
0000
,
1000
1001
0001
1001
,
0100
0000
0000
0100
0000
0000
0100
0000
,
0010
0110
0100
0110
,
0010
0000
0000
0010
0000
0000
0010
0000
,
0010
1010
1000
1001
,
0002
0000
0000
0000
,
0203
0000
0000
0310
,
1000
0000
0000
0100
0000
0000
1000
0000
,
0000
0001
0100
0010
,
1000
0000
0000
0010
0000
0000
1000
0000
,
0000
0001
0000
0000
0100
0000
0100
0000
,
0010
0000
0000
0100
0000
0000
0001
0000
,
0000
1000
0100
0010
,
0001
0000
0000
0100
0000
0000
0010
0000
,
1000
0100
0010
0001
,
1000
0000
0000
0010
0000
0000
0100
0000
,
0000
0000
0001
0000
0000
0100
0000
0000
,
0010
0000
0000
0100
0000
0000
0001
0000
,
0000
0000
1000
0001
,
0100
0000
0000
1100
,
0000
0000
0101
0000
,
1000
0100
0010
0001
,
1000
0010
0100
0001
,
1000
0000
0000
1001
,
0000
0000
0220
0000
,
0000
0000
0000
0000
,
0000
0000
0000
0330
,
1000
0100
1000
0100
,
0010
0001
0100
0010
,
0100
0001
0100
0001
,
0010
0100
1000
0001
,
0010
0001
0010
0001
,
0100
0010
1000
0100
,
1000
0010
1000
0010
,
0100
0001
1000
0100
,
1000
0010
0100
0010
,
1000
0100
0010
0000
,
0001
0100
0010
0100
,
0001
1000
0100
0000
,
1000
0010
0100
0000
,
0001
1000
0100
0000
,
1000
0010
0100
0010
,
1000
0100
0010
0000
,
0001
0011
0001
0000
,
1000
1100
1000
0000
,
0001
1001
1000
0000
,
0001
0101
0100
0101
,
0001
1010
0001
0000
,
1000
0101
1000
0000
,
0001
0100
0010
1000
,
0001
0100
0010
1000
,
1001
0000
0000
0000
;

//---------------dance-single - Copied from----------------
#NOTES:
     dance-single:
     Copied from:
     Challenge:
     9:
     0.698,0.644,0.288,0.384,0.000:
0000
0000
0000
0000
,
2000
0000
0000
0100
0000
0000
3001
0000
,
0200
0000
0000
1000
0000
0000
0301
0000
,
0020
0001
0100
0031
,
2000
0000
0000
0010
0000
0000
3100
0000
,
0020
0000
0000
1000
0000
0000
0130
0000
,
2000
0000
0000
0010
0000
0000
3001
0000
,
0200
1000
0010
0301
,
0020
0000
0000
0100
0000
0000
0031
0000
,
0200
0000
0000
1000
0000
0000
0301
0000
,
0020
0000
0000
1000
0000
0000
0031
0000
,
2000
0001
0010
3001
,
0200
0000
0000
0010
0000
0000
0301
0000
,
2000
0000
0000
0010
0000
0000
3100
0000
,
0020
0000
0000
1000
0000
0000
0002
0000
,
0000
0000
0000
0000
,
0000
0000
0000
0033
,
0010
0001
0010
0001
0100
0010
0100
0010
,
1000
0100
1000
0001
0100
0001
1000
0010
,
0100
0010
1000
0001
1000
0100
0001
0100
,
1000
0010
1000
0001
0010
0001
1000
0100
,
0010
0100
1000
0001
1000
0100
0001
0100
,
1000
0010
1000
0001
0100
0001
1000
0010
,
0100
0001
1000
0001
1000
0010
0001
0010
,
1000
0100
1000
0001
0010
0001
1000
0100
,
0010
0001
1000
0001
1000
0010
0001
0010
,
1000
0100
0010
0002
0000
0010
0000
1003
,
0000
0100
1000
0020
0000
0001
0000
1030
,
0000
0100
1000
0200
0000
0001
0000
1300
,
0000
0001
1000
0100
0000
1001
0000
0100
,
1000
0010
0100
0001
0100
0010
1000
0001
,
0100
0010
1000
0001
1000
0100
0001
0100
,
1000
0100
0010
0001
0010
0100
1000
0001
,
0010
0100
1000
0001
1000
0010
0001
0010
,
1000
0001
0000
0110
0000
1000
0001
0200
,
0000
1000
0000
0310
0000
1000
0001
0020
,
0000
1000
0000
0130
0000
0001
1000
0020
,
0000
0230
0000
0301
0000
1010
0000
0100
,
0001
1000
0100
1000
0001
0100
0010
1000
,
0100
1000
0010
0100
0001
0010
1000
0010
,
0001
1000
0010
1000
0001
0010
0100
1000
,
0010
1000
0100
1000
0001
0100
1000
0000
,
0100
0001
0001
0010
0100
0100
1000
0001
,
0100
0010
1000
0100
0010
0001
1000
0000
,
0100
1000
1000
0010
0100
0100
0001
0010
,
0100
1000
0010
0100
0001
0010
0100
0000
,
1000
0001
0001
0100
0010
0010
0100
0001
,
1000
0100
1000
0010
0100
0001
1000
0000
,
0210
0001
1000
0301
,
0120
1000
0001
1030
,
0200
0000
1000
2300
0000
0001
3001
0000
,
0100
1010
0101
1010
,
0200
0000
0010
0320
0000
0031
0002
0000
,
0103
0010
0000
1000
0001
0100
0001
0100
,
0020
0000
1000
2030
0000
0001
3001
0000
,
0010
1001
0110
1001
,
0020
0000
0100
0230
0000
1000
1300
0000
,
0001
0010
0100
1000
0100
0010
0001
0010
,
0200
0000
1000
2300
0000
0001
3001
0000
,
1000
0101
1010
0101
,
0020
0000
0001
0032
0000
1000
1003
0000
,
0110
1000
0101
0010
,
2001
0100
3001
1002
,
0010
1003
2001
3100
,
0001
0010
0001
0100
0010
0100
0010
1000
,
0100
1000
0100
0010
0001
0010
0001
0000
,
2002
0000
3003
0220
,
0000
0330
2002
0000
,
0000
0000
0000
0000
,
0000
0000
0000
3003
,
0100
1000
0001
0100
0010
1000
0100
0010
,
0001
1000
0010
0100
0001
0100
1000
0100
,
0001
0010
0100
1000
0010
0100
0001
1000
,
0010
0100
0001
1000
0001
0010
1000
0010
,
0001
0100
0010
0100
0001
1000
0100
1000
,
0010
1000
0100
0010
0001
0100
1000
0100
,
0001
0010
0100
1000
0100
0010
0001
1000
,
0010
0100
0001
1000
0001
0010
1000
0010
,
0001
0100
0010
1000
0001
0100
0010
1000
,
0001
0100
0010
1000
0001
0100
1000
0100
,
0001
0010
0100
1000
0001
0010
0100
1000
,
0001
0010
0100
1000
0001
0010
1000
0010
,
0001
0100
0010
0100
0001
1000
0100
1000
,
0001
0100
0010
0100
0001
0010
1000
0010
,
0001
1000
0100
1000
0001
0100
0010
0100
,
0001
1000
0100
1000
0001
0100
1000
0100
,
0001
1010
0100
1010
,
0001
0110
1000
0101
,
0010
1100
0001
0110
,
1000
0000
0101
0000
0010
0000
1000
1000
,
0100
1010
0100
1001
,
0100
1001
0010
0101
,
1000
0110
0001
1010
,
0100
1000
0001
0100
0010
1000
0100
1000
,
2002
0000
0000
3003
;

//---------------dance-single - ----------------
#NOTES:
     dance-single:
     :
     Hard:
     9:
     0.634,0.677,0.376,0.280,0.000:
0000
0000
0000
0000
,
2000
0000
0000
0010
0000
0000
3000
0000
,
0002
0000
0000
0100
0000
0000
0003
0000
,
2000
3200
0320
0032
,
2003
0000
0000
3002
0000
0000
0103
0000
,
0020
0000
0000
1000
0000
0000
0030
0000
,
0200
0000
0000
0001
0000
0000
0300
0000
,
0002
0023
0230
2300
,
3002
0000
0000
2003
0000
0000
3010
0000
,
2000
0000
0000
0100
0000
0000
3000
0000
,
0002
0000
0000
0010
0000
0000
0003
0000
,
2000
3020
0230
0302
,
2003
0000
0000
3002
0000
0000
0013
0000
,
0200
0000
0000
1000
0000
0000
0300
0000
,
0020
0000
0000
0001
0000
0000
0200
0000
,
0000
0000
0000
0000
,
0000
0000
0000
0330
,
0010
0001
0000
0010
0100
0000
0010
1000
,
0010
0001
1000
0010
0100
0001
1000
0000
,
0100
1000
0100
1000
0010
0100
0001
0000
,
0010
0001
0100
0001
0010
1000
0010
0000
,
0001
0100
0010
1000
0001
0010
1000
0000
,
0010
0001
0100
0010
1000
0010
0100
0000
,
0001
1000
0100
1000
0001
0100
1000
0000
,
0100
0001
0101
0000
0010
0100
0110
0000
,
1001
1010
0101
0110
,
1000
0001
0100
0010
0000
1001
0000
0110
,
0000
1000
0001
0100
0000
0101
0000
1100
,
0000
0001
1000
0100
0000
1100
0000
0101
,
0000
1000
0100
0001
0000
0101
0000
0100
,
1000
0010
0100
0001
1000
0100
0001
0000
,
0100
1000
0010
0100
0001
0100
0010
0000
,
1000
0001
0010
0100
1000
0100
0010
0000
,
0100
0010
0100
1000
0001
0010
0100
0000
,
1000
0001
0000
0110
0000
1000
0100
0010
,
0000
0110
0000
0011
0000
1000
0001
0100
,
0000
1001
0000
0101
0000
1000
0010
0001
,
0000
0011
0000
1010
0000
1001
0000
1000
,
0100
1000
0010
0100
0001
0010
0100
0000
,
1000
0001
1000
0100
0001
0100
1000
0000
,
0001
0100
0010
0100
0001
1000
0100
0000
,
1000
0100
0010
1000
0010
0001
0100
0000
,
0010
1000
1000
0010
1000
1000
0010
0000
,
0100
0001
0100
0000
0101
0000
1100
0000
,
0001
0100
0100
0001
0100
0100
0001
0000
,
1000
0001
1000
0000
1010
0000
0011
0000
,
1000
0100
0100
1000
0100
0100
1000
0000
,
0010
1000
0002
0000
0203
0000
0320
0000
,
2030
0000
0000
0000
,
0002
0000
0000
3003
,
0100
0000
1000
0001
0000
0001
1000
0000
,
0100
1001
0110
0101
,
0010
0000
0001
1000
0000
1000
0001
0000
,
0010
0001
0000
0100
0010
1000
0001
0100
,
0010
0000
1000
0100
0000
0100
1000
0000
,
0001
0101
1100
1001
,
0010
0000
0001
0100
0000
0100
0001
0000
,
1000
0100
0010
0001
0010
0100
1000
0100
,
0010
0000
0001
1000
0000
1000
0001
0000
,
0010
0101
1100
1010
,
0100
0000
0001
0010
0000
0010
0001
0000
,
1001
0100
1001
0010
,
1001
0000
0100
1000
0100
0000
1001
0000
,
0010
0001
0010
0000
1001
0000
0100
0000
,
1000
0100
0010
0001
0010
0100
1000
0010
,
0100
0001
0100
0010
1000
0001
0100
0010
,
2000
0000
0000
3200
,
0000
0000
0002
0000
,
0000
0000
0000
0303
,
1000
0000
0001
0000
1000
0100
0001
0100
,
1000
0010
0100
0001
0010
0100
1000
0000
,
0001
0100
0010
0001
0010
1000
0001
0000
,
1000
0100
0001
0100
1000
0010
0100
0000
,
0001
0010
0100
1000
0010
0100
1000
0000
,
0100
0001
0010
0100
1000
0010
0001
0000
,
0010
1000
0001
1000
0100
0010
0100
0000
,
0010
0001
0100
0010
1000
0100
0010
0000
,
0001
1000
0010
0100
0001
0100
0010
0000
,
1000
0100
1000
0000
0001
0010
0001
0000
,
1000
0010
0100
0001
0010
0100
1000
0000
,
0001
0010
0001
0000
1000
0100
1000
0000
,
0001
0100
0001
0010
0100
1000
0001
0000
,
1000
0100
0001
0000
0001
0100
1000
0000
,
0001
0000
1001
0000
1000
0010
1000
0000
,
0001
0010
1000
0000
1000
0010
0001
0000
,
1000
0000
1001
0000
0001
0100
0001
0000
,
1000
0001
0100
1001
,
0010
0001
0100
1001
,
0100
1000
0010
1001
,
0100
0000
1000
0000
0100
0000
1000
0001
,
0100
0001
0100
1001
,
0010
0001
0100
1001
,
0010
1000
0100
1000
0010
0100
0001
0100
,
0010
0001
0100
0010
1000
0100
0010
0001
,
1001
0000
0000
0000
;

//---------------dance-single - ----------------
#NOTES:
     dance-single:
     :
     Medium:
     6:
     0.515,0.601,0.336,0.480,0.000:
0000
0000
0000
0000
,
2000
0000
3200
0000
,
0320
0000
0032
0000
,
2003
3020
0230
0302
,
2003
0000
3002
0000
,
0023
0000
0230
0000
,
2300
0000
3002
0000
,
0023
0032
0203
0320
,
0230
0000
0302
0000
,
2003
0000
3200
0000
,
2300
0000
3020
0000
,
0230
0302
0023
0230
,
2300
0000
3002
0000
,
0023
0000
0230
0000
,
2300
0000
3020
0000
,
0200
0000
0000
0000
,
0000
0000
0000
0330
,
1000
0100
1000
0000
0001
0100
0001
0000
,
1000
0010
0100
0000
0001
0100
0010
0000
,
1000
0001
0110
1001
,
0010
0001
0100
0000
0010
1000
0100
0000
,
0001
1000
0110
1001
,
0010
1000
0001
0000
0100
0001
1000
0000
,
0001
1000
0011
1010
,
0100
1000
0001
0000
0010
0001
1000
0000
,
0001
1000
0101
1100
,
0010
0000
1000
0200
0000
1000
0000
0301
,
0000
0000
0000
0020
0000
0001
0000
1030
,
0000
0000
0000
0200
0000
1000
0000
0301
,
0000
1000
0000
0101
0000
1100
0000
0000
,
1000
0001
0100
0000
0001
1000
0100
0000
,
1000
0001
1010
0011
,
1000
0100
0010
0000
0001
0010
0100
0000
,
1000
0001
1100
0101
,
0010
1000
0000
0002
0000
0010
0000
1003
,
0000
0000
0000
0200
0000
1000
0000
0301
,
0000
0000
0000
0020
0000
0001
0000
1030
,
0000
0001
0000
0110
0000
1001
0000
0000
,
0010
0001
0100
0000
0010
1000
0100
0000
,
1000
0001
0110
1001
,
0100
1000
0010
0000
0100
0001
0010
0000
,
1000
0001
0110
1001
,
0100
0100
0100
0000
1001
0000
0110
0000
,
2000
3200
0320
0032
,
0013
0010
0010
0000
1001
0000
0110
0000
,
0002
0023
0230
2300
,
3001
0001
0001
0000
0110
0000
1001
0000
,
0200
2300
3020
0230
,
0302
0000
0000
0000
,
2000
0000
0000
3003
,
0100
0000
0000
1000
0000
0000
0001
0000
,
0100
0001
0110
0101
,
1000
0000
0000
0100
0000
0000
0010
0000
,
0001
0010
0000
0100
2000
0000
3002
0000
,
0103
0000
0000
0010
0000
0000
1000
0000
,
0001
1000
0110
1100
,
0001
0000
0000
1000
0000
0000
0010
0000
,
0100
0001
0100
0000
0010
1000
0010
0000
,
0100
0000
0000
0001
0000
0000
1000
0000
,
0000
0000
0100
0000
0000
1000
0000
0000
,
0010
0000
0000
0100
0000
0000
0001
0000
,
0000
0000
0000
0010
0000
0000
0100
0000
,
1001
0100
0100
1001
,
0010
0010
1001
0100
,
0010
1000
0010
0000
0100
0001
0100
0000
,
0001
0010
0001
0000
0100
1000
0100
0000
,
2000
0000
0000
3002
,
0000
0000
0200
0000
,
0000
0000
0000
0000
,
0000
0000
0000
0303
,
1000
0100
1000
0000
0010
1000
0100
0000
,
0010
0001
0110
1001
,
0010
0001
0100
0000
0010
1000
0010
0000
,
0100
0001
1010
0101
,
0010
1000
0001
0000
0010
0001
0010
0000
,
0001
0100
1010
0101
,
0010
1000
0100
0000
1000
0010
1000
0000
,
0100
1000
0011
1010
,
0100
1000
0010
0001
,
0010
1000
0100
0001
,
0100
1000
0010
0001
,
0010
1000
0100
0001
,
0100
1000
0010
0001
,
0010
1000
0100
0001
,
0100
1000
0010
0001
,
0010
1000
0100
0001
,
0100
1000
0100
1000
,
0001
0100
0001
0100
,
0010
0100
0010
0100
,
0001
0000
1000
0000
0001
0000
1000
1000
,
1000
0010
1000
0010
,
0100
0001
0100
0001
,
0010
0100
0010
0100
,
1000
0000
0100
0000
1000
0000
0100
0100
,
1001
0000
0000
0000
;
