#TITLE:What Is Love;
#SUBTITLE:;
#ARTIST:Haddaway;
#TITLETRANSLIT:;
#SUBTITLETRANSLIT:;
#ARTISTTRANSLIT:;
#CREDIT:;
#BANNER:;
#BACKGROUND:;
#LYRICSPATH:;
#CDTITLE:;
#MUSIC:What Is Love.mp3;
#OFFSET:0.200;
#SAMPLESTART:54.280;
#SAMPLELENGTH:12.000;
#SELECTABLE:YES;
#BPMS:0.000=123.860;
#STOPS:;
#BGCHANGES:0.000=SIMWISBGA.avi=1.000=1=1=0,
99999=-nosongbg-=1.000=0=0=0 // don't automatically add -songbackground-
;

//---------------dance-single - ----------------
#NOTES:
     dance-single:
     :
     Hard:
     8:
     0.459,0.560,0.521,0.244,0.168:
0000
0000
0000
0000
,
0000
0000
0000
0000
,
0000
0000
0000
0000
,
0000
0000
0000
0000
,
0000
0000
0000
0000
0000
0000
0000
0000
0001
0000
0000
0000
1000
0000
0000
0100
,
0000
0000
1000
0000
0000
0000
0001
0000
0010
0000
0000
0000
0100
0000
0000
0010
,
0000
0000
0001
0000
0000
0000
1000
0000
0100
0000
0000
0000
1000
0000
0000
0010
,
0000
0000
0010
0000
0000
0000
0100
0000
0010
0000
0000
0000
1000
0000
0000
0001
,
0000
0001
0000
0001
0010
0000
0001
0000
,
0100
0000
0000
1000
0000
0000
0100
0000
0001
0000
0000
0000
0010
0000
0000
0000
,
0100
0000
0000
1000
0000
0000
0100
0000
1000
0000
0000
0000
0010
0000
0000
0000
,
0001
0000
0000
0010
0000
0000
1000
0000
0010
0000
0000
0000
0100
0000
0000
0000
,
0001
0000
0000
1000
0000
0000
0001
0000
0101
0000
0000
0000
1010
0000
0000
0000
,
0101
0000
0000
1010
0000
0000
0101
0000
1001
0000
0000
0000
1001
0000
0000
0000
,
1001
0000
0000
0110
0000
0000
1001
0000
0101
0000
0000
0000
1010
0000
0000
0000
,
1100
0000
0000
0110
0000
0000
0011
0000
0101
0000
0000
0000
1010
0000
0000
0000
,
0101
0000
0000
1010
0000
0000
0100
0000
0010
0000
1000
0000
0010
0000
1000
0000
,
0010
1000
0010
1000
0001
0100
0001
0100
,
0001
0100
0001
0100
0010
1000
0010
1000
,
0010
1000
0010
1000
0001
0100
0001
0100
,
0001
0000
0100
0000
0001
0000
0100
0000
0001
0000
0000
0000
1000
0000
0000
0001
,
0000
0000
0010
0000
0000
0000
0100
0000
1000
0000
0000
0000
0100
0000
0000
1000
,
0000
0000
0010
0000
0000
0000
0100
0000
0100
0000
0000
0000
0010
0000
0000
1000
,
0000
0001
0000
0010
0001
0000
0010
0200
,
0000
0000
0000
0000
1300
0000
0010
0000
0100
0000
0000
0000
0001
0000
0000
1000
,
0000
0000
1000
0000
0000
0000
0001
0000
0100
0000
0000
0000
0010
0000
0000
1000
,
0000
0000
0100
0000
0000
0000
0100
0000
1000
0000
0000
0000
0010
0000
0000
0100
,
0000
0001
0000
1000
0002
0000
0000
0000
,
0003
1000
0001
0101
0000
0101
0000
0101
,
0001
0100
0010
2000
0000
3100
0000
0000
,
0000
0000
1000
0200
0000
1300
0000
0000
,
0000
0000
1000
2002
0000
0000
3003
0000
,
0000
0010
1000
1001
0000
0110
0000
1001
,
0001
0100
0010
1000
0000
2020
0000
0000
,
3030
0000
0001
0010
0000
2200
0000
0000
,
3300
0000
0000
0000
0010
0000
0200
0000
0000
0000
0000
0300
0000
0000
0000
0000
,
0000
0000
0011
0101
,
0001
0100
0010
1000
0100
0010
0100
2000
,
0000
3001
0000
1000
0001
0100
0010
2000
,
0000
3001
0000
0000
0200
0000
0000
0020
,
0000
0330
0101
0101
,
0001
1000
0001
0100
0001
0010
0001
0020
,
0000
0200
0330
0100
0010
0001
1000
0020
,
0000
0130
0000
0000
0020
0000
0000
2000
,
0000
3030
0101
1010
,
1100
0000
1000
0100
0000
0100
1000
0000
1100
0000
0000
0000
0110
0000
0000
0000
,
0011
0000
0001
0010
0000
0010
0100
0000
1100
0000
0000
0000
0110
0000
0000
0000
,
1001
0000
0001
0100
0000
0010
1000
0000
0101
0000
0000
0000
0110
0000
0000
0000
,
1010
0000
0010
0100
0000
0100
0001
0000
1001
0000
0000
0000
0110
0000
0000
0000
,
1001
0000
0010
0100
0000
0100
0001
0000
0011
0000
0000
0000
1100
0000
0000
0000
,
0011
0000
0001
0010
0000
0100
1000
0000
1100
0000
0000
0000
1010
0000
0000
0000
,
0101
0000
0001
1000
0000
0010
0100
0000
0101
0000
0000
0000
1010
0000
0000
0000
,
1100
0000
1000
0001
0000
0001
0010
0000
0200
0000
0000
0000
0310
0000
0000
0001
,
0000
0000
0100
0000
0000
0000
0010
0000
1000
0000
0000
0000
1001
0000
0000
0001
,
0000
0000
0010
0000
0000
0000
0100
0000
0010
0000
0000
0000
1001
0000
0000
1000
,
0000
0010
0000
0100
0002
0000
0013
0200
,
0000
0000
0000
0000
2300
0000
3020
0000
1030
0000
0000
0000
0101
0000
0000
0001
,
0000
0000
0001
0000
0000
0000
1000
0000
0010
0000
0000
0000
0101
0000
0000
0010
,
0000
0000
1000
0000
0000
0000
0001
0000
0010
0000
0000
0000
1100
0000
0000
0010
,
0000
0100
0020
0200
0000
0000
0000
0000
,
0330
0001
1000
2002
3003
0000
0000
0000
;

//---------------dance-single - ----------------
#NOTES:
     dance-single:
     :
     Medium:
     7:
     0.371,0.560,0.328,0.353,0.067:
0000
0000
0000
0000
,
0000
0000
0000
0000
,
0000
0000
0000
0000
,
0000
0000
0000
0000
,
0000
0000
0000
0000
,
0001
1000
0100
0020
0000
0130
0000
0000
,
0000
0000
0100
2000
0000
3100
0000
0000
,
0000
0000
1000
0001
0000
0000
0000
0000
,
0000
0000
1001
0001
,
0001
0000
0000
0001
0000
0000
0001
0000
1000
0000
0000
0000
1000
0000
0000
0000
,
1000
0000
0000
1000
0000
0000
1000
0000
0010
0000
0000
0000
0010
0000
0000
0000
,
0010
0000
0000
0010
0000
0000
0010
0000
0100
0000
0000
0000
0100
0000
0000
0000
,
0100
0000
0000
0100
0000
0000
0100
0000
0010
0000
0000
0000
1010
0000
0000
0000
,
0010
0000
0000
0100
0000
0000
0001
0000
0010
0000
0000
0000
1100
0000
0000
0000
,
0100
0000
0000
1000
0000
0000
0010
0000
0100
0000
0000
0000
1010
0000
0000
0000
,
0010
0000
0000
0100
0000
0000
0001
0000
0010
0000
0000
0000
1100
0000
0000
0000
,
1000
0000
0000
0001
0000
0000
0100
0000
0001
0000
0000
0000
0001
0000
0000
0000
,
1000
1000
0010
0010
,
0100
0100
0001
1000
,
0010
0100
0002
0100
,
0100
0100
0103
0000
,
0001
0020
0000
0130
0000
0000
0000
0100
,
1000
0020
0000
0130
0000
0000
0000
0010
,
1000
0010
0100
0002
0000
0000
0013
0002
,
0000
0000
0013
0002
0000
0003
0000
1000
,
0001
2000
0000
3100
0000
0000
0000
0001
,
0010
0200
0000
0310
0000
0000
0000
0000
,
0010
0001
2000
0200
0000
0000
0000
3300
,
0000
1000
0001
0202
0000
0000
0303
0000
,
0001
0100
0010
2000
0000
3010
0000
0000
,
0000
0000
0010
2000
0000
3010
0000
0000
,
0000
0000
0100
0100
0000
0000
0000
0000
,
0000
0010
1000
2002
0000
0000
3003
0000
,
0001
1000
0100
2000
0000
3100
0000
0000
,
0000
0000
1000
0200
0000
1300
0000
0000
,
0000
0000
0001
0001
0000
0000
0000
0000
,
0000
0000
0010
0010
,
0100
0000
0010
0000
0100
0010
0001
0020
,
0000
0130
0000
0000
0100
1000
0001
0200
,
0000
0310
0000
0000
0110
0000
0000
2002
,
0000
3003
0101
0101
,
0001
0000
0100
0000
0010
1000
0100
2000
,
0000
3010
0000
0000
0010
0100
0001
0020
,
0000
0130
0000
0000
0110
0000
0000
2002
,
0000
3003
1002
1000
,
1000
0000
0000
1000
0000
0000
1003
0000
2001
0000
0000
0000
0001
0000
0000
0000
,
0001
0000
0000
0001
0000
0000
3001
0000
0120
0000
0000
0000
0100
0000
0000
0000
,
0100
0000
0000
0100
0000
0000
0130
0000
0210
0000
0000
0000
0010
0000
0000
0000
,
0010
0000
0000
0010
0000
0000
0310
0000
0110
0000
0000
0000
0110
0000
0000
0000
,
0110
0000
0000
0110
0000
0000
0110
0000
1001
0000
0000
0000
1001
0000
0000
0000
,
1001
0000
0000
1001
0000
0000
1001
0000
0110
0000
0000
0000
1001
0000
0000
0000
,
0110
0000
0000
1001
0000
0000
0110
0000
1001
0000
0000
0000
1001
0000
0000
0000
,
1001
0000
0000
0110
0000
0000
1001
0000
0110
0000
0000
0000
0000
0000
0000
0000
,
0010
2000
0000
3100
0000
0000
0000
1000
,
0001
0200
0000
0301
0000
0000
0000
0001
,
1000
0010
1000
0020
0000
0000
0130
0020
,
0000
0000
0130
0020
0000
0030
0000
0100
,
0001
0010
0100
2000
0000
3000
0000
0100
,
1000
0010
0100
0002
0000
0003
0000
0001
,
0100
0010
1000
0200
0000
0000
0000
0000
,
0300
1000
0001
2002
3003
0000
0000
0000
;

//---------------dance-single - ----------------
#NOTES:
     dance-single:
     :
     Easy:
     4:
     0.210,0.458,0.160,0.269,0.000:
0000
0000
0000
0000
,
0000
0000
0000
0000
,
0000
0000
0000
0000
,
0000
0000
0000
0000
,
0000
0000
0001
0000
,
0001
0000
1000
0000
,
1000
0000
0010
0000
,
0010
0000
0100
0000
,
0100
0000
0002
0000
,
0000
0003
2000
0000
,
0000
3000
0020
0000
,
0000
0030
0200
0000
,
0000
0300
0010
0010
,
1000
0010
0100
0100
,
0001
0100
0010
0010
,
0100
0001
1000
1000
,
0001
1000
0100
0000
,
0100
0000
1000
0000
,
0010
0000
0100
0000
,
0001
0000
2002
0000
,
0000
3003
1001
0000
,
0010
0000
0100
0000
,
0010
0010
1000
0000
,
0001
0000
1000
0001
,
0100
1000
0100
0000
,
0001
0000
0010
0000
,
0100
0000
1000
0000
,
0001
0001
0001
0000
,
0000
0000
1001
0000
,
0010
1000
0020
0030
,
0000
1000
0020
0030
,
0000
1010
0000
0000
,
0000
0000
2002
3003
,
0001
0100
0020
0030
,
0000
0100
0020
0030
,
0000
0110
0000
0000
,
0000
0000
0100
0100
,
0020
0000
2000
0000
,
0000
3030
0002
0000
,
0000
0003
2000
0000
,
0000
3000
0001
0001
,
1000
0010
0200
0000
,
0000
0300
0020
0000
,
0000
0030
0200
0000
,
0000
0300
1001
0001
,
0002
0000
0000
0003
1000
0000
1000
0000
,
2000
0000
0000
3000
0010
0000
0010
0000
,
0020
0000
0000
0030
0100
0000
0100
0000
,
0200
0000
0000
0300
1001
0000
1001
0000
,
2002
0000
0000
3003
1001
0000
1001
0000
,
2002
0000
0000
3003
1001
0000
1001
0000
,
2002
0000
0000
3003
1001
0000
1001
0000
,
2002
0000
0000
3003
0000
0000
0000
0000
,
0001
0000
1000
0000
,
0010
0000
0100
0000
,
0001
0000
0100
0010
,
0010
0100
0010
0000
,
1000
0000
0001
0000
,
0010
0000
0100
0000
,
0010
0000
0001
0000
,
0000
1000
0001
2000
3000
0000
0000
0000
;

//---------------dance-single - ----------------
#NOTES:
     dance-single:
     :
     Beginner:
     1:
     0.086,0.152,0.008,0.008,0.000: // measure 1
0000
0000
0000
0000
,  // measure 2
0000
0000
0000
0000
,  // measure 3
0000
0000
0000
0000
,  // measure 4
0000
0000
0000
0000
,  // measure 5
0000
0000
0001
0000
,  // measure 6
0000
0000
1000
0000
,  // measure 7
0000
0000
0100
0000
,  // measure 8
0000
0000
0010
0000
,  // measure 9
0000
0000
0100
0000
,  // measure 10
0000
0000
0100
0000
,  // measure 11
0000
0000
0100
0000
,  // measure 12
0000
0000
0100
0000
,  // measure 13
0000
0000
0001
0000
,  // measure 14
1000
1000
1000
0000
,  // measure 15
0001
0001
0001
0000
,  // measure 16
1000
1000
1000
0000
,  // measure 17
0000
0010
0010
0000
,  // measure 18
0000
0000
0100
0000
,  // measure 19
0000
0000
0001
0000
,  // measure 20
0000
0000
2000
0000
,  // measure 21
0000
3000
0000
0000
,  // measure 22
0001
0000
0000
0000
,  // measure 23
1000
0000
0000
0000
,  // measure 24
0010
0000
0100
0000
,  // measure 25
0100
0000
0010
0000
,  // measure 26
1000
0000
0000
0000
,  // measure 27
0001
0000
0000
0000
,  // measure 28
0100
0000
0000
0000
,  // measure 29
0000
0000
0010
0000
,  // measure 30
0000
0000
0100
0000
,  // measure 31
0000
0000
0010
0000
,  // measure 32
0000
0000
1000
0000
,  // measure 33
0000
0000
0001
0000
,  // measure 34
0000
0000
1000
0000
,  // measure 35
0000
0000
0010
0000
,  // measure 36
0000
0000
0100
0000
,  // measure 37
0000
0000
0001
0001
,  // measure 38
0001
0000
0000
0000
,  // measure 39
0000
0000
1000
0000
,  // measure 40
0000
0000
0010
0000
,  // measure 41
0000
0000
0100
0100
,  // measure 42
0100
0000
0000
0000
,  // measure 43
0000
0000
0010
0000
,  // measure 44
0000
0000
1000
0000
,  // measure 45
0000
0000
0001
0000
,  // measure 46
0000
0000
1000
0000
,  // measure 47
0000
0000
0010
0000
,  // measure 48
0000
0000
0100
0000
,  // measure 49
0000
0000
0010
0000
,  // measure 50
0000
0000
1000
0000
,  // measure 51
0000
0000
0001
0000
,  // measure 52
0000
0000
0010
0000
,  // measure 53
0000
0000
0100
0000
,  // measure 54
1000
0000
0000
0000
,  // measure 55
0001
0000
0000
0000
,  // measure 56
0010
0000
0100
0000
,  // measure 57
1000
0000
0010
0000
,  // measure 58
0000
0000
0100
0000
,  // measure 59
0000
0000
0001
0000
,  // measure 60
1000
0000
1000
0000
,  // measure 61
0000
0000
0000
1001
0000
0000
0000
0000
;
