#TITLE:Walking on Sunshine;
#SUBTITLE:;
#ARTIST:Katrina and the Waves;
#TITLETRANSLIT:;
#SUBTITLETRANSLIT:;
#ARTISTTRANSLIT:;
#CREDIT:348;
#BANNER:Walking on Sunshine Banner.png;
#BACKGROUND:Walking on Sunshine Background.png;
#LYRICSPATH:;
#CDTITLE:;
#MUSIC:Walking On Sunshine.mp3;
#OFFSET:-0.534;
#SAMPLESTART:51.736;
#SAMPLELENGTH:15.000;
#SELECTABLE:YES;
#DISPLAYBPM:220.000;
#BPMS:0.000=217.670,16.000=218.029,32.000=218.353,48.000=219.421,64.000=217.563,80.000=220.445,96.000=216.583,112.000=221.182,128.000=218.515,144.000=222.260,160.000=219.348,176.000=221.071,192.000=219.549,208.000=222.166,224.000=218.587,240.000=220.868,256.000=221.515,272.000=220.261,288.000=219.094,304.000=221.980,320.000=221.237,336.000=219.658,352.000=217.957,368.000=218.101,384.000=221.515,400.000=219.713;
#STOPS:;
#BGCHANGES:;

//---------------dance-single - ----------------
#NOTES:
     dance-single:
     :
     Beginner:
     2:
     0.133,0.177,0.000,0.000,0.000:
0000
0000
0000
0000
,
0000
0000
0000
0000
,
0000
0000
0000
0000
,
0000
0000
0000
0000
,
0000
0000
0000
0000
,
0000
0000
0000
0000
,
0000
0000
0000
0000
,
0000
0000
0000
0000
,
0000
0000
1000
0000
,
0000
0000
0001
0000
,
0010
0000
0000
0000
,
0100
0000
0000
0000
,
1000
0000
0001
0000
,
0000
0000
1000
0000
,
0100
0000
0000
0000
,
0010
0000
0000
0000
,
0001
0000
0000
0000
,
1000
0000
0000
0000
,
0010
0000
0000
0000
,
0100
0000
0000
0000
,
0100
0000
0000
0000
,
0010
0000
0000
0000
,
1000
0000
0000
0000
,
0001
0000
0000
0000
,
1000
0000
1000
0000
,
0000
0000
1000
0000
,
0100
0000
0000
0000
,
0100
0000
0000
0000
,
0010
0000
0010
0000
,
0000
0000
0010
0000
,
0001
0000
0000
0000
,
0001
0000
0000
0000
,
0100
0000
0000
0000
,
0010
0000
0010
0000
,
0010
0000
0000
0000
,
0100
0000
0000
0000
,
0001
0000
0000
0000
,
0000
0000
1000
0000
,
1000
0000
0000
0000
,
0001
0000
0000
0000
,
1000
0000
0000
0000
,
0001
0000
0000
0000
,
0100
0000
0000
0000
,
0001
0000
0001
0000
,
1000
0000
0000
0000
,
0010
0000
0000
0000
,
1000
0000
1000
0000
,
0001
0000
0000
0000
,
1000
0000
0000
0000
,
0000
0000
0000
0000
,
0001
0000
0000
0000
,
0000
0000
0000
0000
,
1000
0000
0000
0000
,
0000
0000
0000
0000
,
0001
0000
0000
0000
,
0000
0000
0000
0000
,
1000
0000
0000
0000
,
0000
0000
0000
0000
,
0001
0000
0000
0000
,
0100
0000
0100
0000
,
0100
0000
0000
0000
,
0000
0010
0010
0000
,
1000
0000
0000
0000
,
0001
0000
0000
0000
,
0001
0000
0000
0000
,
0000
1000
1000
0000
,
0010
0000
0000
0000
,
0100
0000
0000
0000
,
0001
0000
0000
0000
,
0010
0000
0000
0000
,
0100
0000
1000
0000
,
0001
0000
0000
0000
,
1000
0000
0000
0000
,
0100
0000
0000
0000
,
0010
0000
0001
0000
,
1000
0000
0000
0000
,
0001
0000
0000
0000
,
1000
0000
0000
0000
,
0010
0000
0000
0000
,
0100
0000
0000
0000
,
0010
0000
0000
0000
,
0100
0000
0000
0000
,
0001
0000
0000
0000
,
1000
0000
0000
0000
,
0001
0000
1000
0000
,
0000
0000
1000
0000
,
0010
0000
0100
0000
,
0000
0000
0100
0000
,
0010
0000
1000
0000
,
0000
0000
0001
0000
,
1000
0000
0001
0000
,
0000
0000
0100
0000
,
0001
0000
0000
0000
,
0010
0000
0000
0000
,
0001
0000
0010
0000
,
0001
0000
0000
0000
,
1000
0000
0000
0000
,
0100
0000
0000
0000
,
1000
0000
0100
0000
,
1000
0000
0000
0000
,
0001
0000
0000
0000
;

//---------------dance-single - ----------------
#NOTES:
     dance-single:
     :
     Easy:
     4:
     0.298,0.314,0.080,0.089,0.000:
0000
0000
0000
0000
,
0000
0000
0000
0000
,
0000
0000
0000
0000
,
0000
0000
0000
0000
,
0000
0000
0000
0000
,
0000
0000
0000
0000
,
0000
0000
0000
0000
,
0000
0000
0000
0000
,
1000
0100
1000
0000
,
0000
0001
0100
0000
,
0001
1000
0100
0000
,
1000
0000
0001
0000
,
0100
0010
0100
0000
,
0000
0010
1000
0000
,
0001
0010
0100
0000
,
1000
0000
0001
0000
,
2000
0000
0100
0000
,
3001
0010
0001
0000
,
1000
0100
1000
0000
,
0002
0000
0010
0000
,
1003
0000
1001
0000
,
0000
0000
0001
0000
,
0100
0000
0010
0000
,
0100
0010
0100
0000
,
0001
0000
0010
0000
,
0100
0000
1000
0000
,
0001
0000
1000
0000
,
0001
1000
0100
0010
,
0000
0100
1000
0000
,
0010
0000
0100
0000
,
0001
0100
0020
0000
,
1000
0000
1030
0000
,
1000
0000
1000
0000
,
0000
1000
1000
1000
,
0000
0001
0001
0001
,
0000
0100
0010
0100
,
0010
0000
1100
0000
,
0010
0000
0101
0000
,
1000
0000
0001
0100
,
0001
0000
1000
0000
,
0010
0000
0100
0000
,
0000
0010
0010
0010
,
0000
0100
0100
0100
,
0000
0001
1000
0001
,
1000
0000
0011
0000
,
1000
0000
1010
0000
,
0001
0000
1000
0000
,
0001
1000
0010
0100
,
0020
0000
0000
0000
,
0000
1030
0000
0200
,
0000
0000
0000
0000
,
1300
0010
0100
0001
,
2000
0000
0000
0000
,
0000
3001
0000
0002
,
0000
0000
0000
0000
,
0103
0010
1000
0001
,
0200
0000
0000
0000
,
0000
0310
0000
0020
,
0000
0000
0000
0030
,
1000
0001
1000
0001
,
0000
0000
0110
0000
,
0000
0001
1000
0000
,
0001
0010
0100
0000
,
1000
0100
0010
0000
,
0001
0000
1001
0000
,
0000
0100
0010
0000
,
1000
0000
0001
0100
,
0001
0000
1000
0000
,
0001
0010
0001
0000
,
0000
1000
1000
1000
,
0001
0000
1100
0000
,
0001
1000
0001
0000
,
1000
0100
1000
0000
,
0000
0010
0010
0010
,
1000
0000
0011
0000
,
0100
0010
0100
0000
,
0001
0000
1000
0000
,
0100
0000
0010
0000
,
0001
1000
0100
0000
,
0100
1000
0001
0000
,
1000
0000
0010
0000
,
0100
0001
1000
0000
,
1000
0001
0100
0000
,
0001
0000
1000
0000
,
0001
0000
1000
0000
,
0000
0010
0100
0000
,
0001
1000
0001
0000
,
0000
0100
0010
0000
,
1000
0000
0001
0000
,
0100
0000
0010
0000
,
1000
1000
0000
0001
,
0001
0000
1000
0000
,
0001
0000
1000
0100
,
1000
0000
0001
0000
,
1000
0000
0010
0000
,
0000
0100
0001
0000
,
1000
0001
0100
0000
,
0000
0001
1000
0000
,
0001
0000
1000
0000
,
0010
0100
0010
0000
,
2000
0000
0000
0000
,
0000
0000
3000
0000
;

//---------------dance-single - ----------------
#NOTES:
     dance-single:
     :
     Medium:
     6:
     0.398,0.449,0.150,0.221,0.000:
0000
0000
0000
0000
,
0000
0000
0000
0000
,
0000
0000
0000
0000
,
0000
0000
0000
0000
,
0000
0000
0000
0000
,
0000
0000
0000
0000
,
0000
0000
0000
0000
,
0000
0000
0000
0000
,
1000
0000
0110
0000
,
0000
0001
1000
0001
,
1000
0100
0001
0100
,
1000
0000
0010
0100
,
0010
0000
1001
0000
,
0000
0100
0001
1000
,
0001
1000
0100
1000
,
0001
0000
1000
0010
,
1000
0000
0001
0000
,
1000
0100
0010
0001
,
0000
0001
1000
0000
,
0001
0010
0001
0000
,
1000
0000
0001
0000
0100
0000
0000
0100
,
0000
0001
0000
1000
0000
0000
0000
0000
,
0010
0000
1000
0000
0010
0000
0000
0100
,
0000
0001
0000
0100
0000
0000
0000
0000
,
0001
0010
0100
0010
,
0000
0001
1000
0010
,
0000
0010
1000
0001
,
0000
0100
0100
0100
,
0001
0000
0010
0000
0001
0000
0000
1000
,
0000
0100
0000
1000
0000
0000
0000
0000
,
1000
0000
0100
0000
0010
0000
0000
0001
,
0000
0010
0000
0100
0000
0000
0000
0000
,
2000
0000
3100
0000
,
0020
0000
0031
0000
,
1000
0100
1000
0010
,
1000
0001
1000
0000
,
0001
0000
0001
0000
0001
0000
0000
1000
,
0000
1000
0000
1000
0000
0000
0000
0000
,
0010
0000
0100
0000
0100
0000
0000
0010
,
0000
0010
0000
0100
0000
0000
0000
0000
,
0002
0000
1003
0000
,
0200
0000
0310
0000
,
0001
0010
0001
1000
,
0000
0010
0100
0000
,
0001
1000
0001
0000
,
0100
0010
0100
0000
,
0001
0100
0010
1000
,
0001
1000
0001
2000
,
0000
0200
0000
0000
,
3300
0001
0010
2002
,
0000
0000
3003
0100
,
0001
1000
0010
0200
,
0000
0020
0000
0000
,
0330
1000
0001
0202
,
0000
0000
0303
1000
,
0001
0100
0001
0020
,
0000
0002
0000
0000
,
0033
1000
0001
0220
,
0000
0000
0000
0330
,
1000
0100
0010
0002
,
0003
0000
0110
0000
,
0000
1000
0001
1000
,
0000
0001
0010
1000
,
0010
0000
1001
0000
,
0010
0000
1100
0000
,
0000
0001
1000
0100
,
1000
0001
0100
0010
,
0100
0000
0011
0000
,
1000
0100
0001
0000
,
1000
0010
0001
0000
,
1000
0001
0100
0001
,
1000
0000
0101
0000
,
0001
0010
1000
0000
,
0001
0100
1000
0000
,
0001
1000
0100
1000
,
0001
0000
1010
0000
,
0001
0010
0100
2000
,
0000
3001
0010
0200
,
0000
1300
0001
0020
,
0000
0031
1000
0000
,
1000
0001
0100
0002
,
0000
1003
0100
0020
,
0000
0031
1000
0200
,
0000
1300
0001
0000
,
1000
0000
0100
0000
1000
0000
0001
1000
,
0000
0001
0010
0001
,
0100
0000
0010
0000
1000
0000
0010
0100
,
0000
0010
1000
0010
,
1000
0000
0100
0000
0001
0000
0100
1000
,
0000
1000
0010
0100
,
0001
0000
0010
0000
1000
0000
0010
0001
,
0000
0001
1000
0010
,
0100
0010
1000
0101
,
0000
1000
0100
0010
,
0001
1000
0010
1100
,
0000
0001
1000
0100
,
1000
0001
1100
0000
,
0001
1000
0011
0000
,
1000
0001
0100
0001
,
1000
0010
0110
0000
,
2002
0000
0000
0000
,
0000
0000
3003
0000
;

//---------------dance-single - ----------------
#NOTES:
     dance-single:
     :
     Hard:
     8:
     0.583,0.584,0.248,0.416,0.000:
0000
0000
0000
0000
,
0000
0000
0000
0000
,
0000
0000
0000
0000
,
0000
0000
0000
0000
,
0000
0000
0000
0000
,
0000
0000
0000
0000
,
0000
0000
0000
0000
,
0000
0000
0000
0000
,
1000
0000
0100
0000
1000
0000
0001
0010
,
0000
0100
1000
0000
0001
0000
0010
0000
,
0001
0000
0100
0000
0001
0100
0001
0200
,
0000
0310
1100
0101
,
1000
0000
0100
0000
0010
0000
0001
2000
,
0000
3001
1010
0011
,
1000
0100
1000
0000
0010
1000
0010
2000
,
0000
3001
1000
0010
,
1000
0000
0100
0000
1000
0000
0010
0100
,
0000
0100
0010
0000
1000
0000
0001
0000
,
0010
0000
0001
0000
1000
0000
0100
2000
,
0000
3001
0010
0001
,
1000
0000
0110
0000
0001
0000
1000
0100
,
0000
0010
0000
0001
1000
0000
0001
0000
,
1000
0000
1000
0000
0100
0000
0010
0001
,
0000
0001
0000
1000
0001
0000
0110
0000
,
0001
0000
1000
0000
0100
1000
0100
0000
,
0000
1000
0200
0000
0310
0000
0001
0000
,
0010
0000
0001
0000
0100
0001
0200
0000
,
0000
0301
0100
0000
0001
0000
0010
0000
,
0001
0000
1000
0000
1000
0000
0010
0100
,
0000
0001
0000
1000
0100
0000
0100
0000
,
1000
0000
0100
0000
0001
0000
0100
1000
,
0000
0001
0000
0010
0001
0000
1000
0000
,
0001
0000
1000
0100
1000
0000
0002
0000
,
0000
0013
0001
0000
1000
0000
0101
0000
,
1000
0000
0001
0000
1010
0000
0001
0100
,
0000
0100
0001
0000
1000
0000
0100
0000
,
1000
0000
0001
0000
1000
0000
0100
0001
,
0100
2000
3001
0000
,
0001
0000
0010
0000
0001
0000
0100
1000
,
0100
0002
1003
0000
,
1000
0000
1000
0000
0001
0000
1000
0100
,
0000
0010
0001
0010
0001
0000
1000
0000
,
0010
0000
0010
0000
0100
0000
0001
1000
,
0000
0010
0100
0010
0100
0000
0001
0000
,
1000
0100
0010
0011
,
0001
0010
0100
1100
,
0001
1000
1001
1000
,
0001
0000
0100
0010
0000
0000
2000
0000
,
3010
2020
0000
0000
,
3030
0002
0103
0202
,
0000
0000
0303
1000
,
0100
0000
1000
0001
0000
0000
0020
0000
,
0031
0022
0000
0000
,
0033
0200
1300
2200
,
0000
0000
3300
0001
,
0010
0000
0100
1000
0000
0000
0020
0000
,
0130
0220
0000
0000
,
0330
2000
3001
2002
,
0000
0000
3003
1000
,
0001
0000
0100
0010
0000
0000
2002
0000
,
3003
0110
0220
0330
,
1000
0000
0100
1000
0100
1000
0000
1000
,
0001
0000
0010
0000
1000
0000
0010
0001
,
0000
1000
0000
0100
0010
0000
0220
0000
,
0330
1001
2002
3003
,
0100
0000
0010
1000
0001
0100
0000
0100
,
0010
0000
1000
0000
0001
0000
0100
0010
,
0000
1000
0000
0010
0100
0000
0001
0000
,
1000
0100
0010
0001
,
1000
0000
0001
0010
0100
0010
0001
0000
,
1000
0000
0100
0000
1000
0100
0010
0001
,
0000
0001
1000
0000
0001
0000
1000
0000
,
0001
1000
0010
0100
,
0001
0000
1000
0001
0100
0001
1000
0000
,
0001
0000
0010
0000
0001
1000
0100
0010
,
0000
0010
0100
0000
1000
0000
0001
0000
,
0001
0000
2000
0000
0000
0000
3001
0010
,
0001
0000
0200
0000
0000
0000
0310
1000
,
0010
0000
1000
0000
1000
0000
0002
0010
,
0000
0010
0000
0013
0001
0000
1000
0000
,
1000
0000
0200
0000
0000
0000
0310
0001
,
0010
0000
0002
0000
0000
0000
1003
0010
,
1000
0000
0001
0000
0100
0000
0020
0100
,
0000
0100
0000
0130
0010
0000
1000
0000
,
0001
0010
0100
0011
,
1000
0100
0010
1100
,
0001
0010
0001
0000
1000
0100
0010
0100
,
0000
1000
0100
0000
1000
0000
0010
0000
,
1000
0001
0100
1010
,
0001
1000
0010
0101
,
1000
0001
1000
0000
0001
0100
0010
0100
,
0000
0001
0100
0000
0010
0000
0100
0000
,
0001
1000
0200
0300
,
1000
0001
0200
0300
,
0001
0000
0010
0000
0001
1000
0010
0000
,
0100
0001
1000
0000
0001
0000
1000
0000
,
0010
0100
0002
0003
,
0100
0010
2000
3000
,
0010
0000
1000
0000
0001
0010
0100
0000
,
1000
0100
0010
0000
0001
0000
0100
0000
,
0220
0000
0000
0000
,
0000
0000
0330
0000
;

//---------------dance-single - ----------------
#NOTES:
     dance-single:
     :
     Challenge:
     9:
     0.745,0.719,0.496,0.363,0.000: // measure 1
0000
0000
0000
0000
,  // measure 2
0000
0000
0000
0000
,  // measure 3
0000
0000
0000
0000
,  // measure 4
0000
0000
0000
0000
,  // measure 5
0000
0000
0000
0000
,  // measure 6
0000
0000
0000
0000
,  // measure 7
0000
0000
0000
0000
,  // measure 8
0000
0000
0000
0000
,  // measure 9
1000
0100
1000
0000
0110
0000
0101
0000
,  // measure 10
1001
0000
0001
0010
0001
1000
0000
0001
,  // measure 11
0010
1000
0010
0001
0010
0000
0001
1000
,  // measure 12
0000
1000
0001
0000
1010
0000
0110
0000
,  // measure 13
0001
0010
0001
0000
1001
0000
1100
0000
,  // measure 14
0110
0000
0001
0100
0010
0100
0000
0100
,  // measure 15
0010
1000
0001
1000
0010
0000
0100
0010
,  // measure 16
0000
0010
0100
0000
0011
0000
1001
0000
,  // measure 17
0100
0000
0001
0010
1000
0010
0001
0000
,  // measure 18
1000
0000
0010
1000
0001
1000
0010
0000
,  // measure 19
1000
0000
0001
0000
1000
0100
1000
0000
,  // measure 20
0001
0010
0001
0000
1000
0001
1000
0000
,  // measure 21
0001
0000
1001
0000
0100
0001
0010
0100
,  // measure 22
0000
0010
0100
1000
0010
0000
1000
0000
,  // measure 23
0010
0000
0110
0000
1000
0010
0100
0010
,  // measure 24
0000
0100
0010
0100
0001
0000
0100
0000
,  // measure 25
0002
0000
1003
0000
1000
0100
0010
0001
,  // measure 26
2000
0000
3001
0100
0010
1000
0001
0000
,  // measure 27
0200
0000
0310
0000
1000
0001
0100
0010
,  // measure 28
0200
0000
0301
1000
0010
0100
0020
0000
,  // measure 29
1030
0000
1100
0000
0001
1000
0100
1000
,  // measure 30
0000
0001
0010
0000
0011
0000
0001
0000
,  // measure 31
0100
0000
0101
0000
1000
0010
0100
0010
,  // measure 32
0000
0100
0001
0000
1010
0000
0010
0000
,  // measure 33
1000
0000
0001
0010
0200
0000
1300
0000
,  // measure 34
0001
0000
1000
0001
0200
0000
0310
0000
,  // measure 35
1000
0000
0100
0001
0100
1000
0100
0000
,  // measure 36
1000
0000
0001
0010
1000
0010
0001
0000
,  // measure 37
2000
0000
3001
0000
1010
0000
0001
1000
,  // measure 38
0000
0010
0200
0000
0310
0000
0101
0000
,  // measure 39
0002
0000
0013
0000
1100
0000
0100
1000
,  // measure 40
0000
0001
0020
0000
1030
0000
0011
0000
,  // measure 41
0100
0000
0001
0000
1000
0010
0200
0000
,  // measure 42
0000
0301
0100
0010
1000
0000
0010
0000
,  // measure 43
1000
0000
0100
0000
0001
0100
2000
0000
,  // measure 44
0000
3001
0010
1000
0010
0000
1001
0000
,  // measure 45
0001
0000
1000
0000
0010
1000
0001
0000
,  // measure 46
1000
0000
0100
0000
0010
0001
0010
0000
,  // measure 47
0001
1000
0100
0000
1000
0001
0100
0000
,  // measure 48
0001
1000
0100
1000
0010
0100
0001
0100
,  // measure 49
0020
0000
1030
0000
1000
0100
1000
0000
,  // measure 50
0002
0000
0103
0000
0001
0100
0001
0000
,  // measure 51
1000
0100
0010
0001
0100
0010
1000
0001
,  // measure 52
1000
0011
1010
1001
,  // measure 53
0200
0000
0301
0000
0001
1000
0010
0000
,  // measure 54
2000
0000
3010
0000
1000
0001
0010
0000
,  // measure 55
0001
0010
0100
1000
0001
0100
0010
1000
,  // measure 56
0001
1100
0101
1001
,  // measure 57
2000
0000
3001
0000
0001
1000
0001
0000
,  // measure 58
0200
0000
0310
0000
0100
0010
0100
0000
,  // measure 59
0001
0010
1000
0010
0001
0000
1100
0000
,  // measure 60
1000
0100
0001
0100
1000
0000
0011
0000
,  // measure 61
1000
0100
1000
0000
0110
0000
1001
0000
,  // measure 62
0001
0010
1000
0010
0001
0000
1100
0000
,  // measure 63
0001
0010
0100
0000
1000
0100
0010
0001
,  // measure 64
0000
1000
0001
0000
1010
0000
0101
0000
,  // measure 65
0100
0001
0100
0000
1001
0000
0110
0000
,  // measure 66
1000
0100
0001
0100
1000
0000
0101
0000
,  // measure 67
1000
0010
0100
0000
0001
1000
0010
0100
,  // measure 68
0000
0001
1000
0000
0011
0000
1100
0000
,  // measure 69
0002
2003
3020
0230
,  // measure 70
0301
1000
0100
1000
0001
0000
1010
0000
,  // measure 71
2000
3200
0302
0023
,  // measure 72
1030
0010
0100
0010
1000
0000
0101
0000
,  // measure 73
2000
3020
0032
0023
,  // measure 74
0130
0001
1000
0001
0100
0000
1001
0000
,  // measure 75
0020
2030
3200
0302
,  // measure 76
0013
0001
1000
0100
1000
0000
0110
0000
,  // measure 77
1000
0000
0001
0100
0010
0000
1000
0000
,  // measure 78
0001
0000
1000
0001
0100
0000
0010
0000
,  // measure 79
1000
0100
1000
0000
0001
0010
0100
0010
,  // measure 80
0000
0001
1000
0000
0001
1000
0001
0000
,  // measure 81
1000
0000
0100
1000
0001
0000
0010
0000
,  // measure 82
0001
0000
1000
0100
0010
0000
0100
0000
,  // measure 83
1000
0010
0001
0000
0001
0010
1000
0001
,  // measure 84
0000
0100
1000
0000
1000
0100
0001
0000
,  // measure 85
1000
0000
0100
0000
1000
0100
0010
0100
,  // measure 86
1000
0000
0001
0000
0010
0001
0100
0001
,  // measure 87
0020
0000
0031
0000
0001
0010
1000
0010
,  // measure 88
0000
0001
1000
0000
0200
0000
1300
0000
,  // measure 89
0001
0000
1000
0000
0010
1000
0100
1000
,  // measure 90
0010
0000
1000
0000
0001
1000
0100
1000
,  // measure 91
0002
0000
0103
0000
0100
0001
0100
0010
,  // measure 92
0000
1000
0010
0000
2000
0000
3010
0000
,  // measure 93
1000
0100
0011
1010
,  // measure 94
0001
1000
0101
1100
,  // measure 95
0001
1000
0100
0000
1100
0000
0001
0010
,  // measure 96
0000
0100
1000
0000
0011
0000
1000
0000
,  // measure 97
0010
0100
0011
0101
,  // measure 98
0100
0010
1010
1100
,  // measure 99
0001
0010
0001
0000
1010
0000
1000
0010
,  // measure 100
0000
0100
0001
0000
0101
0000
0100
0000
,  // measure 101
2002
0000
0000
0000
,  // measure 102
0000
0000
3003
0000
;
