#TITLE:Perfect Future?;
#SUBTITLE:;
#ARTIST:Iceman;
#TITLETRANSLIT:;
#SUBTITLETRANSLIT:;
#ARTISTTRANSLIT:;
#GENRE:;
#CREDIT:Frozen_Heat/Azn_Punk_07/GuardianFrozen;
#MENUCOLOR:#49ca62;
#METERTYPE:DDR;
#BANNER:Perfect Future-bn.png;
#BACKGROUND:Perfect Future-bg.png;
#LYRICSPATH:;
#CDTITLE:!cdtitle.png;
#MUSIC:Perfect Future.mp3;
#OFFSET:-0.115;
#SAMPLESTART:38.960;
#SAMPLELENGTH:14.580;
#SELECTABLE:YES;
#LISTSORT:;
#BPMS:0.000=148.130;
#STOPS:;
#BGCHANGES:;
#ATTACKS:;

//---------------dance-single - ----------------
#NOTES:
     dance-single:
     :
     Hard:
     7:
     0.439,0.454,0.266,0.138,0.064:
0000
0000
0000
0000
,
0000
0000
0000
0000
,
0000
0000
0000
0000
,
0000
0000
0000
0000
,
1000
0000
0000
0000
0100
0000
0000
0000
0010
0000
0000
0100
0000
0000
1000
0000
,
0000
0000
0010
0000
0100
0000
0000
0000
0001
0000
0000
0010
0000
0000
0001
0000
,
0100
0000
0000
0000
0010
0000
0000
0000
1000
0000
0000
0001
0000
0000
0010
0000
,
0000
0000
0010
0000
0100
0000
0000
0000
1000
0000
0000
0100
0000
0000
0010
0000
,
0001
0000
0000
0000
0100
0000
0000
0000
0001
0000
0000
0010
0000
0000
0100
0000
,
0000
0000
1000
0000
0010
0000
0000
0000
0100
0000
0000
1000
0000
0000
0100
0000
,
0001
0000
0000
0000
1000
0000
0000
0000
0100
0000
0000
0010
0000
0000
0001
0000
,
0000
0000
0001
0000
0100
0000
0000
0000
0010
0000
0000
1000
0000
0000
0001
0000
,
0020
0000
0031
0000
0000
0100
1000
0000
,
0010
1000
0200
0000
0010
0000
1300
0001
,
2000
0000
3010
0000
0000
0100
0002
0000
,
0013
0000
0100
0000
1000
0010
0100
0001
,
1000
0100
1000
0000
0001
0100
0001
0000
,
0010
0100
1000
0100
0010
0001
1000
0000
,
0010
0010
0100
0100
,
1010
0101
1010
0000
,
0001
0010
0100
0000
0010
0001
1000
0000
,
0010
1000
0010
1000
0100
0010
0100
0000
,
0010
0010
0100
0100
,
0011
1100
0011
0000
,
0200
0000
0010
1300
,
0002
0000
0010
1000
,
0103
0000
0000
0010
0000
0000
1000
0000
0100
0000
0000
0000
1100
0000
0000
0000
,
1010
0000
0000
0000
0001
0000
0100
0010
,
2000
0000
3010
0001
,
0020
0000
0100
1000
,
0031
0000
0000
0001
0000
0000
0001
0000
1000
0000
0000
1000
0000
0000
1000
0000
,
0010
0000
0000
0100
0000
0000
0001
0000
1000
0000
0000
0000
1001
0000
0000
0000
,
0010
0000
0110
0000
0001
0010
0100
1000
,
0001
0101
0010
1010
,
0100
0001
0100
0000
0010
1000
0100
1000
,
0001
0000
1001
0000
0100
0000
0010
1000
,
0000
1000
0100
0000
0010
0100
1000
0001
,
0010
0011
0100
1100
,
0010
0001
0010
0001
0100
0010
0100
0000
,
0001
0000
1000
0100
0001
0000
0010
0001
,
0000
0001
1000
0100
1000
0000
0001
0010
,
0200
0000
1300
0010
0200
0000
0301
1000
,
0001
0011
1001
0000
,
0020
0000
1030
0100
0020
0000
0031
0100
,
0010
1010
0101
1000
,
0001
0000
0000
0010
0100
0000
1000
0000
,
0001
0000
0100
0000
0010
1000
0001
0010
,
0001
0100
0010
1000
,
0100
0000
0010
0000
0100
1000
0001
0100
,
0010
1010
0100
0101
,
1000
1100
0001
0011
,
0100
0110
0001
1001
,
0010
0100
1000
0001
0100
0010
1000
0001
,
0020
0100
0000
0100
,
0000
0100
0000
0100
,
0000
0100
0000
0100
,
0000
0000
0100
0000
0000
0000
0100
0030
;

//---------------dance-single - ----------------
#NOTES:
     dance-single:
     :
     Challenge:
     8:
     0.562,0.514,0.181,0.181,0.234:
0000
0000
0000
0000
,
0000
0000
0000
0000
,
0000
0000
0000
0000
,
0000
0000
0000
0000
,
1000
0000
0100
0000
1000
0000
0000
0000
0001
0000
0100
0001
0000
0000
0100
0000
,
0001
0000
0010
0000
0001
0000
0000
0000
1000
0000
0010
1000
0000
0000
0010
0000
,
0100
0000
0001
0000
0100
0000
0000
0000
0010
0000
1000
0010
0000
0000
0100
0000
,
0001
0000
1000
0000
0100
0000
0000
0000
0010
0000
0001
0010
0000
0000
0100
0000
,
1000
0000
0000
0000
0010
0000
0000
0000
1000
0000
0100
0010
0000
0100
1000
0000
,
0001
0000
0100
0000
0010
0000
0000
0000
0100
0000
0010
0100
0000
0001
1000
0000
,
0100
0000
0000
0000
0010
0000
0000
0000
0001
0000
1000
0001
0000
0010
0100
0000
,
1000
0000
0100
0000
0010
0000
0000
0000
0001
0000
0100
0001
0000
1000
0010
0000
,
1000
0100
0010
0000
0001
1000
0010
0000
,
0100
0001
0010
0000
0001
0010
0001
0000
,
0100
0010
1000
0000
0001
0010
0100
0000
,
0010
0001
1000
0000
0100
1000
0100
0000
,
0010
0000
0100
0000
1000
0000
0100
0000
0010
0000
0001
0100
0000
0000
0000
0000
,
0010
0000
1000
0000
0001
0000
1000
0000
0100
0000
0010
0001
0000
0000
0000
0000
,
0010
0100
1000
0001
0100
1000
0100
0010
,
1000
0000
1000
0000
0001
0000
0010
0100
0000
0000
0000
0000
0011
0000
0000
0000
,
0100
0000
0001
0000
0100
0000
1000
0000
0001
0000
0010
1000
0000
0000
0000
0000
,
0010
0000
0100
0000
1000
0000
0001
0000
0100
0000
0010
0001
0000
0000
0000
0000
,
1000
0100
0001
0010
0100
1000
0001
0100
,
0010
0000
0001
0000
1000
0000
0100
0010
0000
0000
0000
0000
1010
0000
0000
0000
,
0200
0000
0301
0010
0200
0000
1300
0001
,
0200
0000
0310
1000
0200
0000
0310
0001
,
0100
0000
0000
0001
0000
0000
1000
0000
0100
0000
0000
0000
0011
0000
0000
0000
,
1100
0000
0010
0000
0101
0000
1000
0001
,
0102
0000
0013
0000
2100
0000
3000
0100
,
0012
0000
0103
0000
2010
0000
3000
0001
,
0001
0000
0000
0100
0000
0000
0001
0000
1000
0000
0000
0100
0000
0000
1000
0000
,
0010
0000
0000
0100
0000
0000
0010
0000
0110
0000
0000
0000
1001
0000
0000
0000
,
1100
0000
0000
0000
0101
0000
0000
0000
0001
0010
0001
0000
1000
0010
1000
0000
,
0001
1100
1000
0101
,
0010
0000
0010
0000
1000
0000
0001
0000
0010
0000
0100
0010
0000
0000
0001
0000
,
0100
0000
0000
0100
0010
0000
0000
0010
1000
0000
0000
0000
0100
0000
0010
0000
,
0000
0000
0001
0000
0010
0000
0100
0000
1000
0100
1000
0000
0001
0000
0100
0000
,
1000
1010
0001
0101
,
0010
0000
1000
0000
0100
0000
1000
0000
0001
0000
1000
0001
0000
0000
0010
0000
,
0100
0000
0000
0100
0010
0000
0000
0010
0001
0000
0000
0000
0001
0000
0100
0000
,
0000
0000
0010
0000
1000
0000
0100
0000
0010
0001
0010
0000
0100
0000
0000
0000
,
2000
0000
3010
0100
0002
0000
0013
0100
,
2000
0000
0000
0001
0000
0000
3001
0000
0020
0000
0000
0000
0031
0000
1000
0000
,
0200
0000
1300
0001
0020
0000
0031
1000
,
0200
0000
0000
0010
0000
0000
0010
0000
2300
0000
0000
0000
3001
0000
0100
0000
,
0001
0000
1000
0010
1000
0100
0010
0000
,
0100
1000
0100
1000
0001
0100
0001
0000
,
0010
0001
0100
0000
0010
0001
1000
0000
,
0010
0100
0001
0010
0100
0100
0010
0010
,
0001
0000
0100
0000
0001
0000
0000
0100
0001
0000
1000
0000
0100
0000
0000
0010
,
0100
0000
1000
0000
0001
0000
0000
0100
0010
0000
1000
0000
0001
0000
0000
0001
,
0100
0000
0010
0000
1000
0000
0000
0100
0010
0000
0100
0000
1000
0000
0000
0010
,
0100
0001
0100
0000
0010
1000
0010
0000
1000
0100
1000
0000
0001
0010
0001
0000
,
0200
0010
0000
0010
,
0000
0010
0000
0010
,
0000
0010
0000
0010
,
0000
0000
0010
0000
0000
0000
0010
0300
;

//---------------dance-single - ----------------
#NOTES:
     dance-single:
     :
     Medium:
     5:
     0.349,0.454,0.128,0.425,0.000: // measure 1
0000
0000
0000
0000
,  // measure 2
0000
0000
0000
0000
,  // measure 3
0000
0000
0000
0000
,  // measure 4
0000
0000
0000
0000
,  // measure 5
1000
0100
0010
0100
,  // measure 6
1000
0001
0100
0000
,  // measure 7
0001
0010
0100
0010
,  // measure 8
0001
1000
0001
0000
,  // measure 9
1000
0100
0001
0100
,  // measure 10
1000
0010
0100
0000
,  // measure 11
0001
0010
1000
0010
,  // measure 12
0001
0100
0010
0000
,  // measure 13
1000
0000
0100
0000
0000
1000
0100
0000
,  // measure 14
0001
0000
0100
0000
0000
0001
0100
0000
,  // measure 15
1000
0000
0010
0000
0000
1000
0010
0000
,  // measure 16
0001
0010
0011
0101
,  // measure 17
0010
0010
1000
1000
,  // measure 18
0001
0001
0010
0010
,  // measure 19
0100
1000
0100
0000
0100
0010
0100
0000
,  // measure 20
1100
0110
1100
0000
,  // measure 21
0010
0010
0001
0001
,  // measure 22
1000
1000
0010
0010
,  // measure 23
0100
0001
0100
0000
0100
0010
0100
0000
,  // measure 24
0101
0110
0101
0000
,  // measure 25
0002
0000
0023
0000
,  // measure 26
0230
0000
2300
0000
,  // measure 27
3020
0230
0320
2030
,  // measure 28
3002
0000
2003
0000
,  // measure 29
3200
0000
0320
0000
,  // measure 30
0032
0000
0203
0000
,  // measure 31
0320
2030
3020
0230
,  // measure 32
0302
2003
3200
0300
,  // measure 33
0010
0010
0100
0100
,  // measure 34
0022
0033
2200
3300
,  // measure 35
0001
0100
1000
0100
,  // measure 36
0001
0001
0010
0010
,  // measure 37
0100
1000
0100
0000
0010
0000
0000
0000
,  // measure 38
2020
3030
0202
0303
,  // measure 39
1000
0100
0001
0100
,  // measure 40
1000
1000
0010
0010
,  // measure 41
0100
0001
0100
0000
0010
0000
0000
0000
,  // measure 42
2000
0000
3200
0000
,  // measure 43
0320
0032
0023
0030
,  // measure 44
0002
0000
0203
0000
,  // measure 45
0320
2030
3020
0030
,  // measure 46
1000
0001
0100
0010
,  // measure 47
1000
0001
0010
0100
,  // measure 48
0010
0001
1000
0001
,  // measure 49
0010
0000
1000
0000
0010
0001
0010
0001
,  // measure 50
0100
0010
1000
0001
,  // measure 51
0010
1000
0001
0010
,  // measure 52
0100
0001
1000
0100
,  // measure 53
0001
0000
0100
0000
0010
1000
0010
1000
,  // measure 54
0200
0000
0000
0000
,  // measure 55
0000
0000
0000
0000
,  // measure 56
0000
0000
0000
0000
,  // measure 57
0000
0000
0000
0000
0000
0000
0000
0300
;

//---------------dance-single - ----------------
#NOTES:
     dance-single:
     :
     Easy:
     3:
     0.219,0.282,0.043,0.138,0.000: // measure 1
0000
0000
0000
0000
,  // measure 2
0000
0000
0000
0000
,  // measure 3
0000
0000
0000
0000
,  // measure 4
0000
0000
0000
0000
,  // measure 5
1000
0000
0100
0000
,  // measure 6
1000
0000
0100
0000
,  // measure 7
0010
0000
0001
0000
,  // measure 8
0010
0000
0001
0000
,  // measure 9
1000
0000
0010
0000
,  // measure 10
0001
0000
0010
0000
,  // measure 11
0100
0000
0001
0000
,  // measure 12
1000
0000
0100
0000
,  // measure 13
0020
0000
0030
0000
,  // measure 14
0200
0000
0300
0000
,  // measure 15
2000
0000
3000
0000
,  // measure 16
0002
0000
0003
0000
,  // measure 17
1000
1000
0100
0000
,  // measure 18
0001
0001
0010
0000
,  // measure 19
0001
0100
1000
0100
,  // measure 20
0001
1000
1001
0000
,  // measure 21
1000
1000
0010
0000
,  // measure 22
0001
0001
0100
0000
,  // measure 23
1000
0010
0001
0010
,  // measure 24
1000
0001
1001
0000
,  // measure 25
2000
0100
3010
0000
,  // measure 26
0002
0100
0013
0000
,  // measure 27
1000
0001
1000
1000
,  // measure 28
0001
0000
0010
0010
,  // measure 29
0002
1000
0103
0000
,  // measure 30
2000
0001
3100
0000
,  // measure 31
0020
0030
0200
0300
,  // measure 32
1001
0010
1001
0000
,  // measure 33
0100
0100
0200
0300
,  // measure 34
1000
1000
0001
0001
,  // measure 35
1000
0000
0001
0000
,  // measure 36
1000
0100
0001
0000
,  // measure 37
0001
0100
1000
0000
,  // measure 38
0010
0010
0100
0100
,  // measure 39
0001
0000
1000
0000
,  // measure 40
0001
0010
1000
0000
,  // measure 41
1000
0010
0001
0000
,  // measure 42
2000
0000
3000
0000
,  // measure 43
0100
0010
0001
0000
,  // measure 44
0002
0000
0003
0000
,  // measure 45
0100
0010
1000
0001
,  // measure 46
1000
0000
0100
0000
,  // measure 47
0010
0000
0001
0000
,  // measure 48
0100
0000
0010
0000
,  // measure 49
1000
0000
0001
0000
,  // measure 50
0010
0100
1000
0000
,  // measure 51
0010
0100
0001
0000
,  // measure 52
1000
0001
0010
0000
,  // measure 53
0001
1000
0010
0000
,  // measure 54
0100
0000
0000
0000
;

//---------------dance-single - ----------------
#NOTES:
     dance-single:
     :
     Beginner:
     1:
     0.108,0.169,0.011,0.106,0.000: // measure 1
0000
0000
0000
0000
,  // measure 2
0000
0000
0000
0000
,  // measure 3
0000
0000
0000
0000
,  // measure 4
0000
0000
0000
0000
,  // measure 5
1000
0000
0000
0000
,  // measure 6
0001
0000
0000
0000
,  // measure 7
0100
0000
0000
0000
,  // measure 8
0010
0000
0000
0000
,  // measure 9
1000
0000
0000
0000
,  // measure 10
0100
0000
0000
0000
,  // measure 11
0010
0000
0000
0000
,  // measure 12
0001
0000
0000
0000
,  // measure 13
1000
1000
0000
0000
,  // measure 14
0001
0001
0000
0000
,  // measure 15
0010
0010
0000
0000
,  // measure 16
0100
0100
0000
0000
,  // measure 17
0001
0000
0001
0000
,  // measure 18
0001
0000
0001
0000
,  // measure 19
1000
0000
1000
0000
,  // measure 20
1000
1000
1000
0000
,  // measure 21
0010
0000
0010
0000
,  // measure 22
0010
0000
0010
0000
,  // measure 23
0100
0000
0100
0000
,  // measure 24
0100
0100
0100
0000
,  // measure 25
0002
0000
0003
0000
,  // measure 26
0000
0000
0000
0000
,  // measure 27
2000
0000
3000
0000
,  // measure 28
0000
0000
0000
0000
,  // measure 29
0200
0000
0300
0000
,  // measure 30
0000
0000
0000
0000
,  // measure 31
0020
0000
0030
0000
,  // measure 32
0020
0000
0030
0000
,  // measure 33
0000
0000
0000
0000
,  // measure 34
0001
0001
0001
0000
,  // measure 35
0000
0000
0000
0000
,  // measure 36
0010
0000
0000
0000
,  // measure 37
0100
0000
0000
0000
,  // measure 38
1000
1000
1000
0000
,  // measure 39
0000
0000
0000
0000
,  // measure 40
0010
0000
0000
0000
,  // measure 41
0100
0000
0000
0000
,  // measure 42
0002
0000
0003
0000
,  // measure 43
0002
0000
0003
0000
,  // measure 44
2000
0000
3000
0000
,  // measure 45
2000
0000
3000
0000
,  // measure 46
0020
0000
0000
0000
,  // measure 47
0000
0000
0000
0000
,  // measure 48
0000
0000
0000
0030
,  // measure 49
0000
0000
0000
0000
,  // measure 50
0100
0000
0000
0000
,  // measure 51
0001
0000
0000
0000
,  // measure 52
1000
0000
0000
0000
,  // measure 53
0100
0100
0000
0000
,  // measure 54
1001
0000
0000
0000
;
