#TITLE:Ooh Aah...Just A Little Bit;
#SUBTITLE:;
#ARTIST:Gina G.;
#TITLETRANSLIT:;
#SUBTITLETRANSLIT:;
#ARTISTTRANSLIT:;
#CREDIT:;
#BANNER:;
#BACKGROUND:Ooh Aah..Just A little Bit-BG.png;
#LYRICSPATH:;
#CDTITLE:;
#MUSIC:Ooh Aah...Just A Little Bit.mp3;
#OFFSET:-0.100;
#SAMPLESTART:51.810;
#SAMPLELENGTH:12.000;
#SELECTABLE:YES;
#BPMS:0.000=131.000;
#STOPS:;
#BGCHANGES:0.000=[Retro Week] - Ooh Aah...Just A Little Bit.avi=1.000=1=0=1,
99999=-nosongbg-=1.000=0=0=0 // don't automatically add -songbackground-
;

//---------------dance-single - ----------------
#NOTES:
     dance-single:
     :
     Easy:
     4:
     0.316,0.338,0.175,0.221,0.000:
0000
0000
0000
0000
,
0000
0000
0000
0000
,
0000
0000
0000
0000
,
0000
0000
0000
0000
,
0000
1000
1000
1000
,
1000
0001
0001
0001
,
1002
0103
0100
0100
,
0100
0010
0010
0010
,
0210
0310
1000
0100
,
0001
0100
1000
0010
,
0201
0301
0010
1000
,
0010
0001
0100
0010
,
2010
3010
0100
0001
,
1000
1000
0100
1000
,
0001
0200
0010
0010
,
0310
2000
0100
0100
,
3100
0010
0001
1000
,
0100
1000
0010
0100
,
0001
1000
0100
0010
,
0001
2000
0001
0001
,
3001
1001
1000
0100
,
1000
0001
0100
0001
,
1000
1000
0001
0010
,
0001
0100
0010
1000
,
0200
0310
0001
1000
,
0100
1000
1000
1001
,
0001
0100
0010
1000
,
0100
0011
1100
0101
,
1001
2000
3001
0001
,
0101
2000
3100
1000
,
1010
0020
0130
0001
,
0101
0001
0100
0010
,
1000
0200
0310
0001
,
0011
0002
0103
0010
,
1001
2000
3001
0100
,
0001
0010
1000
0010
,
0001
0200
0310
1000
,
1100
2000
3001
0100
,
0101
0002
0013
0001
,
0100
1000
0100
0001
,
0010
2000
3010
0001
,
0101
0002
0103
0010
,
1010
2000
3100
1000
,
0001
0100
0100
0100
,
0100
0010
1000
0100
,
0010
0000
0001
0000
0100
0000
0001
1000
,
0200
1300
0001
0100
,
0010
0000
1000
0000
0100
0000
1000
0001
,
0200
0301
0010
0100
,
0010
0000
0001
0000
1000
0000
0100
1000
,
0200
1300
0001
0100
,
0010
0000
1000
0000
0100
0000
0010
0001
,
2000
3001
0000
0000
;

//---------------dance-single - ----------------
#NOTES:
     dance-single:
     :
     Medium:
     7:
     0.410,0.386,0.277,0.074,0.014:
0000
0000
0000
0000
,
0000
0000
0000
0000
,
0000
0000
0000
0000
,
0000
0000
0000
0000
,
0000
0000
0001
1000
0100
1000
0010
0010
,
1000
0000
0001
0010
0001
1000
0100
0100
,
1000
0000
0001
1000
0001
0100
0010
0010
,
1000
0000
0100
1000
0100
0010
0001
0001
,
1000
0000
1000
0100
1000
0010
0100
0100
,
0001
0000
0001
0010
0100
0010
0001
0001
,
1000
0000
1000
0100
0001
0100
1000
1000
,
0100
0000
0010
0001
1000
0001
0100
0100
,
0001
1000
0100
1000
,
0010
0100
0001
0000
0100
0000
0001
0000
,
0100
0010
2000
0000
0100
0000
0010
0000
,
3100
0020
0001
0100
,
0031
0000
1000
0001
0100
0000
0010
0000
,
1000
0000
0100
1000
0100
0000
0010
0000
,
0001
1000
0001
0000
0100
0000
0010
0000
,
1000
0100
2000
0000
0001
0000
0010
0000
,
0100
3000
0010
0001
1000
0001
1000
0000
,
1000
0100
1000
0010
0100
0000
0101
0000
,
1010
0000
0010
1000
0100
0000
1000
0000
,
1100
0000
0001
0100
0001
0000
0100
0000
,
0101
0000
0000
0000
0001
0000
0000
0000
1000
0000
0100
0000
1000
0000
0000
0010
,
0000
0000
0100
0000
0001
0000
0000
0100
0000
0000
0010
0000
2000
0000
0000
0000
,
3100
0000
0010
0001
1000
0000
1000
0100
,
1000
0000
0001
0000
0001
0000
0000
1000
0000
0000
0001
0000
1000
0000
0000
0000
,
1001
1010
0110
0010
,
0010
0000
1010
0000
1001
0000
1000
0100
,
0010
0000
0011
0000
0101
0000
0001
0100
,
0010
0000
1000
0000
0100
0000
0010
0010
,
0001
0001
1001
0000
1010
0000
0010
0000
,
0100
0000
0101
0000
1010
0000
1000
0100
,
0010
0011
0101
0001
,
0001
0000
1000
1000
0010
0010
0100
0000
,
0101
0000
0011
0000
1100
0000
1000
0100
,
0010
0000
0011
0000
1100
0000
0001
0100
,
0010
0000
1010
0000
0110
0000
1000
0100
,
0010
0000
0001
0000
0001
0000
0100
0100
,
0010
1000
0100
0000
1100
0000
1000
0001
,
0100
0000
0110
0000
1010
0000
0010
0100
,
0001
0000
1001
0000
1100
0000
1000
0100
,
0010
0000
0001
0001
0100
0100
0010
0000
,
1010
0000
0001
0100
0010
0000
1000
0010
,
0100
0000
0001
1000
0100
1000
0001
0100
,
0020
0000
1030
0100
0010
0000
0001
0100
,
0010
0000
1000
0100
0010
0001
1000
0001
,
2000
0000
3001
0100
0010
0000
1000
0100
,
0010
0000
0001
0010
0100
0010
0001
1000
,
0200
0000
1300
0001
0100
0000
0100
0001
,
1000
0000
1000
0010
0100
0010
1000
0100
,
0020
0031
0000
0000
;

//---------------dance-couple - ----------------
#NOTES:
     dance-couple:
     :
     Medium:
     5:
     0.377,0.580,0.591,0.000,0.074:
00000000
00000000
00000000
00000000
,
00000000
00000000
00000000
00000000
,
00000000
00000000
00000000
00000000
,
01100110
00000000
00000000
10001000
00000000
01000100
00000000
00000000
,
00010001
00010001
00000000
10001000
01000100
00000000
00000000
00010001
,
00000000
00110011
00000000
00000000
10001000
01000100
00000000
00100010
,
00000001
00000100
00000001
00100000
,
10000000
01000000
00000010
00001000
,
00001000
01000000
00010000
00010000
,
00000100
00000100
00000000
00100000
,
00100000
00000000
00001000
00001000
,
00000000
00010000
00010000
00000000
,
00001001
00000000
00000010
00000100
00000010
00000000
01100000
00000000
,
00010000
10000000
00010000
00000000
00001001
00000000
00000010
00000001
,
00000100
00000000
01100000
00000000
10000000
00010000
01000000
00000000
,
10000000
00000000
00100000
01000000
00000000
00100000
01000000
00000000
00010000
00000000
00000000
00000000
00000001
00000000
00000010
00000100
,
00000000
00000010
00000100
00000000
00001000
00000000
00000000
00000000
00010000
00000000
00100000
01000000
00000000
00100000
01000000
00000000
,
10000000
00000000
00000000
00000000
00001000
00000000
00000010
00000100
00000000
00000010
00000100
00000000
00000001
00000000
00000000
00000000
,
00100000
10000000
01000000
00010000
,
00100000
10010000
00000010
00001000
,
00000100
00000001
00000010
00001001
,
00100000
10000000
01000000
00010000
,
00100000
01000000
00100000
00000000
00000010
00000000
00001000
00000000
,
00000100
00000000
00000001
00000000
00000010
00000100
00000010
00000000
,
10011001
00000000
00000000
01100110
00000000
10011001
00000000
00000000
,
01010101
11001100
00000000
10011001
00000000
00000000
00010000
00000000
,
00000000
00000000
00000100
00000000
,
00000000
10000000
00000000
00000000
,
00000010
00000000
00100000
01000000
,
00010000
00001000
00000001
00000100
,
10000000
01000000
00100000
00000010
,
00001000
00000000
00000001
00000000
00100000
00010000
01000000
00000000
,
00010000
00000000
00000010
00000100
00000010
00000000
00001000
00000000
,
00100000
01000000
00100000
00000000
10000000
00000000
00000001
00000100
,
00000010
00000000
00000000
00000000
00001000
00000000
00000000
00000000
10000000
00000000
00100000
01000000
00000000
00100000
01000000
00000000
,
00010000
00000000
00000000
00000000
00001000
00000000
00000010
00000100
00000000
00000010
00000100
00000000
00000001
00000000
00000000
00000000
,
00010000
00000000
00100000
01000000
00000000
00100000
01000000
00000000
10000000
00000000
00000000
00000000
00000001
00000000
00000010
00000100
,
00000000
00000010
00000100
00000000
00001000
00000000
00000000
00000000
00100010
00000000
00000000
00000000
10001000
00000000
00010001
00000000
,
01000100
00010001
00100010
10011001
,
00100010
01000100
00010001
10001000
00100010
01000100
00010001
01000100
,
00100010
00000000
01000100
00000000
00000000
00100010
00000000
00010001
,
00000000
01000100
00000000
10001000
00100010
01000100
00100010
00000000
,
10001000
00010001
01000100
00010001
10001000
00010001
00100010
01000100
,
10001000
00000000
00010001
00000000
10011001
00000000
00000000
10100000
,
00000000
00000101
00000000
00000000
01010000
00001100
00000000
10011001
;

//---------------dance-solo - ----------------
#NOTES:
     dance-solo:
     :
     Easy:
     3:
     0.235,0.248,0.111,0.000,0.000:
000000
000000
000000
000000
,
000000
000000
000000
000000
,
000000
000000
000000
000000
,
000100
000001
001000
100000
,
000100
000100
000100
100000
,
001000
000001
000100
000100
,
000010
000001
010000
100000
,
000010
000001
100001
010000
,
100000
000010
000001
010000
,
100001
000010
000001
010000
,
100000
000010
100001
000100
,
000010
000100
010000
000100
,
000001
000001
001000
100000
,
100000
001000
000001
000001
,
001000
100000
100000
001000
,
000010
000010
001000
010000
,
010000
100001
000010
000010
,
001000
010000
010000
100001
,
000010
010000
000001
100000
,
001000
001000
000001
100000
,
000010
010000
000100
000100
,
000010
010000
000001
100000
,
001000
001000
000001
100000
,
000010
010000
000100
000100
,
001000
000000
000000
000100
000000
001000
000000
000000
,
000010
010000
000000
000100
000000
000000
100001
000000
,
000010
000010
100001
010000
,
010000
100001
000100
000100
,
100001
001000
001000
100001
,
000010
000010
100001
010000
,
010000
100001
000100
000100
,
001000
000000
000100
000010
,
000001
000100
010000
001000
,
000100
000010
000001
000100
,
010000
001000
000100
000010
,
000001
000100
010000
001000
,
000100
000010
000001
000100
,
010000
001000
000100
010000
,
000100
001000
100000
100000
,
000100
000010
000100
001000
,
000001
000001
000100
010000
,
000100
001000
100000
100000
,
000100
000010
000100
001000
,
000001
000000
000001
000000
000100
000000
000000
001000
,
000000
000100
000000
000000
010000
000010
000000
010000
;

//---------------dance-solo - ----------------
#NOTES:
     dance-solo:
     :
     Medium:
     5:
     0.310,0.373,0.258,0.000,0.000:
000000
000000
000000
000000
,
000000
000000
000000
000000
,
000000
000000
000000
000000
,
000100
000000
100001
000000
000010
010000
000010
000000
,
100000
100000
000000
000010
000100
000000
000000
001000
,
000000
100001
000000
000000
010000
000010
000000
000000
,
000101
000010
001000
000001
,
000100
001000
100100
010000
,
001000
100000
000100
001000
,
101000
000100
010000
100000
,
001000
000100
001001
000100
,
000010
000001
001000
000100
,
010000
000000
001000
000000
010000
000001
100000
000000
,
100000
001000
000010
001000
,
000010
100000
000001
000000
000001
000000
001000
000000
,
000100
000000
001000
000000
000100
100000
000001
000000
,
000001
001000
000100
001000
,
000010
010000
000001
000000
000001
000000
001000
000000
,
000100
010000
000100
010000
000100
010000
000100
000100
,
100100
000000
000101
000000
000100
000010
000100
000010
,
000100
000010
000100
000100
000101
000000
100100
000000
,
100000
001000
100000
001000
100000
001000
100000
100000
,
010100
000000
101000
000000
000001
001000
000001
001000
,
000001
001000
000001
000001
000110
000000
001001
000000
,
010010
000000
000000
001100
000000
100001
000000
000000
,
000010
000010
000000
001000
000000
000000
100001
000000
,
000000
001000
000100
000000
100001
000000
000000
001000
,
000100
000000
100001
000000
000000
000100
001000
000000
,
100001
000000
000000
000100
001000
000000
001010
000000
,
000000
100000
001000
000000
011000
000000
000000
000001
,
001000
000000
001010
000000
000000
100000
001000
000000
,
010010
000000
000100
000001
,
010000
001000
000010
000000
000010
000000
001000
000000
,
000100
000000
100000
000000
000010
001000
010000
000000
,
010000
001000
000100
000001
,
010000
001000
000010
000000
000001
000000
001000
000000
,
000100
000000
100000
000000
000010
001000
010000
000000
,
100000
000000
001000
000000
000100
000001
000100
000010
,
000100
000001
000100
000010
100000
000000
100000
000000
,
000100
100000
000100
010000
000100
100000
000100
010000
,
000001
000000
000001
000000
010000
000010
010000
000100
,
010000
000010
010000
000100
100000
000000
100000
000000
,
000010
010000
000010
000100
000010
010000
000010
000100
,
000001
000000
000001
000000
010010
000000
000000
001100
,
000000
100001
000000
000000
000010
000010
000000
010000
;

//---------------dance-solo - ----------------
#NOTES:
     dance-solo:
     :
     Hard:
     7:
     0.409,0.414,0.683,0.000,0.148:
000000
000000
000000
000000
,
000000
000000
000000
000000
010010
000000
000000
000101
,
000000
100100
000000
000000
000010
000010
000000
010000
,
010000
000000
000000
000000
000100
010000
000001
000000
,
001000
001000
000000
000001
100000
000000
000000
000101
,
000000
100100
000000
000000
100010
010001
000000
001001
,
101000
000100
010000
100000
,
000001
001000
110000
000100
,
000010
000001
100000
001000
,
000011
000100
010000
100000
,
000001
001000
110000
000100
,
000010
000001
100000
001000
,
000100
000000
000001
001000
000000
000001
001000
000000
000010
000000
010000
000000
001000
000000
100000
001000
,
000000
100000
001000
000000
100000
000000
000000
000000
000100
000000
100000
001000
000000
100000
001000
000000
,
010000
000000
000010
000000
001000
000000
000001
001000
000000
000001
001000
000000
000001
000000
000000
000000
,
100000
000000
000001
000100
000000
000001
000100
000000
000010
000000
010000
000000
000100
000000
100000
001000
,
000000
100000
001000
000000
100000
000000
000000
000000
000001
000000
100000
000100
000000
100000
000100
000000
,
010000
000000
000010
000000
000100
000000
000001
001000
000000
000001
001000
000000
000001
000000
000000
000000
,
000101
000000
100100
000000
101000
000000
001001
000001
,
010000
000010
100100
000101
,
001001
000000
101000
100000
000010
000000
010000
000000
,
000110
000000
101000
000000
001001
000000
010100
000100
,
000011
110000
010100
001001
,
101000
000000
000110
000100
110000
000000
000011
000000
,
001000
000000
000000
101000
000000
001001
000000
000000
,
000100
000100
000000
010010
000000
000000
000100
000000
,
000000
100010
010001
000000
000100
000000
000000
101000
,
001001
000000
000100
000000
000000
000101
100100
000000
,
000100
000000
000000
001010
011000
000000
001100
000000
,
000000
000010
000010
000000
001100
000000
000000
010000
,
010000
000000
001100
000000
000000
010000
000010
000000
,
000000
000000
000000
000000
000000
000000
000000
000000
000100
000000
000001
001000
000000
000001
001000
000000
,
000010
000000
010000
000000
000010
000000
100000
001000
000000
100000
001000
000000
100000
000000
000000
000000
,
000100
000000
100000
001000
000000
100000
001000
000000
010000
000000
000010
000000
010000
000000
000001
001000
,
000000
000001
001000
000000
000001
000000
000000
000000
100000
000000
000001
000100
000000
000001
000100
000000
,
000010
000000
010000
000000
000100
000000
100000
001000
000000
100000
001000
000000
100000
000000
000000
000000
,
000001
000000
100000
000100
000000
100000
000100
000000
010000
000000
000010
000000
000100
000000
000001
001000
,
000000
000001
001000
000000
000001
000000
000000
000000
000011
000000
000000
000000
010010
000000
000000
000000
,
110000
000000
100001
100000
000101
000000
101000
000000
,
110000
000000
010010
000000
000011
000000
100001
000001
,
100100
001001
000110
101000
,
001001
000000
010100
010000
000101
000000
100100
000000
,
010100
000000
001001
000000
101000
000000
000110
000010
,
100100
000000
000101
000000
001100
000000
000000
101000
,
000000
001001
000000
000000
000100
000100
000000
010010
;

//---------------dance-single - Copied from Copied f----------------
#NOTES:
     dance-single:
     Copied from Copied f:
     Hard:
     9:
     0.512,0.458,0.231,0.074,0.166: // measure 1
0000
0000
0000
0000
,  // measure 2
0000
0000
0000
0000
,  // measure 3
0000
0000
0000
0000
,  // measure 4
0000
0000
0000
0000
,  // measure 5
0000
0000
0000
0000
0001
0000
0100
0000
0001
0000
1000
0000
0001
0000
0010
0001
,  // measure 6
0000
0010
0001
1000
0001
0000
1000
0000
0100
0000
1000
0000
0010
0000
1000
0200
,  // measure 7
0000
0000
0000
0000
0310
0000
0001
0000
0010
0000
0100
0000
0010
0000
0001
1000
,  // measure 8
0000
0001
1000
0010
1000
0000
0010
0000
1000
0000
0010
0000
0100
0000
0010
2000
,  // measure 9
0000
0000
0000
0000
3001
0000
0010
0000
0001
0000
0100
0000
0001
0000
1000
0001
,  // measure 10
0000
1000
0001
0010
0001
0000
1000
0000
0100
0000
1000
0000
0001
0000
1000
0020
,  // measure 11
0000
0000
0000
0000
0130
0000
0010
0000
0100
0000
0001
0000
0100
0000
0010
0100
,  // measure 12
0000
0010
0100
0001
0100
0000
0010
0000
1000
0000
0010
0000
0100
0000
0010
0200
,  // measure 13
0000
0000
0310
1000
0100
1000
0010
0100
,  // measure 14
0001
0000
0010
0001
0010
0100
0010
0001
,  // measure 15
1000
0000
1000
0001
1000
0010
0100
0001
,  // measure 16
1000
0010
0001
0010
1000
0100
0010
0001
,  // measure 17
0100
0000
0010
0100
0001
0100
0010
1000
,  // measure 18
0100
0000
1000
0001
0100
0010
0100
0001
,  // measure 19
1000
0000
0010
0100
0010
1000
0100
0010
,  // measure 20
0001
0000
0010
0000
1000
0000
0010
0000
0001
0000
1000
0000
0001
0000
1000
0001
,  // measure 21
1000
0001
1000
0001
1000
0000
0010
0000
0100
0000
0001
0000
1000
0000
0100
0000
,  // measure 22
0010
0000
0001
0100
1000
0100
0010
1000
,  // measure 23
0001
0000
0010
0001
1000
0100
0001
0100
,  // measure 24
1000
0010
0001
0010
1000
0100
0010
0001
,  // measure 25
1000
0000
0001
1000
0001
0010
0001
1000
,  // measure 26
0100
0000
1000
0010
0001
0010
0100
0001
,  // measure 27
1000
0000
0001
0010
0100
1000
0001
0100
,  // measure 28
1000
0000
0100
0000
0001
0000
0000
1000
0000
0000
0010
0000
0100
0000
0000
0000
,  // measure 29
0110
0000
1001
0000
1100
0000
1000
0100
,  // measure 30
0010
0001
0101
0000
1001
0000
0010
1000
,  // measure 31
0100
0000
0110
0000
0011
0000
0010
0001
,  // measure 32
1000
0010
1000
0100
0001
0100
1000
0001
,  // measure 33
0010
0100
1100
0000
1001
0000
0001
0010
,  // measure 34
0100
1000
1010
0000
1001
0000
0010
0100
,  // measure 35
0001
0000
0110
0000
1100
0000
0010
0100
,  // measure 36
0001
1000
0001
0010
1000
0010
0001
1000
,  // measure 37
0100
1000
1001
0000
1010
0000
0100
1000
,  // measure 38
0010
0100
0101
0000
1001
0000
0001
1000
,  // measure 39
0100
0000
1100
0000
0011
0000
0001
0010
,  // measure 40
0001
0100
1000
0100
0001
0010
1000
0010
,  // measure 41
0001
1000
1100
0000
1001
0000
0010
0100
,  // measure 42
0001
1000
1100
0000
1001
0000
1000
0001
,  // measure 43
0100
0000
0110
0000
0101
0000
0100
0001
,  // measure 44
1000
0100
0001
0100
1000
0010
0001
0010
,  // measure 45
1000
0000
0100
0000
0010
0000
0001
0000
1000
0000
0001
0000
0010
0000
0001
0100
,  // measure 46
0000
0001
0100
0001
1000
0000
0010
0000
0100
0000
0001
0000
1000
0000
0100
2000
,  // measure 47
0000
0000
0000
0000
3100
0000
0010
0000
0001
0000
1000
0000
0010
0000
0100
0010
,  // measure 48
0000
0100
0010
1000
0010
0000
0100
0000
0001
0000
1000
0000
0100
0000
1000
0002
,  // measure 49
0000
0000
0000
0000
0013
0000
0001
0000
0100
0000
0010
0000
1000
0000
0001
1000
,  // measure 50
0000
0001
1000
0100
1000
0000
0100
0000
0010
0000
0001
0000
1000
0000
0001
2000
,  // measure 51
0000
0000
0000
0000
3001
0000
1000
0000
0100
0000
0010
0000
0100
0000
1000
0010
,  // measure 52
0000
1000
0010
1000
0001
0000
0100
0000
0001
0000
0010
0000
0001
0000
1000
0002
,  // measure 53
0000
1003
0000
0000
;
