#TITLE:OVERDRIVE COMPUTER;
#SUBTITLE:;
#ARTIST:zonlu;
#TITLETRANSLIT:;
#SUBTITLETRANSLIT:;
#ARTISTTRANSLIT:;
#CREDIT:DMAxel;
#BANNER:OVERDRIVE COMPUTER.png;
#BACKGROUND:OVERDRIVE COMPUTER-bg.png;
#LYRICSPATH:;
#CDTITLE:GUITARFREAKS & drummania.png;
#MUSIC:OVERDRIVE COMPUTER.mp3;
#OFFSET:-9.460;
#SAMPLESTART:15.144;
#SAMPLELENGTH:12.000;
#SELECTABLE:YES;
#BPMS:0.000=156.970;
#STOPS:;
#BGCHANGES:;

//---------------dance-single - ----------------
#NOTES:
     dance-single:
     :
     Easy:
     3:
     0.287,0.284,0.080,0.230,0.000: // measure 1
2000
0000
0001
0000
,  // measure 2
3001
1000
0100
0100
,  // measure 3
2000
0000
0001
0000
,  // measure 4
3001
0001
1000
1000
,  // measure 5
0002
0000
0103
0010
,  // measure 6
0200
0000
0000
0310
,  // measure 7
2000
0000
0000
3100
,  // measure 8
0020
0000
0031
1000
,  // measure 9
0002
0000
0103
0010
,  // measure 10
0200
0000
0000
0301
,  // measure 11
2000
0000
0000
3010
,  // measure 12
0200
0000
0310
0100
,  // measure 13
0010
0010
1000
1000
,  // measure 14
0010
0010
0110
0110
,  // measure 15
0100
0100
0001
0001
,  // measure 16
0100
0100
0110
0110
,  // measure 17
0001
0001
1000
1000
,  // measure 18
0001
0001
0100
0110
,  // measure 19
1000
1000
0001
0001
,  // measure 20
1000
1000
0010
0110
,  // measure 21
0002
0000
0103
0010
,  // measure 22
0200
0000
0310
1000
,  // measure 23
0020
0000
1030
0001
,  // measure 24
2000
0000
3100
0100
,  // measure 25
0020
0000
0031
0100
,  // measure 26
0020
0000
0130
0010
,  // measure 27
2000
0000
3010
0100
,  // measure 28
0002
0000
1000
1003
,  // measure 29
0100
0010
0100
0010
,  // measure 30
0001
1000
0001
1000
,  // measure 31
0001
0100
0001
0100
,  // measure 32
0010
1000
0010
1000
,  // measure 33
0100
0010
0100
0010
,  // measure 34
0001
1000
0001
1000
,  // measure 35
0010
1000
0010
1000
,  // measure 36
0001
0100
0001
0000
,  // measure 37
1000
1000
0010
0100
,  // measure 38
0001
0001
0010
0100
,  // measure 39
1000
1000
0010
0100
,  // measure 40
0001
0001
0010
0100
,  // measure 41
1000
1000
0001
0001
,  // measure 42
0010
0100
1000
0001
,  // measure 43
0100
0010
1000
0010
,  // measure 44
0220
0000
0000
0000
,  // measure 45
0000
0000
0000
0000
,  // measure 46
0330
0000
0000
0000
;

//---------------dance-single - ----------------
#NOTES:
     dance-single:
     :
     Medium:
     6:
     0.410,0.413,0.253,0.264,0.000: // measure 1
0001
1000
0002
0000
0100
0000
0100
0000
,  // measure 2
1000
1000
0103
0110
,  // measure 3
1000
0001
2000
0000
0100
0000
0100
0000
,  // measure 4
0001
0001
3100
0110
,  // measure 5
0002
0000
0000
1003
0010
1000
0100
0010
,  // measure 6
0002
0000
0000
1003
,  // measure 7
0020
0000
0000
0130
,  // measure 8
0002
0000
0000
0000
1003
0000
0001
1000
,  // measure 9
0002
0000
0000
1003
0010
1000
0010
0100
,  // measure 10
0002
0000
0000
1003
,  // measure 11
0020
0000
0000
0130
,  // measure 12
0002
0000
1000
1003
,  // measure 13
0010
0100
0000
0001
0000
0100
0000
1000
,  // measure 14
0000
0100
0000
0001
0100
0000
0110
0000
,  // measure 15
0100
0010
0000
1000
0000
0100
0000
0001
,  // measure 16
0000
0100
0000
1000
0010
0000
0110
0000
,  // measure 17
0010
0100
0000
0001
0000
0100
0000
1000
,  // measure 18
0000
0100
0000
0001
0100
0000
0110
0000
,  // measure 19
0100
0010
0000
1000
0000
0100
0000
0001
,  // measure 20
0000
0100
0000
1000
0010
0000
0110
0000
,  // measure 21
1010
0000
0010
0000
1000
0100
0010
0000
,  // measure 22
0101
0000
0100
0000
0001
0010
0100
0000
,  // measure 23
1010
0000
0010
0000
1000
0100
0010
0000
,  // measure 24
0101
0000
0100
0000
0001
0010
0100
0000
,  // measure 25
1100
0000
1001
0000
0001
1000
0010
0000
,  // measure 26
0011
0000
1001
0000
1000
0001
0100
0000
,  // measure 27
1100
0000
1001
0000
0001
1000
0010
0000
,  // measure 28
0100
0110
0010
0110
,  // measure 29
0001
1000
0001
0000
0100
0010
0100
0001
,  // measure 30
2000
0001
3002
1000
,  // measure 31
2003
0000
0010
0000
3010
0100
0010
1000
,  // measure 32
0002
1000
1003
1001
,  // measure 33
1000
0001
1000
0000
0010
0100
0010
1000
,  // measure 34
0002
1000
2003
0001
,  // measure 35
3002
0000
0100
0000
0103
0010
0100
0001
,  // measure 36
2000
0001
3001
0100
,  // measure 37
0010
1000
0010
1000
0010
0100
0010
0000
,  // measure 38
1000
0100
0010
0001
0010
0001
0010
0001
,  // measure 39
2000
0100
3100
1001
,  // measure 40
0002
0100
0100
0103
,  // measure 41
0100
0001
0100
0001
0100
0010
0100
0000
,  // measure 42
0001
0010
0100
1000
0100
1000
0100
1000
,  // measure 43
0002
0010
0013
1010
,  // measure 44
0220
0000
0000
0000
,  // measure 45
0000
0000
0000
0000
,  // measure 46
0330
0000
0000
0000
;

//---------------dance-single - ----------------
#NOTES:
     dance-single:
     :
     Hard:
     8:
     0.515,0.439,0.149,0.161,0.207: // measure 1
0001
0100
1000
0100
0010
1000
0100
1000
,  // measure 2
0001
0010
0001
0100
0010
0000
1001
0000
,  // measure 3
1000
0100
0001
0100
0010
0001
0100
0001
,  // measure 4
1000
1001
0001
1001
,  // measure 5
0010
0000
0010
1000
0100
0010
0001
1000
,  // measure 6
0200
0010
0000
0010
0000
0310
0001
1000
,  // measure 7
0200
0000
0001
0000
0301
0000
1000
0001
,  // measure 8
0200
0000
1000
0000
1300
0000
0001
1000
,  // measure 9
0010
0000
0010
1000
0100
0010
0001
1000
,  // measure 10
0200
0010
0000
0010
0000
0310
0001
1000
,  // measure 11
0200
0000
0001
0000
0301
0000
1000
0001
,  // measure 12
0200
1000
1300
1001
,  // measure 13
0000
0000
0001
0100
0000
0000
0100
0010
0000
0000
0010
1000
0000
0000
1000
0001
,  // measure 14
0000
0000
0001
0100
0000
0000
0010
1000
0010
0000
1000
0000
0001
0000
0001
0000
,  // measure 15
0000
0000
1000
0010
0000
0000
0010
0100
0000
0000
0100
0001
0000
0000
0001
1000
,  // measure 16
0000
0000
1000
0010
0000
0000
0100
0001
0100
0000
0001
0000
1000
0000
1000
0000
,  // measure 17
0000
0000
0001
0100
0000
0000
0100
1000
0000
0000
1000
0100
0000
0000
0100
0001
,  // measure 18
0000
0000
0001
1000
0000
0000
0010
0100
0010
0000
1000
0000
0001
0000
0100
0000
,  // measure 19
0000
0000
0001
0100
0000
0000
0100
1000
0000
0000
1000
0100
0000
0000
0100
0001
,  // measure 20
0000
0000
0001
1000
0000
0000
0010
0100
0010
0000
1000
0000
0001
0000
0000
0000
,  // measure 21
1000
0000
0000
0000
1100
0000
0000
0000
0001
0000
0000
0100
0000
0000
1000
0000
,  // measure 22
0001
0000
0000
0000
0101
0000
0000
0000
1000
0000
0000
0100
0000
0000
0001
0000
,  // measure 23
1000
0000
0000
0000
1100
0000
0000
0000
0001
0000
0000
0100
0000
0000
1000
0000
,  // measure 24
0001
0000
0000
0000
0101
0000
0000
0000
1000
0001
1000
0000
0001
1000
0001
0000
,  // measure 25
1000
0000
0000
0000
1010
0000
0000
0000
0001
0000
0000
0010
0000
0000
1000
0000
,  // measure 26
0001
0000
0000
0000
0011
0000
0000
0000
1000
0000
0000
0010
0000
0000
0001
0000
,  // measure 27
1000
0000
0000
0000
1010
0000
0000
0000
0001
0000
0000
0010
0000
0000
1000
0000
,  // measure 28
0010
0100
0000
0000
0001
0010
0000
0000
0100
1000
0000
0000
0001
1000
0001
0000
,  // measure 29
1000
0010
0100
0010
1000
0001
0100
1000
,  // measure 30
0200
0000
0301
0100
0010
1000
0100
0010
,  // measure 31
0002
0000
1000
0000
1003
0100
0010
0001
,  // measure 32
0200
1000
1300
1001
,  // measure 33
0001
0100
0010
0100
0001
1000
0100
0001
,  // measure 34
0200
0000
1300
0100
0010
0001
0100
0010
,  // measure 35
2000
0000
0001
0000
3001
0100
0010
1000
,  // measure 36
0200
0001
0301
1001
,  // measure 37
1000
0010
0100
0001
1000
0100
0010
1000
,  // measure 38
0010
0001
1000
0010
0100
0001
0010
0100
,  // measure 39
0001
0100
1000
0010
0100
0010
1000
0100
,  // measure 40
0001
0100
1000
0001
0100
0010
1000
0000
,  // measure 41
0100
0010
0001
0100
0010
1000
0100
0001
,  // measure 42
0100
0010
0001
0100
1000
0100
0010
1000
,  // measure 43
0010
0100
0010
1000
0001
0100
1000
0200
,  // measure 44
0002
0000
0000
0000
,  // measure 45
0000
0000
0000
0000
,  // measure 46
0303
0000
0000
0000
;

//---------------dance-single - ----------------
#NOTES:
     dance-single:
     :
     Beginner:
     1:
     0.082,0.123,0.000,0.000,0.000: // measure 1
1000
0000
0000
0000
,  // measure 2
0000
0000
0000
0000
,  // measure 3
0001
0000
0000
0000
,  // measure 4
0000
0000
0000
0000
,  // measure 5
1000
0000
0000
0000
,  // measure 6
1000
0000
0000
0000
,  // measure 7
0001
0000
0000
0000
,  // measure 8
0001
0000
0000
0000
,  // measure 9
0100
0000
0000
0000
,  // measure 10
0000
0000
0000
0000
,  // measure 11
0010
0000
0000
0000
,  // measure 12
0010
0000
0000
0000
,  // measure 13
0100
0000
0000
0000
,  // measure 14
0000
0000
0000
0000
,  // measure 15
0100
0000
0000
0000
,  // measure 16
0000
0000
0000
0000
,  // measure 17
0100
0000
0000
0000
,  // measure 18
0000
0000
0000
0000
,  // measure 19
0100
0000
0000
0000
,  // measure 20
0000
0000
0000
0000
,  // measure 21
0001
0000
1000
0000
,  // measure 22
0001
0000
0000
0000
,  // measure 23
1000
0000
0001
0000
,  // measure 24
1000
0000
0000
0000
,  // measure 25
0001
0000
1000
0000
,  // measure 26
0001
0000
0000
0000
,  // measure 27
1000
0000
0001
0000
,  // measure 28
1000
0000
0000
0000
,  // measure 29
0010
0000
0000
0000
,  // measure 30
0010
0000
0100
0000
,  // measure 31
0010
0000
0000
0000
,  // measure 32
0010
0000
0000
0000
,  // measure 33
0100
0000
0000
0000
,  // measure 34
0100
0000
0010
0000
,  // measure 35
0100
0000
0000
0000
,  // measure 36
0100
0000
0000
0000
,  // measure 37
0001
0000
1000
0000
,  // measure 38
0001
0000
1000
0000
,  // measure 39
0001
0000
1000
0000
,  // measure 40
0001
0000
1000
0000
,  // measure 41
0010
0000
0100
0000
,  // measure 42
0010
0000
0100
0000
,  // measure 43
0001
0000
1000
0000
,  // measure 44
0010
0000
0000
0000
;
