#TITLE:OH! MY GIRL, OH MY GOD! -MORNING SURPRISE MIX-;
#SUBTITLE:;
#ARTIST:T.M. Revolution;
#TITLETRANSLIT:;
#SUBTITLETRANSLIT:;
#ARTISTTRANSLIT:;
#GENRE:;
#CREDIT:Telperion;
#BANNER:omg2msm-bn.png;
#BACKGROUND:omg2msm-bg.png;
#LYRICSPATH:;
#CDTITLE:;
#MUSIC:omg2msm.ogg;
#OFFSET:-0.056984;
#SAMPLESTART:66.839996;
#SAMPLELENGTH:17.739000;
#SELECTABLE:YES;
#DISPLAYBPM:230.000000;
#BPMS:0.000000=115.000000,12.000000=230.000000,312.000000=115.000000,342.000000=230.000000;
#STOPS:;
#DELAYS:;
#TIMESIGNATURES:0.000000=4=4
;
#BGCHANGES:;
#KEYSOUNDS:;
#ATTACKS:;

//---------------dance-single - Telperion----------------
#NOTES:
     dance-single:
     Telperion:
     Hard:
     8:
     0.507,0.552,0.359,0.310,0.194,297.000,37.000,32.000,0.000,0.000,0.000,0.000,0.507,0.552,0.359,0.310,0.194,297.000,37.000,32.000,0.000,0.000,0.000,0.000:
0000
0000
0000
0000
,
0000
0000
0000
0000
,
0000
0000
0000
0000
,
0001
1000
0001
1000
,
0220
0000
0030
0000
,
1300
0001
0100
0010
,
1000
0000
0010
0100
0000
0000
0110
0000
0000
0000
0000
0000
,
1000
0001
0010
0010
,
0100
0000
0010
0001
0000
0000
2000
0000
0000
3000
0000
0000
,
0001
0100
0010
0100
,
0001
0000
0001
1000
0000
0000
0100
0000
0000
0100
0000
0000
,
0110
1100
1001
0110
,
1001
0000
0000
0000
,
0001
0000
0000
0100
0000
0000
1000
0000
0000
0100
0000
0010
,
0000
0010
0100
0100
,
0001
0010
0001
0010
,
0100
0000
0010
0000
0000
0000
0010
0000
0000
0000
0000
0000
,
0001
0000
0000
1000
0000
0000
0010
0000
0000
0100
0000
0010
,
0000
1000
0010
0100
,
0001
0001
0010
0010
,
0001
0000
1000
0000
0000
0000
1000
0000
0000
0001
0000
0000
,
2001
0000
0010
0000
,
3001
0100
1010
0100
,
0020
0000
0100
0000
,
0031
1000
0110
0000
,
1000
0000
0000
0001
0000
0000
0010
0000
0000
0001
0000
1000
,
0000
0000
1000
0010
0000
0000
0110
0000
0000
0000
0000
0000
,
0010
0000
0000
0100
0000
0000
0010
0000
0000
0100
0000
0001
,
0000
0000
1000
0001
0000
0000
0011
0000
0000
1001
0000
0000
,
1000
0000
0000
0100
0000
0000
0010
0000
0000
0100
0000
1000
,
0000
1000
0001
1000
,
1000
0001
0001
0100
,
0010
0000
0100
0000
0000
0000
0100
0000
0000
0000
0000
0000
,
1010
0000
0000
0010
0000
0000
0100
0000
0000
0001
0000
0001
,
0010
0000
0000
0100
0000
0010
0000
0000
0000
0100
0000
0000
,
1000
0001
1000
0100
,
0010
0100
1000
0001
,
0200
0000
0000
0000
0000
0010
0000
0000
0000
0020
0000
0000
,
0000
0000
0330
0000
,
1000
0010
0100
0001
,
2000
0000
0000
0000
0000
0100
0000
0000
0000
3001
0000
0000
,
0100
0000
0000
0010
0000
0000
0001
0000
0000
0010
0000
0100
,
0000
0000
0100
0001
0000
0000
1001
0000
0000
0000
0000
0000
,
1000
0000
0000
0100
0000
0000
0010
0000
0000
0100
0000
1000
,
0000
0000
1000
0001
0000
0000
0100
0000
0000
0110
0000
0000
,
2002
0000
3000
0023
,
0000
0230
0000
0300
,
0220
0000
0000
0000
,
0330
0000
0001
1000
,
1020
0000
0130
0000
,
0021
0000
1030
0000
,
0100
1000
0010
0100
,
0001
0000
0100
0001
0000
0000
1000
0000
0000
0100
0000
0000
,
0220
0300
0000
0100
,
0000
0031
1000
0010
,
0201
0000
0010
0000
,
1300
0000
0100
0001
,
0010
0001
0010
0001
,
1000
0000
0001
1000
0000
0000
0001
0000
0000
0100
0000
0000
,
0010
1000
0010
1000
,
0010
0000
0010
0100
0000
0000
0010
0000
0000
0100
0000
0001
,
1000
1000
1000
1000
,
0000
0000
0001
1000
0000
0000
0110
0000
0000
1001
0000
0000
,
0120
0000
0032
0000
,
0203
0000
0300
1000
,
0100
0010
1000
0001
,
0010
0000
0001
0000
0000
0001
0000
0000
0000
0000
0000
0000
,
2001
0000
3200
0000
,
0320
0000
0030
1000
,
1000
0010
0010
0001
,
1000
0000
0001
0000
0000
0001
0000
0000
0000
0100
0000
0000
,
1002
0000
0203
0000
,
0320
0000
0030
0001
,
0010
1000
0100
0010
,
0001
0000
0010
0000
0000
0010
0000
0000
0000
0000
0000
0000
,
0201
0000
2300
0000
,
3200
0000
0320
0030
,
0110
1010
1001
0110
,
1001
0000
0000
0000
1000
0010
1000
0000
,
0001
0000
1000
0001
0010
0100
0010
0100
,
1000
0000
0100
0000
0000
1000
0001
0000
0000
0000
0000
0000
0100
0000
0000
0000
0000
0000
0000
0000
0000
0000
0000
0000
,
0000
0000
0000
0010
,
0100
0000
0001
0000
1100
1000
0001
0000
,
0100
0000
0010
0100
1000
0100
0010
0100
,
0001
0000
1000
0000
0000
0001
1000
0000
0000
0000
0000
0000
0000
0000
0000
0000
0000
0000
0000
0000
0000
0000
0000
0000
,
0000
0000
0011
0001
,
1010
0000
0000
1000
0000
0000
0011
0000
0001
0100
0000
0100
,
0010
0000
0010
1000
0000
1000
0001
0000
0000
0000
0000
0000
;

//---------------dance-double - Telperion----------------
#NOTES:
     dance-double:
     Telperion:
     Hard:
     8:
     0.477,0.679,0.301,0.155,0.199,297.000,31.000,16.000,0.000,0.000,0.000,0.000,0.477,0.679,0.301,0.155,0.199,297.000,31.000,16.000,0.000,0.000,0.000,0.000:
00000000
00000000
00000000
00000000
,
00000000
00000000
00000000
00000000
,
00000000
00000000
00000000
00000000
,
00010000
01000000
00001000
00100000
,
02000000
00000000
00000000
00000000
,
03100000
00010000
10000000
00100000
,
01000000
00000000
00100000
10000000
00000000
00000000
01000000
00000000
00000000
00100000
00000000
00000000
,
00001000
00000100
00000010
00000100
,
00001000
00000000
00000100
00000010
00000000
00000000
00001000
00000000
00000000
00000000
00000000
00000000
,
00000001
00001000
00000100
00010000
,
00001000
00000000
00010000
00001000
00000000
00000000
00010000
00000000
00000000
00000100
00000000
00000000
,
00000110
00001100
00011000
01010000
,
10100000
00000000
00000000
00000000
,
01000000
00010000
10000000
01000000
,
00100000
00000000
00010000
00000000
00000000
00000000
00100000
00000000
00000000
01000000
00000000
00000000
,
10000000
01000000
00010000
00001000
,
00000100
00000000
00000010
00000000
00000000
00000000
00000010
00000000
00000000
00000000
00000000
00000000
,
00001000
00000010
00001000
00000010
,
00000100
00000000
00000001
00000000
00000000
00000000
00000001
00000000
00000000
00000010
00000000
00000000
,
00000100
00000100
00010000
00010000
,
00001000
00000000
00010000
00000000
00000000
00000000
01000000
00000000
00000000
00100000
00000000
00000000
,
10020000
00000000
01000000
00000000
,
00000100
00000000
01030000
00000000
,
00200000
00000000
01000000
00000000
,
10300000
00000000
00000000
00000000
00000000
00100000
00000000
00000000
00000000
00001000
00000000
00000000
,
00000100
00000000
00000000
00000010
00000000
00000000
00000100
00000000
00000000
00000001
00000000
00001000
,
00000000
00000000
00001000
00000100
00000000
00000000
00000010
00000000
00000000
00000100
00000000
00000000
,
00010000
00000000
00000000
00001000
00000000
00000000
00000100
00000000
00000000
00001000
00000000
00010000
,
00000000
00000000
00010000
01000000
00000000
00000000
10000000
00000000
00000000
10100000
00000000
00000000
,
01100000
01000000
00010000
01000000
,
00001000
00000000
00010000
00000000
00000000
00000000
00010000
00000000
00000000
00000100
00000000
00000000
,
00001000
00001000
00000001
00000001
,
00000010
00000000
00000100
00000000
00000000
00000000
00000100
00000000
00000000
00000000
00000000
00000000
,
00000010
00000000
00000000
00000001
00000000
00000000
00000100
00000000
00000100
00000010
00000000
00000000
,
00001000
00000000
00000100
00001000
00000000
00000000
00000010
00000000
00000000
00001000
00000000
00000000
,
00000100
00010000
00001000
00010000
,
00100000
00010000
00001000
00100000
,
02000000
00000000
00010000
00000000
,
00100000
00000000
13000000
00000000
,
00200000
00000000
00310000
00100000
,
10000000
00000000
00000000
00000000
00000000
00100000
00000000
00000000
00000000
00010000
00000000
00000000
,
00001000
00000000
00000000
00100000
00000000
00000000
00010000
00000000
00000000
10000000
00000000
00010000
,
00000000
00000000
00010000
10000000
00000000
00000000
01000000
00000000
00000000
00100000
00000000
00000000
,
00001000
00000000
00000000
00010000
00000000
00000000
00000010
00000000
00000000
00001000
00000000
00000001
,
00000000
00000000
00000001
00000010
00000000
00000000
00000100
00000000
00000000
00000000
00000000
00000000
,
00000210
00000000
00000000
00002300
,
00000000
00003002
00000000
00000103
,
00000010
00000100
00001000
00010000
,
00001000
00000100
00000001
00000010
,
00000200
00000000
00000001
00000000
,
00000310
00000000
00000001
00000000
,
00000100
00000000
00000000
00000000
00000000
00001000
00000000
00000000
00000000
00010000
00000000
00000000
,
01000000
10000000
10000000
00010000
,
01200000
00000000
00000000
20300000
,
00000000
31000000
00010000
01000000
,
00100000
00000000
00100000
00000000
,
01000000
00000000
00100000
00000000
00000000
00000000
00001000
00000000
00000000
00010000
00000000
00000000
,
00100000
01000000
10000000
01000000
,
00100000
00000000
10000000
00000000
00000000
00000000
00100000
00000000
00000000
01000000
00000000
00000000
,
00020000
00000000
00000000
00000000
00000000
10000000
00000000
00000000
00000000
00100000
00000000
00000000
,
00200000
00000000
00330000
00000000
,
10000000
00000000
00000000
01000000
00000000
00000000
00010000
00000000
00000000
00001000
00000000
01000000
,
00001000
00000000
00010000
00001000
00000000
00000000
00011000
00000000
00000000
00000000
00000000
00000000
,
00101000
00000000
01010000
00000000
,
10100000
00000000
00000000
00100000
,
10000000
00100000
00010000
00001000
,
00000010
00000000
00000100
00000000
00000000
00000100
00000000
00000000
00000000
00000000
00000000
00000000
,
00010100
00000000
00001010
00000000
,
00000101
00000000
00000000
00000001
,
00000001
00001000
00000001
00000100
,
00000010
00000000
00000100
00000000
00000000
00000100
00000000
00000000
00000000
00000000
00000000
00000000
,
00000011
00000000
00001100
00000000
,
00010010
00000000
00000000
00001000
,
00010000
00100000
00010000
00001000
,
00100000
00000000
01000000
00000000
00000000
01000000
00000000
00000000
00000000
00000000
00000000
00000000
,
10200000
00000000
02300000
00000000
,
03020000
00000000
10030000
00000000
,
10100000
01010000
00011000
00001100
,
00000110
00000000
00000001
00000010
,
00000100
00000000
00000000
00000010
00000001
00000100
00000010
00001000
,
00000100
00000000
00000010
00000000
00000000
00000100
00001000
00000000
00000000
00000000
00000000
00000000
00010100
00000000
00000000
00000000
00000000
00000000
00000000
00000000
00000000
00000000
00000000
00000000
,
00000000
00000000
00000000
00001000
,
00011000
00000000
01000000
00000000
01100000
00100000
10000000
00100000
,
01000000
00001000
00010000
00000100
00000010
00000100
00001000
00000001
,
00000100
00000000
00000010
00000000
00000000
00000100
00000001
00000000
00000000
00000000
00000000
00000000
00001000
00000000
00000000
00000000
00000000
00000000
00000000
00000000
00000000
00000000
00000000
00000000
,
00000000
00000000
00000011
00000001
,
00001010
00000000
00000000
00001000
00000000
00000000
00000001
00000000
00000001
00000010
00000000
00000010
,
00000100
00000000
00000100
00010000
00000000
00010000
00000010
00000000
00000000
00000000
00000000
00000000
;

//---------------dance-single - Telperion----------------
#NOTES:
     dance-single:
     Telperion:
     Medium:
     6:
     0.373,0.509,0.242,0.097,0.053,234.000,25.000,10.000,0.000,0.000,0.000,0.000,0.373,0.509,0.242,0.097,0.053,234.000,25.000,10.000,0.000,0.000,0.000,0.000:
0000
0000
0000
0000
,
0000
0000
0000
0000
,
0000
0000
0000
0000
,
1000
0001
1000
0001
,
0200
0000
0000
0000
,
0310
0010
1000
0000
,
0001
1000
0001
0000
,
0010
0010
0100
0000
,
0010
0001
0100
0000
,
0010
0010
1000
0000
,
0001
0100
0001
0000
,
0010
0100
0010
0001
,
1010
0000
0000
0000
,
0001
1000
0001
0001
,
1000
0001
1000
0000
,
1000
0001
1000
1000
,
0001
1000
1001
0000
,
0010
0100
0010
0010
,
0100
0010
0100
0000
,
0100
0010
0001
1000
,
0010
0100
0010
0000
,
0210
0000
0000
0000
,
0301
0000
1000
0000
,
0200
0000
0000
0000
,
0310
0000
0100
0000
,
1000
0000
0000
0001
0000
0000
0001
0000
0000
0000
0000
1000
,
0000
0001
1000
0000
,
0001
0000
0000
0001
0000
0000
1000
0000
0000
0000
0000
0001
,
0000
1000
0001
0000
,
0100
0010
0100
0100
,
0001
0100
0010
0000
,
1000
0100
0010
0100
,
1000
0001
0100
0000
,
0001
0001
1000
1000
,
0010
0010
0100
0000
,
0010
1000
0001
0010
,
0100
0010
0001
1000
,
0020
0000
0000
0000
,
0130
0000
0001
0000
,
0020
0000
0000
0000
,
0130
0000
1000
0000
,
0001
0000
0000
1000
0000
0000
0001
0000
0000
0000
0000
0001
,
0000
1000
0001
0000
,
1000
0000
0000
0001
0000
0000
1000
0000
0000
0000
0000
1000
,
0000
0001
1000
0001
,
0110
0000
0000
0010
,
0000
0100
0000
0000
,
1001
0000
0000
1000
,
0000
0001
0000
0000
,
0110
0000
0010
0000
,
1001
0000
1000
0000
,
0110
0000
0000
0000
0000
0100
0000
0000
0000
0100
0000
0000
,
0010
0100
1000
0000
,
1001
0000
0000
0010
,
0000
0100
0000
0000
,
0110
0000
0000
1000
,
0000
0001
0000
0000
,
0010
0001
0010
0001
,
1000
0001
1000
0001
,
0100
0010
0100
0010
,
0100
0010
0010
0000
,
1000
1000
1000
1000
,
0000
0000
0001
1000
0000
0000
1001
0000
0000
0000
0000
0000
,
0011
0000
0101
0000
,
1010
0000
0000
0010
,
1000
0010
0100
0001
,
0010
0000
0000
0000
0000
0010
0000
0000
0000
0000
0000
0000
,
0011
0000
0101
0000
,
1010
0000
0000
1000
,
1000
0010
0100
0001
,
0010
0000
0000
0000
0000
0010
0000
0000
0000
0000
0000
0000
,
1010
0000
1100
0000
,
0011
0000
0000
0001
,
0010
0100
1000
0100
,
0010
0000
0000
0000
0000
0010
0000
0000
0000
0000
0000
0000
,
0100
1000
0010
0000
,
0100
0001
0010
0000
,
0110
0100
0100
0100
,
1001
0000
0000
0000
0002
0003
0200
0300
,
0020
0030
0000
0100
0001
1000
0001
0000
,
1000
0000
0000
0000
0000
1000
0000
0000
0000
0000
0000
0000
0000
0000
0000
0000
0000
0000
0000
0000
0000
0000
0000
0000
,
0000
0000
0000
0000
,
0000
0000
0000
0000
0110
0010
0100
0001
,
1000
0000
0000
0100
0010
0100
1000
0001
,
0100
0000
0000
0000
0000
0100
0000
0000
0000
0000
0000
0000
0010
0000
0000
0000
0000
0000
0000
0000
0000
0000
0000
0000
,
0000
0000
1001
0001
,
1000
0001
0220
0000
,
0000
0000
0330
0000
;

//---------------dance-single - Telperion----------------
#NOTES:
     dance-single:
     Telperion:
     Easy:
     3:
     0.226,0.336,0.000,0.533,0.000,108.000,0.000,55.000,0.000,0.000,0.000,0.000,0.226,0.336,0.000,0.533,0.000,108.000,0.000,55.000,0.000,0.000,0.000,0.000:
0000
0000
0000
0000
,
0000
0000
0000
0000
,
0000
0000
0000
0000
,
1000
1000
1000
1000
,
0001
0000
0000
0000
,
0020
0000
0000
0000
,
0230
0000
0000
0000
,
2300
0000
0000
0000
,
3002
0000
0203
0000
,
0320
0000
0000
0000
,
0230
0000
0000
0000
,
0301
0001
0001
0001
,
1000
0000
0000
0000
,
0002
0000
0003
0000
,
2000
0000
3000
0000
,
0020
0000
0030
0000
,
0100
0000
0010
0000
,
2000
0000
3000
0000
,
0002
0000
0003
0000
,
0020
0000
0230
0000
,
0320
0000
0230
0000
,
2300
0000
0000
0000
,
0000
0000
0000
0000
,
3002
0000
0000
0000
,
0000
0000
0000
0000
,
0203
0000
0300
0000
,
0000
0000
0100
0000
,
0200
0000
0300
0000
,
0000
0000
0100
0000
,
0002
0000
0003
0000
,
2000
0000
3000
0000
,
0200
0000
0300
0000
,
0010
0000
0100
0000
,
2000
0000
3000
0000
,
0002
0000
0003
0000
,
0200
0000
0320
0000
,
0230
0000
0320
0000
,
2030
0000
0000
0000
,
0000
0000
0000
0000
,
3002
0000
0000
0000
,
0000
0000
0000
0000
,
0023
0000
0030
0000
,
0000
0000
0010
0000
,
0020
0000
0030
0000
,
0000
0000
0010
0000
,
0002
0000
0000
0000
,
0000
0000
0000
0000
,
2003
0000
0000
0000
,
0000
0000
0000
0000
,
3020
0000
0000
0000
,
0230
0000
0000
0000
,
0302
0000
0000
0000
,
0003
0000
0000
0000
,
2000
0000
0000
0000
,
0000
0000
0000
0000
,
3002
0000
0000
0000
,
0000
0000
0000
0000
,
0023
0000
0030
0000
,
0020
0000
0030
0000
,
0200
0000
0300
0000
,
0200
0000
0300
0000
,
1000
1000
1000
1000
,
0001
1000
0001
0000
,
0100
0000
0100
0000
,
0200
0000
0300
0000
,
0010
0000
0010
0000
,
1000
0000
0001
0000
,
0010
0000
0010
0000
,
0020
0000
0030
0000
,
0100
0000
0010
0000
,
0001
0000
1000
0000
,
0010
0000
0010
0000
,
0020
0000
0030
0000
,
0100
0000
0100
0000
,
0010
0000
0010
0000
,
0200
0000
0320
0000
,
2030
0000
3002
0000
,
1003
1000
1000
1000
,
0001
0000
0020
0000
,
0030
0000
0200
0000
,
0300
0000
0000
0000
,
0000
0000
0000
0000
,
0000
0000
2000
0000
,
3000
0000
0002
0000
,
0003
0000
0000
0000
,
0000
0000
0001
0001
,
0001
0001
1000
0000
;

//---------------dance-single - Telperion----------------
#NOTES:
     dance-single:
     Telperion:
     Beginner:
     1:
     0.065,0.170,0.068,0.000,0.000,40.000,7.000,0.000,0.000,0.000,0.000,0.000,0.065,0.170,0.068,0.000,0.000,40.000,7.000,0.000,0.000,0.000,0.000,0.000: // measure 1
0000
0000
0000
0000
,  // measure 2
0000
0000
0000
0000
,  // measure 3
0000
0000
0000
0000
,  // measure 4
0000
0000
0000
0000
,  // measure 5
0000
0000
0000
0000
,  // measure 6
1001
0000
0000
0000
,  // measure 7
0000
0000
0000
0000
,  // measure 8
0000
0000
0000
0000
,  // measure 9
0000
0000
0000
0000
,  // measure 10
0110
0000
0000
0000
,  // measure 11
0000
0000
0000
0000
,  // measure 12
0001
0000
1000
0000
,  // measure 13
0010
0000
0000
0000
,  // measure 14
0100
0000
0000
0000
,  // measure 15
0000
0000
0000
0000
,  // measure 16
0000
0000
0000
0000
,  // measure 17
0000
0000
0000
0000
,  // measure 18
0100
0000
0000
0000
,  // measure 19
0000
0000
0000
0000
,  // measure 20
0000
0000
0000
0000
,  // measure 21
0000
0000
0000
0000
,  // measure 22
0001
0000
0000
0000
,  // measure 23
0000
0000
0000
0000
,  // measure 24
1000
0000
0000
0000
,  // measure 25
0000
0000
0000
0000
,  // measure 26
0100
0000
0000
0000
,  // measure 27
0000
0000
0000
0000
,  // measure 28
0000
0000
0000
0000
,  // measure 29
0000
0000
0000
0000
,  // measure 30
0010
0000
0000
0000
,  // measure 31
0000
0000
0000
0000
,  // measure 32
0000
0000
0000
0000
,  // measure 33
0000
0000
0000
0000
,  // measure 34
0010
0000
0000
0000
,  // measure 35
0000
0000
0000
0000
,  // measure 36
0000
0000
0000
0000
,  // measure 37
0000
0000
0000
0000
,  // measure 38
0100
0000
0000
0000
,  // measure 39
0000
0000
0000
0000
,  // measure 40
1000
0000
0000
0000
,  // measure 41
0000
0000
0000
0000
,  // measure 42
0001
0000
0000
0000
,  // measure 43
0000
0000
0000
0000
,  // measure 44
0001
0000
0000
0000
,  // measure 45
1000
0000
0000
0000
,  // measure 46
0010
0000
0000
0000
,  // measure 47
0000
0000
0000
0000
,  // measure 48
0010
0000
0000
0000
,  // measure 49
0000
0000
0000
0000
,  // measure 50
0100
0000
0000
0000
,  // measure 51
0100
0000
0000
0000
,  // measure 52
0100
0000
0000
0000
,  // measure 53
0000
0000
0000
0000
,  // measure 54
0001
0000
0000
0000
,  // measure 55
0000
0000
0000
0000
,  // measure 56
1000
0000
0000
0000
,  // measure 57
0000
0000
0000
0000
,  // measure 58
0100
0000
0000
0000
,  // measure 59
0100
0000
0000
0000
,  // measure 60
0010
0000
0000
0000
,  // measure 61
0010
0000
0000
0000
,  // measure 62
0010
0000
0000
0000
,  // measure 63
0000
0000
0000
0000
,  // measure 64
0110
0000
0000
0000
,  // measure 65
0000
0000
0000
0000
,  // measure 66
0000
0000
0000
0000
,  // measure 67
0000
0000
0000
0000
,  // measure 68
1001
0000
0000
0000
,  // measure 69
0000
0000
0000
0000
,  // measure 70
0000
0000
0000
0000
,  // measure 71
0000
0000
0000
0000
,  // measure 72
0110
0000
0000
0000
,  // measure 73
0000
0000
0000
0000
,  // measure 74
0000
0000
0000
0000
,  // measure 75
0000
0000
0000
0000
,  // measure 76
1001
0000
0000
0000
,  // measure 77
0000
0000
0000
0000
,  // measure 78
0100
0000
0100
0000
,  // measure 79
0100
0000
0000
0000
,  // measure 80
0000
0000
0000
0000
,  // measure 81
0000
0000
0000
0000
,  // measure 82
0000
0000
0000
0000
,  // measure 83
0000
0000
0000
0000
,  // measure 84
0000
0000
0000
0000
,  // measure 85
0000
0000
0000
0000
,  // measure 86
0000
0000
0010
0000
,  // measure 87
0010
0000
0010
0000
,  // measure 88
0000
0000
1001
0000
;
