#TITLE:西新宿清掃曲;
#SUBTITLE:;
#ARTIST:サイモンマン;
#TITLETRANSLIT:NISHI SHINJUKU SEISOU KYOKU;
#SUBTITLETRANSLIT:;
#ARTISTTRANSLIT:SIMONMAN;
#CREDIT:DMAxel;
#BANNER:NISHI SHINJUKU SEISOU KYOKU.png;
#BACKGROUND:NISHI SHINJUKU SEISOU KYOKU-bg.png;
#LYRICSPATH:;
#CDTITLE:pop'n music.png;
#MUSIC:NISHI SHINJUKU SEISOU KYOKU.mp3;
#OFFSET:-9.740;
#SAMPLESTART:37.160;
#SAMPLELENGTH:12.000;
#SELECTABLE:YES;
#DISPLAYBPM:140.000:280.000;
#BPMS:0.000=140.000,13.000=122.500,14.000=105.000,15.000=87.500,16.000=70.000,17.000=140.000,116.000=280.000,170.000=245.000,171.000=210.000,172.000=175.000,173.000=140.000;
#STOPS:17.000=2.534
;
#BGCHANGES:;

//---------------dance-single - ----------------
#NOTES:
     dance-single:
     :
     Easy:
     3:
     0.243,0.368,0.306,0.057,0.000: // measure 1
1000
1001
0001
1001
,  // measure 2
1000
1001
0001
1001
,  // measure 3
0010
0010
0010
0010
,  // measure 4
0110
0000
0000
0000
,  // measure 5
0000
0000
0000
0000
,  // measure 6
0000
0000
0000
0000
,  // measure 7
1000
0000
0001
0100
,  // measure 8
0001
0000
1000
0100
,  // measure 9
1000
0000
0001
0010
,  // measure 10
0001
0000
0100
0010
,  // measure 11
0100
0000
0010
1000
,  // measure 12
0010
0000
0100
0001
,  // measure 13
0010
0000
0010
0000
,  // measure 14
0010
0010
0010
0010
,  // measure 15
0001
1000
0010
0000
,  // measure 16
1000
0001
0100
0000
,  // measure 17
0010
0100
0010
0000
,  // measure 18
1000
0001
1000
0000
,  // measure 19
0010
1000
0010
0000
,  // measure 20
0100
0001
0100
0000
,  // measure 21
0010
0100
0010
0100
,  // measure 22
0001
1000
0001
1000
,  // measure 23
0002
0000
0000
0103
,  // measure 24
0200
0000
0000
0310
,  // measure 25
0020
0000
0000
1030
,  // measure 26
2000
0000
0000
3001
,  // measure 27
1000
1001
0000
0110
,  // measure 28
0000
1001
0000
0110
,  // measure 29
1001
1001
1001
1001
,  // measure 30
2002
0000
0000
0000
,  // measure 31
0000
0000
0000
0000
,  // measure 32
0000
0000
0000
0000
,  // measure 33
0000
0000
0000
0000
,  // measure 34
0000
0000
0000
0000
,  // measure 35
0000
0000
0000
0000
,  // measure 36
0000
0000
0000
0000
,  // measure 37
0000
0000
0000
0000
,  // measure 38
0000
0000
0000
0000
,  // measure 39
0000
0000
0000
0000
,  // measure 40
0000
0000
0000
0000
,  // measure 41
0000
0000
0000
0000
,  // measure 42
3003
0000
0000
0000
,  // measure 43
0000
1001
0000
0000
,  // measure 44
0000
0000
0000
0000
,  // measure 45
0000
0000
1000
1000
,  // measure 46
1000
0001
0100
0001
,  // measure 47
0001
1000
0100
1000
,  // measure 48
0001
0100
0001
0001
,  // measure 49
1000
0100
1000
1000
,  // measure 50
0001
0010
0011
0001
,  // measure 51
1000
1010
1001
0000
,  // measure 52
0110
0000
1001
1000
,  // measure 53
1000
1001
0010
0100
,  // measure 54
0110
1000
0001
1001
,  // measure 55
0010
0100
0010
0110
,  // measure 56
0001
1000
1001
0100
,  // measure 57
0010
0100
0110
1000
,  // measure 58
0001
1001
0100
0101
,  // measure 59
0010
1010
0110
0110
,  // measure 60
1001
0001
0000
0000
;

//---------------dance-single - ----------------
#NOTES:
     dance-single:
     :
     Medium:
     5:
     0.382,0.424,0.573,0.096,0.000: // measure 1
0010
1001
0010
1001
,  // measure 2
0100
1001
0100
1001
,  // measure 3
0101
1100
0101
1100
,  // measure 4
2002
0000
0000
0000
,  // measure 5
0000
3003
0000
0000
,  // measure 6
0010
0100
0010
0000
0010
0000
0010
0000
,  // measure 7
1000
0001
1000
0000
0100
0000
0110
0000
,  // measure 8
1000
0001
1000
0000
0100
0000
0110
0000
,  // measure 9
0001
1000
0001
0000
0010
0000
0110
0000
,  // measure 10
0001
1000
0001
0000
0010
0000
0110
0000
,  // measure 11
1000
0001
1000
0000
0010
0000
0110
0000
,  // measure 12
1000
0001
1000
0000
0010
0000
0110
0000
,  // measure 13
0001
1001
1000
1001
,  // measure 14
0110
0110
1001
1001
,  // measure 15
0100
1000
0001
0000
0001
0100
0001
0000
,  // measure 16
0100
0001
1000
0000
1000
0010
1000
0000
,  // measure 17
0100
1000
0001
0000
0001
0010
0001
0000
,  // measure 18
0010
0001
1000
0000
1000
0100
1000
0000
,  // measure 19
0010
1000
0010
0000
1000
0000
1001
0000
,  // measure 20
0100
0001
0100
0000
0001
0000
1001
0000
,  // measure 21
0100
1100
0010
0011
,  // measure 22
0100
0110
0001
1001
,  // measure 23
0100
0010
0200
0000
0001
0000
0301
0000
,  // measure 24
0010
0100
0020
0000
1000
0000
1030
0000
,  // measure 25
0100
0010
0200
0000
0001
0000
0301
0000
,  // measure 26
0010
0100
0020
0000
1000
0000
1030
0000
,  // measure 27
0001
1001
1000
0110
,  // measure 28
0001
1001
0001
0110
,  // measure 29
1001
1001
1001
1001
,  // measure 30
0020
0000
0000
0000
,  // measure 31
0000
0000
0000
0000
,  // measure 32
0230
0000
0000
0000
,  // measure 33
0000
0000
0000
0000
,  // measure 34
0000
0000
0000
0000
,  // measure 35
0000
0000
0000
0000
,  // measure 36
0320
0000
0000
0000
,  // measure 37
0000
0000
0000
0000
,  // measure 38
0230
0000
0000
0000
,  // measure 39
0000
0000
0000
0000
,  // measure 40
0000
0000
0000
0000
,  // measure 41
0000
0000
0000
0000
,  // measure 42
0300
0000
0000
0000
,  // measure 43
0000
1001
0000
0000
,  // measure 44
0000
0000
0000
0000
,  // measure 45
0000
0000
1001
1001
,  // measure 46
1001
0000
0100
1000
0010
0000
1000
0001
,  // measure 47
1000
0000
0010
0100
0001
0000
0011
0000
,  // measure 48
0010
0001
0100
0000
0001
1000
0001
0000
,  // measure 49
0100
0010
1000
0000
1100
0000
0010
0001
,  // measure 50
1000
0000
0010
0100
0010
0000
0100
0001
,  // measure 51
1000
1100
1001
0001
,  // measure 52
0110
1000
1010
1010
,  // measure 53
0101
0000
1001
0000
0001
0010
0100
0000
,  // measure 54
1010
0000
1000
0100
0010
0000
0101
0000
,  // measure 55
1000
0000
1000
0100
0010
0000
0101
0000
,  // measure 56
0001
0010
0100
0000
1010
0000
0001
0000
,  // measure 57
0001
0100
0010
0000
1100
0000
1000
0010
,  // measure 58
0100
0011
1000
0101
,  // measure 59
0001
1010
0110
1001
,  // measure 60
0110
1001
0000
0000
;

//---------------dance-single - ----------------
#NOTES:
     dance-single:
     :
     Beginner:
     1:
     0.060,0.085,0.019,0.000,0.000: // measure 1
1000
0000
0000
0000
,  // measure 2
1000
0000
0000
0000
,  // measure 3
0001
0000
0000
0000
,  // measure 4
1001
0000
0000
0000
,  // measure 5
0000
0000
0000
0000
,  // measure 6
0000
0000
0000
0000
,  // measure 7
0001
0000
0000
0000
,  // measure 8
1000
0000
0000
0000
,  // measure 9
0001
0000
0000
0000
,  // measure 10
1000
0000
0000
0000
,  // measure 11
0001
0000
0000
0000
,  // measure 12
0100
0000
0000
0000
,  // measure 13
0010
0000
0000
0000
,  // measure 14
0010
0000
0000
0000
,  // measure 15
0010
0000
0000
0000
,  // measure 16
1000
0000
0000
0000
,  // measure 17
0010
0000
0000
0000
,  // measure 18
1000
0000
0000
0000
,  // measure 19
0001
0000
0000
0000
,  // measure 20
1000
0000
0000
0000
,  // measure 21
0001
0000
0000
0000
,  // measure 22
0001
0000
0000
0000
,  // measure 23
1000
0000
0000
0000
,  // measure 24
0000
0000
0000
0000
,  // measure 25
1000
0000
0000
0000
,  // measure 26
0000
0000
0000
0000
,  // measure 27
0001
0000
0000
0000
,  // measure 28
0000
0000
0000
0000
,  // measure 29
0001
0000
0000
0000
,  // measure 30
1000
0000
0000
0000
,  // measure 31
0000
0000
0000
0000
,  // measure 32
0000
0000
0000
0000
,  // measure 33
0000
0000
0000
0000
,  // measure 34
0000
0000
0000
0000
,  // measure 35
0000
0000
0000
0000
,  // measure 36
0000
0000
0000
0000
,  // measure 37
0000
0000
0000
0000
,  // measure 38
0000
0000
0000
0000
,  // measure 39
0000
0000
0000
0000
,  // measure 40
0000
0000
0000
0000
,  // measure 41
0000
0000
0000
0000
,  // measure 42
0000
0000
0000
0000
,  // measure 43
0000
0000
0000
0000
,  // measure 44
0000
0000
0000
0000
,  // measure 45
0000
0000
0000
0000
,  // measure 46
0001
0000
0000
0000
,  // measure 47
0001
0000
0000
0000
,  // measure 48
1000
0000
0000
0000
,  // measure 49
0001
0000
0000
0100
,  // measure 50
0000
0000
0000
0100
,  // measure 51
0000
0000
0010
0000
,  // measure 52
0000
0000
0010
0000
,  // measure 53
0000
0000
1000
0000
,  // measure 54
0000
0001
0000
0000
,  // measure 55
1000
0000
0000
0000
,  // measure 56
0001
0000
0000
1000
,  // measure 57
0000
0000
0000
0001
,  // measure 58
0000
0000
1000
0000
,  // measure 59
0000
0000
1000
0000
,  // measure 60
0000
1001
0000
0000
;

//---------------dance-single - ----------------
#NOTES:
     dance-single:
     :
     Hard:
     7:
     0.490,0.509,0.516,0.076,0.115: // measure 1
0101
1000
1100
0001
,  // measure 2
1100
0001
0101
1000
,  // measure 3
0110
1001
0110
1001
,  // measure 4
0220
0000
0000
0000
,  // measure 5
0000
0330
0000
0000
,  // measure 6
0100
0000
0100
0000
0100
0000
0000
0000
0001
0000
0000
1000
0001
0000
0001
0000
,  // measure 7
1000
0100
0010
0000
0001
0100
0110
0000
,  // measure 8
1000
0000
0100
0000
0010
0000
0000
0000
0001
0000
0000
0001
1000
0000
0000
0000
,  // measure 9
0100
1000
0001
0000
0100
0001
0101
0000
,  // measure 10
0100
0001
1000
0000
0100
1000
1100
0000
,  // measure 11
1000
0100
0001
0000
0100
1000
0001
0000
,  // measure 12
1000
0000
0100
0000
0001
0000
0000
0000
0100
0000
0000
1000
0001
0000
0000
0000
,  // measure 13
1000
0001
0011
0000
1000
0001
0011
0000
,  // measure 14
1100
1100
1001
1001
,  // measure 15
0100
0000
0000
0010
0000
0000
1000
0000
1000
0000
0001
0000
0100
0000
0000
0000
,  // measure 16
0010
0000
0000
0100
0000
0000
0001
0000
0001
0000
1000
0000
0010
0000
0000
0000
,  // measure 17
0100
0000
0000
0010
0000
0000
1000
0000
0001
0000
0100
0000
1100
0000
0000
0000
,  // measure 18
0010
0000
0000
0100
0000
0000
0001
0000
1000
0000
0100
0000
0101
0000
0000
0000
,  // measure 19
0010
0000
0000
0100
0000
0000
0001
0000
1000
0000
0100
0000
0101
0000
0000
0000
,  // measure 20
0100
0000
0000
0010
0000
0000
1000
0000
0001
0000
0100
0000
1100
0000
0000
0000
,  // measure 21
1001
1100
1001
1100
,  // measure 22
0101
0000
0110
0000
1001
0001
1000
0000
,  // measure 23
0100
0000
1000
0000
0001
0000
0000
0000
0001
0000
0000
0001
1000
0000
0100
0000
,  // measure 24
0010
0000
0100
0000
1000
0000
0000
0000
1000
0000
0000
1000
0001
0000
0010
0000
,  // measure 25
0100
0000
0010
0000
0001
0000
0000
0000
0001
0000
0000
0001
1000
0000
0100
0000
,  // measure 26
0010
0000
0001
0000
1000
0000
0000
0000
1000
0000
0000
1000
0001
0000
0000
0000
,  // measure 27
0011
1001
1100
1001
,  // measure 28
0011
1001
1100
1001
,  // measure 29
0110
1001
0110
1001
,  // measure 30
1000
0001
1000
0001
,  // measure 31
1000
0100
0010
0001
,  // measure 32
1000
0100
0010
0001
,  // measure 33
1000
0100
1000
0100
,  // measure 34
1000
0010
0100
0001
,  // measure 35
1000
0010
0100
0001
,  // measure 36
0010
0001
0010
0001
,  // measure 37
0010
0100
1000
0001
,  // measure 38
0010
0100
1000
0001
,  // measure 39
1000
0001
1000
0010
,  // measure 40
0100
0001
1000
0010
,  // measure 41
0100
0001
0100
0010
,  // measure 42
0100
0010
0100
0001
,  // measure 43
1000
2002
0000
0000
,  // measure 44
0000
0000
0000
0000
,  // measure 45
0000
3003
1001
1001
,  // measure 46
1001
0000
0001
1000
0100
0000
1000
0100
,  // measure 47
0001
0000
0000
0000
0100
0000
1000
0000
0001
0000
0000
0100
0010
0000
0000
0000
,  // measure 48
1000
0001
0100
0000
0001
0100
1100
0000
,  // measure 49
0010
0001
1000
0010
0110
0000
1000
0001
,  // measure 50
0100
0000
0001
0100
1000
0000
0100
0001
,  // measure 51
1000
0000
0000
0010
0100
0000
0000
0000
0001
0000
1000
0000
1100
0000
0000
0000
,  // measure 52
0001
1000
1100
0000
0011
0000
0110
0000
,  // measure 53
1100
0000
0000
0000
1002
0000
0000
1000
0000
0000
1003
0000
0100
0000
0010
0000
,  // measure 54
0100
0000
0000
0000
1000
0000
0000
0100
0000
0000
0001
0000
0100
0000
0010
0000
,  // measure 55
0002
0000
0000
1000
0000
0000
1003
0000
0100
0000
0010
0000
0100
0000
0000
0000
,  // measure 56
1000
0000
0000
0100
0000
0000
0001
0000
0100
0000
0010
0000
0002
0000
0000
1000
,  // measure 57
0000
0000
1003
0000
0010
0000
0100
0000
0001
0000
0000
0000
0020
0000
0000
0100
,  // measure 58
0000
0000
0130
0000
1000
0000
0100
0000
0010
0000
0000
0001
1000
0000
0001
0000
,  // measure 59
0010
0000
0000
0100
1000
0000
0001
0000
0100
0000
0000
0010
1000
0000
0001
0000
,  // measure 60
0010
0100
0110
0000
0000
0000
0000
0000
;
