#TITLE:Lord Of The Thunder;
#SUBTITLE:;
#ARTIST:Rhapsody;
#TITLETRANSLIT:;
#SUBTITLETRANSLIT:;
#ARTISTTRANSLIT:;
#CREDIT:;
#BANNER:bn.PNG;
#BACKGROUND:bg.PNG;
#LYRICSPATH:;
#CDTITLE:;
#MUSIC:Lord Of The Thunder.ogg;
#OFFSET:-0.060;
#SAMPLESTART:51.140;
#SAMPLELENGTH:15.620;
#SELECTABLE:YES;
#BPMS:0.000=190.000;
#STOPS:;
#BGCHANGES:;

//---------------dance-single - ----------------
#NOTES:
     dance-single:
     :
     Hard:
     8:
     0.621,0.600,0.397,0.320,0.182: // measure 1
0000
0000
0000
0000
,  // measure 2
0000
0000
0000
0000
,  // measure 3
0000
0000
0000
0000
,  // measure 4
0000
0000
0000
0000
,  // measure 5
1000
0000
0100
0010
0001
0010
0100
1000
,  // measure 6
0010
0000
0100
0001
0100
0010
1000
0001
,  // measure 7
1000
0000
0001
0000
,  // measure 8
2002
0000
0000
0000
0000
0000
0000
3003
,  // measure 9
0001
0000
0000
0010
0000
0000
0100
0000
1000
0000
0000
0000
0010
0000
0000
0000
,  // measure 10
1000
0000
0000
0001
0000
0000
0010
0000
0001
0000
0000
0100
0000
0000
0000
0000
,  // measure 11
0010
0000
0000
1000
0000
0000
0100
0000
0010
0000
0000
0001
0000
0000
1000
0000
,  // measure 12
0010
0000
1000
0000
0100
0000
0001
0000
0100
0000
0000
1000
0000
0000
0010
0000
,  // measure 13
0100
0000
0000
0001
0000
0000
0010
0000
0001
0000
0000
0100
0000
0000
0000
0000
,  // measure 14
0010
0000
0000
1000
0000
0000
0100
0000
0010
0000
0000
0001
0000
0000
0000
0000
,  // measure 15
0011
0110
1100
1010
,  // measure 16
0010
0000
0100
0000
0001
0000
1000
0000
0001
0000
0000
0010
0000
0000
0001
0000
,  // measure 17
1000
0000
0000
0100
0000
0000
1000
0000
0010
0000
0000
0000
0100
0000
0000
0000
,  // measure 18
0001
0000
0000
0010
0000
0000
0001
0000
0100
0000
0000
0000
0010
0000
0000
0000
,  // measure 19
1000
0000
0000
0001
0000
0000
0010
0000
0001
0000
0000
1000
0000
0000
0010
0000
,  // measure 20
1000
0000
0100
0000
0010
0000
0001
0000
0100
0000
0000
0001
0000
0000
0100
0000
,  // measure 21
0010
0000
0000
1000
0000
0000
0100
0000
0010
0000
0000
0001
0000
0000
1000
0000
,  // measure 22
0100
0000
0000
0001
0000
0000
0100
0000
0010
0000
0000
0100
0000
0000
0000
0000
,  // measure 23
0110
1100
1010
0110
,  // measure 24
0100
0000
0001
0000
0010
0000
1000
0000
0010
0000
0000
0001
0000
0000
0100
0000
,  // measure 25
0020
0000
2030
0000
3002
0000
0000
0003
,  // measure 26
0020
0000
0000
0130
2000
0000
3001
0000
,  // measure 27
1001
1000
1010
0010
,  // measure 28
0110
0100
0101
0001
,  // measure 29
0010
0001
0100
0010
1000
0100
0001
0000
,  // measure 30
0100
1000
0010
0001
0010
1000
0100
0000
,  // measure 31
0110
0010
0011
0001
,  // measure 32
0101
0100
0110
0010
,  // measure 33
1000
0100
0010
0001
0100
0010
1000
0000
,  // measure 34
0001
0010
0001
0100
0010
1000
0100
0000
,  // measure 35
0010
0000
0001
0000
0100
0000
0010
0000
1000
0000
0100
0000
,  // measure 36
0010
0000
0000
0002
0000
0000
1000
0000
1000
0000
1003
0000
,  // measure 37
0001
0000
0010
0000
0100
0000
1000
0000
0010
0000
0100
0000
,  // measure 38
0001
0000
0000
0000
0011
0000
0000
0000
0010
0000
0000
0100
0000
0000
1000
0000
,  // measure 39
0010
0000
0000
0000
1010
0000
0000
0000
0010
0000
0000
0100
0000
0000
0001
0000
,  // measure 40
0010
1100
2000
3020
,  // measure 41
0230
0000
0302
0003
1001
0000
0010
0100
,  // measure 42
2000
0000
3020
0000
1030
0000
0001
0010
,  // measure 43
0002
0000
0103
0000
0110
0000
0010
1000
,  // measure 44
0200
0310
0002
2003
,  // measure 45
3020
0000
1030
0000
1001
0000
0001
0010
,  // measure 46
2000
0000
3010
0000
0001
0000
0100
0010
,  // measure 47
2000
0000
3010
0000
0110
0000
0100
0001
,  // measure 48
0020
0130
1100
1000
,  // measure 49
1010
0000
0110
0000
0010
0100
0001
0010
,  // measure 50
1000
0010
0001
0100
0010
0000
1000
0001
,  // measure 51
0020
0000
0031
0000
0100
0000
0010
1000
,  // measure 52
0200
0000
0310
0000
0011
0000
0001
0100
,  // measure 53
0020
1030
1001
0011
,  // measure 54
0110
0000
0100
0000
1100
0000
1000
0010
,  // measure 55
0002
0000
0013
0000
1000
0000
0100
0001
,  // measure 56
0200
0000
1300
0000
1100
0000
1000
0010
,  // measure 57
0100
0001
0011
0010
,  // measure 58
0110
0000
1100
0000
1000
0010
0100
0001
,  // measure 59
0010
0001
0100
0010
1000
0000
0100
0010
,  // measure 60
0001
0010
0100
1000
0100
0000
0010
0000
,  // measure 61
0001
0000
0100
0000
0010
1000
0010
0100
,  // measure 62
0001
0100
0010
0000
1000
0000
0001
0010
,  // measure 63
0001
0010
0100
0000
1000
0010
1000
0001
,  // measure 64
0100
0001
1000
0000
0010
0000
0100
0000
,  // measure 65
0001
0000
0010
0100
1000
0100
0010
0001
,  // measure 66
0100
0000
0010
0000
1000
0001
0100
0020
,  // measure 67
0200
0000
0000
0000
,  // measure 68
0000
0000
0000
0000
,  // measure 69
0330
0000
0000
0000
;

//---------------dance-single - ----------------
#NOTES:
     dance-single:
     :
     Beginner:
     2:
     0.134,0.218,0.011,0.000,0.000:
0000
0000
0000
0000
,
0000
0000
0000
0000
,
0000
0000
0000
0000
,
0000
0000
0000
0000
,
1000
0000
0000
0000
,
0001
0000
0000
0000
,
0010
0000
0010
0000
,
0010
0000
0000
0000
,
0100
0000
0000
0000
,
1000
0000
0000
0000
,
0010
0000
0000
0000
,
1000
0000
1000
0000
,
1000
0000
0000
0000
,
0001
0000
0000
0000
,
0010
0000
0000
0000
,
0001
0000
0001
0000
,
0001
0000
0000
0000
,
0100
0000
0000
0000
,
0010
0000
0000
0000
,
1000
0000
1000
0000
,
1000
0000
0000
0000
,
0100
0000
0000
0000
,
0010
0000
0000
0000
,
0001
0000
0001
0000
,
0001
0000
0000
0000
,
1000
0000
0000
0000
,
0010
0000
0010
0000
,
0010
0000
0010
0000
,
0010
0000
0000
0000
,
0100
0000
0000
0000
,
0001
0000
0001
0000
,
0001
0000
0001
0000
,
0001
0000
0000
0000
,
1000
0000
0000
0000
,
0010
0000
0010
0000
,
0010
0000
0000
0000
,
0100
0000
0100
0000
,
0100
0000
0000
0000
,
0001
0000
0000
0000
,
1000
0000
1000
0000
,
0001
0000
0001
0000
,
0000
0000
1000
0000
,
0000
0000
0010
0000
,
0000
0000
0100
0000
,
0000
0000
0001
0000
,
0000
0000
0010
0000
,
0000
0000
0100
0000
,
0000
0000
1000
0000
,
1000
0000
1000
0000
,
0000
0000
0010
0000
,
0000
0000
0100
0000
,
0000
0000
0001
0000
,
0000
0000
0010
0000
,
0010
0000
0010
0000
,
0000
0000
0100
0000
,
0000
0000
1000
0000
,
0000
0000
0010
0000
,
0010
0000
0010
0000
,
0000
0000
0100
0000
,
0100
0000
0100
0000
,
0000
0001
0000
0001
,
0000
0001
0000
0000
,
0000
0010
0000
0010
,
0000
0010
0000
0000
,
0100
0000
0100
0000
,
0100
0000
0100
0000
,
0110
0000
0000
0000
;

//---------------dance-single - ----------------
#NOTES:
     dance-single:
     :
     Easy:
     5:
     0.306,0.328,0.022,0.000,0.000:
0000
0000
0000
0000
,
0000
0000
0000
0000
,
0000
0000
0000
0000
,
0000
0000
0000
0000
,
1000
0000
0001
0010
,
0001
0000
1000
0010
,
1000
0000
0001
0000
,
1001
0000
0000
0000
,
1000
0100
1000
0000
,
0001
0100
0001
0000
,
1000
0010
1000
0001
,
0010
0000
0001
0000
,
0100
0001
0100
0000
,
0010
1000
0010
0000
,
1000
0100
1000
0001
,
0010
0000
0001
0000
,
0100
0010
0100
0000
,
0010
1000
0010
0000
,
1000
0100
1000
0001
,
0010
0000
0001
0000
,
0100
0010
0100
0000
,
0010
1000
0010
0000
,
1000
0001
0010
0001
,
0100
0000
0010
0000
,
1000
0100
1000
0000
,
0001
0100
0001
0000
,
1000
0000
0001
0000
,
0010
0000
0001
0000
,
0100
0010
0100
0010
,
1000
0010
1000
0010
,
1000
0000
0100
0000
,
0010
0000
0001
0000
,
1000
0010
1000
0010
,
0100
0001
0100
0001
,
0010
0000
0100
0000
,
1000
1000
0000
0000
,
0010
0000
0100
0001
,
0100
0000
0010
0000
,
1000
0000
0100
0000
,
0010
0000
0001
1000
,
0010
1000
0001
0010
,
0001
0100
0010
1000
,
0100
0000
0010
0001
,
1000
0100
1000
0001
,
0010
0000
0001
0100
,
0010
1000
0100
0010
,
0001
0000
1000
0010
,
1000
0001
0010
0000
,
0001
0100
0001
0000
,
0100
0000
0010
1000
,
0100
1000
0010
0100
,
0001
0010
0001
0100
,
0010
1000
0001
0010
,
0001
1000
0010
1000
,
0100
1000
0001
0100
,
0001
0010
0001
0100
,
0010
1000
0100
0010
,
0001
1000
0010
1000
,
0001
0010
0001
0000
,
0100
0000
0010
1000
,
0100
1000
0000
0010
,
0000
0100
0001
0010
,
0100
1000
0000
0010
,
0000
1000
0001
0010
,
0001
0000
0100
0000
,
0010
1000
0100
0010
,
1001
0000
0000
0000
;

//---------------dance-single - ----------------
#NOTES:
     dance-single:
     :
     Medium:
     7:
     0.504,0.563,0.066,0.298,0.000:
0000
0000
0000
0000
,
0000
0000
0000
0000
,
0000
0000
0000
0000
,
0000
0000
0000
0000
,
1000
0000
0001
0000
0010
0001
0010
0000
,
0001
0000
0100
0000
0010
0100
0010
0000
,
1000
0000
0001
0000
,
2002
0000
0000
3003
,
1000
0000
0100
1000
0100
0000
0010
0000
,
0001
0000
0100
0001
0100
0000
0010
0000
,
1000
0000
0001
1000
0001
0000
1000
0000
,
0010
1000
0010
0000
0100
0000
0100
0000
,
0001
0000
0010
0001
0010
0000
0001
0000
,
0100
0000
0010
1000
0010
0000
0100
0000
,
0002
2003
3020
2030
,
3200
0000
0310
0000
0001
0000
0100
0001
,
0100
0000
0010
1000
0010
0000
1000
0000
,
0100
0000
0010
0100
0010
0000
0001
0000
,
0010
0000
0100
1000
0100
0000
0010
0000
,
0001
1000
0001
0000
1000
0000
1000
0000
,
0010
0000
0100
0001
0100
0000
0010
1000
,
0010
0000
1000
0100
1000
0000
0100
0000
,
0020
0032
2003
3020
,
1030
0001
1000
0000
0001
0000
0010
0001
,
0010
0100
1000
0000
,
0020
0000
0030
0100
0001
0000
0010
0000
,
0002
0003
2000
3000
,
0020
0030
0200
0300
,
0001
0000
0010
0001
0000
0010
0001
0000
,
1000
0000
0010
1000
0000
0010
1000
0000
,
0020
0030
0200
0300
,
0002
0003
2000
3000
,
0010
0000
1000
0100
0000
1000
0100
0000
,
0010
0000
0001
0100
0000
0001
0100
0000
,
0010
1000
0100
0010
,
0001
1000
0010
0010
,
1000
0100
0001
0100
,
1000
0000
0010
0000
0100
0000
0001
0100
,
0001
0000
0100
0000
0010
0000
1000
0010
,
1000
0010
0101
0011
,
0110
0000
1100
0000
1000
0000
0010
1000
,
0010
0000
0100
0000
0001
0000
0010
0001
,
0010
0000
0001
0000
0100
0000
0010
1000
,
0010
1000
0200
0320
,
0032
0000
2003
0000
3010
0000
1000
0010
,
1000
0000
0010
0000
0100
0000
0001
0010
,
0001
0000
0100
0000
0010
0000
1000
0001
,
1000
0010
2000
3100
,
0010
0000
0001
0000
1000
0010
1000
0001
,
0100
0001
0010
0001
0100
0000
0010
1000
,
0010
0000
0100
0000
0001
0000
0010
0001
,
0010
0000
0001
0000
0100
0000
0010
1000
,
0010
1000
0100
0001
,
0100
0000
1000
0000
0010
0000
0001
0010
,
0001
0000
0010
0000
1000
0000
0100
0010
,
0100
0000
0010
0000
0001
0000
1000
0001
,
1000
0010
1000
0100
,
0001
0000
0100
0000
1000
0010
1000
0001
,
0100
0001
0010
0001
0100
0000
0010
0000
,
1000
0100
0000
0010
0001
0000
1000
0000
,
0010
0000
1000
0000
0001
0000
0010
0001
,
0000
0100
0010
0000
1000
0000
0100
0000
,
0001
0000
0100
0000
1000
0000
0010
0001
,
0000
0010
1000
0000
0010
0000
0100
0000
,
0001
0000
0010
0000
0100
1000
0000
0100
,
0010
0001
0010
0100
1000
0010
0100
0001
,
2002
0000
0000
0000
,
0000
0000
0000
0000
,
3003
0000
0000
0000
;
