#TITLE:La Isla Bonita;
#SUBTITLE:;
#ARTIST:Madonna;
#TITLETRANSLIT:;
#SUBTITLETRANSLIT:;
#ARTISTTRANSLIT:;
#CREDIT:;
#BANNER:;
#BACKGROUND:;
#LYRICSPATH:;
#CDTITLE:;
#MUSIC:laislabonita.ogg;
#OFFSET:-0.260;
#SAMPLESTART:38.600;
#SAMPLELENGTH:12.000;
#SELECTABLE:YES;
#BPMS:0.000=100.040;
#STOPS:;
#BGCHANGES:;

//---------------dance-single - ----------------
#NOTES:
     dance-single:
     :
     Beginner:
     1:
     0.152,0.181,0.043,0.288,0.000:
0000
0000
0000
0000
,
0000
0000
0000
0000
,
1000
0000
0000
0001
,
0001
0000
0000
0000
,
0100
0000
0000
0010
,
0010
0000
0000
0000
,
0001
0000
0000
1000
,
1000
0000
0000
0000
,
1000
0000
0001
0000
,
0100
0000
0000
0000
,
0020
0030
2000
3000
,
0002
0003
0200
0300
,
0010
0000
1000
0000
,
0001
0000
0000
0000
,
0200
0300
0002
0003
,
2000
3000
0020
0030
,
0100
0100
0100
0000
,
0010
0010
0010
0000
,
1000
1000
1000
0000
,
0002
0003
2000
3000
,
0100
0100
0100
0000
,
0010
0010
0010
0000
,
0001
0001
0001
0000
,
0200
0300
0020
0030
,
1000
0000
0001
0000
,
0110
0000
0110
0000
,
0001
0000
1000
0000
,
0110
0000
0110
0000
,
2000
3000
0200
0300
,
0020
0030
0002
0003
,
0020
0030
0002
0003
,
2000
0000
3000
0000
,
0002
0003
0020
0030
,
0200
0300
2000
3000
,
0002
0003
2000
3000
,
0200
0000
0000
0000
,
0000
0000
0010
0000
,
0020
0000
0000
0330
;

//---------------dance-single - ----------------
#NOTES:
     dance-single:
     :
     Easy:
     2:
     0.201,0.261,0.149,0.170,0.000:
0000
0000
0000
0000
,
0000
0000
0000
0000
,
1000
0000
0000
1001
,
0110
0000
0000
0000
,
0001
0000
0000
0110
,
1001
0000
0000
0000
,
1000
0000
0000
1001
,
0110
0000
0000
0000
,
1000
0001
0100
0001
,
2000
0002
0000
3003
,
0220
0330
2002
3003
,
1000
0100
0010
0001
,
0010
0001
1000
0100
,
2000
0002
0000
3003
,
0220
0330
2002
3003
,
0001
0010
0100
1000
,
0001
1000
0001
0000
,
1000
0010
1000
0000
,
0001
0100
0001
0000
,
1000
1000
0010
0010
,
0100
0001
0010
0000
,
0001
1000
0100
0000
,
1000
0010
0100
0100
,
0001
1000
1001
0000
,
1000
0001
0100
0010
,
0200
0000
0010
0300
,
0001
1000
0010
0100
,
0020
0000
1000
0030
,
1000
0100
0001
0100
,
1000
0001
1001
0000
,
0001
0010
1000
0010
,
0001
1000
1001
0000
,
0001
0100
1000
0100
,
0001
1000
1001
0000
,
0001
0010
1000
0010
,
0002
0000
1000
0000
,
0010
0000
0000
0000
1000
0000
0000
1000
,
2000
0000
0000
3003
;

//---------------dance-single - ----------------
#NOTES:
     dance-single:
     :
     Medium:
     4:
     0.323,0.342,0.170,0.469,0.000:
0000
0000
0000
0000
,
0000
0000
0000
0000
,
1000
0001
0100
1001
,
0110
1000
0001
0010
,
0001
1000
0100
1001
,
0110
1000
0010
0100
,
0001
1000
0100
1001
,
0110
0001
1000
0010
,
0200
0000
0302
0000
2003
0000
3100
0010
,
0002
2000
0000
3003
,
0110
1000
0101
1000
,
0100
0000
1000
0000
0010
0010
0100
0000
,
0002
0203
0320
2030
,
3200
0020
0000
0330
,
0001
1010
0001
0110
,
0001
0000
0100
0000
0010
0100
0100
0000
,
0010
1000
0100
0000
2000
0000
3001
0000
,
0100
0010
1000
0000
0002
0000
1003
0000
,
0100
1000
0100
0000
1000
0010
1000
0000
,
0001
0100
0001
0000
0200
0000
0310
0000
,
1000
0001
0100
0000
0002
0000
0103
0000
,
0010
1000
0001
0000
0200
0000
0301
0000
,
1000
0010
1000
0000
0100
1000
0100
0000
,
1000
0010
0100
0000
0002
0000
1003
0000
,
0110
1000
0001
0101
,
1100
1000
0010
0001
,
1001
0010
0001
0011
,
1010
1000
0100
0001
,
2000
3020
0230
0302
,
2003
0000
3200
0000
0320
0000
0031
0100
,
0002
2003
3200
2300
,
3020
0230
0320
1030
,
0200
2300
3002
0203
,
0320
0000
0230
0000
0302
0000
1003
0100
,
0020
0032
2003
3200
,
0320
0001
1000
0100
,
0001
0000
1000
0000
0100
0000
0000
0001
,
0002
0000
0000
0033
;

//---------------dance-single - ----------------
#NOTES:
     dance-single:
     :
     Hard:
     6:
     0.362,0.342,0.139,0.266,0.165:
0000
0000
0000
0000
,
0000
0000
0000
0000
,
1000
0001
0100
0010
0100
0001
1000
0000
,
0100
1000
0010
0100
0010
1000
0001
0000
,
0100
0010
0100
0001
0010
0100
1000
0000
,
0010
0100
0010
1000
0001
0100
0010
0000
,
0100
0001
0010
0100
1000
0010
0100
0000
,
0001
1000
0010
0100
0001
1000
0100
0000
,
1000
0000
0000
0001
0000
0000
0100
0000
0010
0000
0000
0010
0000
0000
0100
0000
,
0002
0000
0000
2000
0000
0000
0000
0000
0000
0000
0000
0000
3003
0000
0000
0000
,
0110
0000
1000
0000
1001
0000
0001
0100
,
0010
0000
0000
1000
0000
0000
0100
0000
1000
0000
0000
0001
0000
0000
0000
0000
,
0100
0000
0000
0001
0000
0000
0010
0000
0100
0000
0000
0100
0000
0000
1000
0000
,
0002
0000
0000
0200
0000
0000
0000
0000
0000
0000
0000
0000
0303
0000
0000
0000
,
1010
0000
2000
0000
3200
0000
0310
0001
,
0010
0000
0000
0001
0000
0000
0100
0000
1000
0000
0000
0100
0000
0000
0000
0000
,
0001
0000
0000
0100
0000
0000
0020
0000
1000
0000
1030
0000
0100
0000
0000
0000
,
1000
0000
0000
0001
0000
0000
0200
0000
0001
0000
0301
0000
0010
0000
0000
0000
,
0001
0000
0000
0100
0000
0000
0001
0000
0010
0000
0000
1000
0000
0000
0000
0000
,
0010
0000
0000
0010
0000
0000
0001
0000
0100
0000
0000
0200
0000
0000
0000
0000
,
0310
0000
0000
1000
0000
0000
0200
0000
1000
0000
1300
0000
0010
0000
0000
0000
,
1000
0000
0000
0100
0000
0000
0020
0000
0001
0000
0031
0000
0100
0000
0000
0000
,
0010
0000
0000
1000
0000
0000
0100
0000
0001
0000
0000
0100
0000
0000
1000
0000
,
0010
0010
0100
0100
0002
0000
1003
0000
,
0010
1000
1000
0100
0100
1000
1000
0010
,
0002
0000
0023
0000
2030
0000
3100
0010
,
0001
0010
0001
0100
1000
0000
0100
0001
,
0010
0010
0100
0000
1000
1000
0001
0000
,
0100
0000
0000
0101
0000
0000
0001
0000
1000
0000
0000
1010
0000
0000
1000
0000
,
0010
0000
0000
0110
0000
0000
0100
0000
0002
0000
0000
0000
1003
0000
0100
0000
,
0010
0000
0000
0011
0000
0000
0001
0000
1000
0000
0000
1100
0000
0000
1000
0000
,
0020
0000
0000
0100
0030
0000
0001
0000
1001
0000
0000
0000
1000
0000
0100
0000
,
0001
0000
0000
0101
0000
0000
0100
0000
1000
0000
0000
1010
0000
0000
0010
0000
,
1000
0000
0000
0200
0000
0000
0010
0000
0310
0000
0000
0000
0000
0000
1000
0000
,
0100
0000
0000
1000
0000
0000
1010
0000
0010
0000
0000
0100
0000
0000
0101
0000
,
0002
2003
3200
0320
,
0032
0000
0203
0000
1000
0000
0000
1000
,
2000
0000
0000
3300
;

//---------------dance-single - ----------------
#NOTES:
     dance-single:
     :
     Challenge:
     8:
     0.470,0.442,0.256,0.266,0.506: // measure 1
0000
0000
0000
0000
,  // measure 2
0000
0000
0000
0000
,  // measure 3
1001
0000
0000
1000
0100
0000
1000
0000
0100
0000
0010
0000
1001
0000
0000
0000
,  // measure 4
0110
0000
0000
0100
0001
0000
1000
0000
0100
1000
0100
1000
0100
0000
0000
0000
,  // measure 5
1010
0000
0000
1000
0100
0000
1000
0000
0001
0100
0000
0002
0000
0000
1000
0000
,  // measure 6
1003
0000
0000
0100
1000
0000
0010
0000
0100
0001
0100
0001
0100
0000
0000
0000
,  // measure 7
0001
0000
0000
1000
0100
0000
1000
0000
0010
0100
0000
0020
0000
0000
1000
0000
,  // measure 8
1030
0000
0000
0100
1000
0000
0001
0000
0100
0000
0001
0100
0001
0100
0000
0001
,  // measure 9
1000
0000
0000
0100
0000
0000
1000
0000
1001
0000
0000
0001
0000
0000
0100
0000
,  // measure 10
0010
1000
0000
0200
0000
0000
1000
0000
0010
0000
0010
0000
0310
0000
0000
0000
,  // measure 11
1001
0000
0110
0000
1100
0000
0001
0100
,  // measure 12
1000
0100
0000
1000
0000
0200
0000
0000
0301
0000
0010
0001
0000
0000
0000
0000
,  // measure 13
0010
0000
0000
0001
0000
0000
0100
0000
0110
0000
0000
0010
0000
0000
1000
0000
,  // measure 14
0100
1000
0000
0002
0000
0000
1000
0000
0010
0000
0010
0000
0013
0000
0000
0000
,  // measure 15
1001
0000
1010
0000
0110
0000
0100
0001
,  // measure 16
0010
0000
0001
0100
0000
0020
0000
0000
1030
0000
0100
1000
0000
0000
0000
0000
,  // measure 17
1000
0000
0010
1000
0000
0000
0100
1000
0000
0010
0000
0010
0000
0000
0000
0000
,  // measure 18
0100
0000
0001
0100
0000
0010
0000
0100
0000
1000
0000
0100
0000
0000
0000
0000
,  // measure 19
0100
0010
0000
1000
0000
0100
0000
0010
0000
0101
0000
1010
0000
0000
0000
0000
,  // measure 20
1000
0100
0000
1000
0000
0000
0001
0000
0100
0001
0000
0020
0000
0000
0000
0130
,  // measure 21
1000
0000
0100
0000
1001
0000
0100
1000
0000
0010
0000
0100
0000
0000
0000
0000
,  // measure 22
1100
0000
1000
0010
0000
0100
0000
0010
0000
0001
0000
0001
0000
0000
0010
0000
,  // measure 23
1000
0000
0100
2000
0000
0000
3001
0000
0100
0000
0010
0200
0000
0000
0301
0000
,  // measure 24
0110
0000
1010
0000
1100
0000
1000
0001
0000
0100
0000
0000
1001
0000
0000
0000
,  // measure 25
1000
0000
0001
1000
0100
0000
1000
0010
0000
0100
0000
0000
1001
0000
0000
0000
,  // measure 26
0110
0000
0000
0010
1000
0000
0100
0000
1000
0000
0001
0100
0010
0000
0000
0000
,  // measure 27
0100
0000
0001
1000
0000
0100
0000
2000
0000
0000
3010
0200
0000
0000
0301
2000
,  // measure 28
0000
0000
0000
3001
0100
0000
0010
0000
0100
0000
0001
1000
0100
0000
1000
0010
,  // measure 29
0100
0000
0010
0100
0000
0000
0001
0000
1000
0000
0100
1000
0000
0000
0100
0000
,  // measure 30
0001
0000
0100
0001
0000
0000
0100
0000
1100
0000
0000
0000
1000
0000
0010
0100
,  // measure 31
0010
0000
1000
0100
0000
0000
0100
0000
0001
0000
0100
1000
0000
0000
1000
0100
,  // measure 32
0010
0000
0001
0010
0000
0001
0010
0000
1000
0000
0010
0000
0001
0000
1000
0100
,  // measure 33
2000
0000
0000
3002
0000
0000
0100
0000
0203
0000
0000
2300
0000
0000
0100
0000
,  // measure 34
3200
0000
0000
0302
0000
0000
1003
0000
1001
0000
0000
0000
0000
0000
1000
0010
,  // measure 35
0100
0000
0010
1000
0000
0100
1000
0000
0001
0000
0100
0001
0000
0010
0001
0000
,  // measure 36
2000
3200
0302
2003
,  // measure 37
3002
0000
0203
0000
1000
0000
0000
1000
,  // measure 38
2000
0000
0000
3300
;
