#TITLE:Here We Go, Let's Rock & Roll;
#ARTIST:C+C Music Factory;
#CREDIT:A. Michaelangelo;
#BANNER:banner.png;
#BACKGROUND:background.png;
#MUSIC:music.ogg;
#OFFSET:-8.990;
#SAMPLESTART:76.755;
#SAMPLELENGTH:15.000;
#BPMS:0.000=113.798;
#NOTES:dance-single:A. Michaelangelo:Beginner:2::
0000
0000
0000
0000
,
0000
0000
0000
0000
,
0000
0000
0000
0000
,
0000
0000
0000
0000
,
1001
0000
1000
1000
,
1000
0000
0000
0000
,
1001
0000
0001
0001
,
0001
0000
0000
0001
,
0000
0100
0100
0100
,
0000
0010
0010
0010
,
0000
0100
0100
0100
,
0000
0010
0010
0010
,
0000
0001
0001
0001
,
0000
1000
1000
1000
,
0000
0001
0001
0001
,
0000
0000
0000
0000
,
0110
0000
1000
0000
,
0100
0000
0010
0000
,
0001
0000
1000
0000
,
0100
0000
0010
0000
,
0001
0000
0001
0000
,
0010
0000
0100
0000
,
1000
0000
0001
0000
,
0010
0000
0100
0000
,
1000
1000
1000
1000
,
1000
1000
0000
0000
,
0001
0001
0001
0001
,
0001
0001
0000
1000
,
0000
0010
0000
0100
,
0000
0001
0000
1000
,
0000
0010
0000
0100
,
0000
0001
0000
0000
,
1001
0000
1001
0000
,
0010
0010
0010
0000
,
1001
0000
1001
0000
,
0100
0100
0100
0000
,
1000
1000
0000
0000
,
1000
1000
0000
0000
,
0001
0001
0000
0000
,
0001
0001
0000
0000
,
0100
0100
0100
0000
,
0000
0000
0010
0010
,
0010
0010
0010
0000
,
0000
0000
0000
0000
,
0110
0000
1000
0000
,
0001
0000
1000
0000
,
0001
0000
0100
0000
,
0010
0000
0100
0000
,
0010
0000
1000
1000
,
1000
0000
1001
1001
,
0000
0001
0001
0001
,
0000
0000
0000
0110
;
#NOTES:dance-single:A. Michaelangelo:Easy:3::
0000
0000
0000
0000
,
0000
0000
0000
0000
,
0000
0000
0000
0000
,
0000
0000
0000
0000
,
1001
0001
0001
0001
,
0001
0000
0000
0000
,
1001
1000
1000
1000
,
0000
1000
0000
0000
0000
0000
1000
0000
,
1001
0001
0001
1001
,
1000
1000
1000
1001
,
0001
0001
0001
1001
,
1000
1000
1000
0110
,
0000
0100
0000
0100
,
0000
0010
0000
0010
,
0000
1000
0000
1000
,
0000
0000
0000
0000
,
0110
1000
0100
0001
,
0100
0001
0100
1000
,
1001
0001
0100
1000
,
0100
1000
0100
0001
,
0101
0001
0100
0010
,
1000
0100
0001
0100
,
1000
0010
0100
0001
,
0001
0001
0001
0001
,
1010
0010
0100
0010
,
0100
0001
0100
0001
,
0100
0010
0100
0010
,
0100
0000
0000
0100
,
0110
0010
1000
0100
,
0010
0001
0100
0010
,
1000
0100
0010
0001
,
0100
0010
1000
0100
,
0110
0001
0110
1000
,
0110
0001
0001
0000
,
1001
0001
1001
1000
,
1001
0110
1001
0000
,
1001
0001
0100
0010
,
1000
0100
0001
0010
,
0100
1000
0100
0010
,
0001
0010
0100
0010
,
0100
0010
1000
0100
,
0010
0001
0100
0010
,
1000
0100
0010
0001
,
0100
0000
0000
0000
,
1001
0000
0010
0000
,
1000
0000
0100
0000
,
0001
0000
0010
0000
,
0001
0100
1000
0000
,
0001
0000
0010
0000
,
1000
0000
0100
0000
,
0100
0000
0010
0000
,
0010
0000
0000
1001
;
#NOTES:dance-single:A. Michaelangelo:Medium:5::
0000
0000
0000
0000
,
0000
0000
0000
0000
,
0000
0000
0000
0000
,
0000
0000
0000
0000
,
0000
0000
0000
0000
,
0000
0000
0000
0000
,
0000
0000
0000
0000
,
0000
0000
0000
0000
,
1000
0100
0001
0100
1000
0000
0000
0000
,
0001
0100
1000
0100
0001
0000
0000
0000
,
1000
0010
0001
0010
1000
0000
0000
0000
,
0001
0010
1000
0010
0001
0000
0000
0000
,
0000
1000
0000
1000
0000
0100
0000
0000
,
0000
0001
0000
0001
0000
0100
0000
0000
,
0000
1000
0000
1000
0000
0010
0000
0000
,
0010
0010
0010
0010
,
0110
0000
0100
1000
0100
0000
0010
0001
,
0010
0000
0100
0001
0100
0000
0010
1000
,
0010
1000
1000
1000
,
0100
0010
0001
0001
,
1000
1000
0100
0000
0010
0010
0100
0000
,
0010
0010
0001
0000
0100
0100
1000
0000
,
1000
0001
1000
0001
,
1000
0001
1000
0001
1000
0001
1000
0001
,
1000
0000
0100
0010
0001
0000
1000
0100
,
0010
0000
0001
0010
0100
0000
0010
0100
,
1000
0100
0010
0001
0100
0010
1000
0000
,
1001
0001
0001
0001
,
0001
0000
0010
1000
0100
0000
0010
0001
,
0100
0000
0100
0001
0100
0000
0010
1000
,
0010
0000
1000
0100
0001
0000
0001
0100
,
1000
0000
1000
0010
0100
0000
0000
1100
,
1100
0000
0000
0101
0101
0000
0000
1000
,
0100
0001
0100
1000
0000
0000
0000
0011
,
0011
0000
0000
1010
1010
0000
0000
0001
,
0100
1000
0100
0001
0000
0000
0000
0000
,
1000
0100
0010
0000
0001
0010
1000
0000
,
0010
0001
0100
0000
1000
0100
0010
0000
,
0100
0001
0010
0000
0010
0001
1000
0000
,
1000
0100
0010
0000
0010
0100
1000
0000
,
0100
0001
0100
0010
0100
1000
0100
0000
,
0010
0000
0001
0000
0100
0010
1000
0100
,
0001
0100
1000
0010
0100
0001
0010
0100
,
1000
1000
1000
1000
,
0110
0000
1000
0010
0000
0000
0000
0000
,
0001
0001
0001
0000
,
0010
0000
1000
0010
0000
0000
0000
0000
,
1000
1000
1000
0000
,
1000
0000
0100
0001
0000
0000
0000
0000
,
0010
0010
0010
0000
,
0010
0000
0001
0100
0000
0000
0000
0000
,
0100
0100
0100
1001
;
#NOTES:dance-single:A. Michaelangelo:Hard:7::
0000
0000
0000
0000
,
0000
0000
0000
0000
,
0000
0000
0000
0000
,
0000
0000
0000
0000
,
1001
0001
1000
0100
0010
0001
0010
0001
,
0100
1000
0100
0000
0000
0000
0000
0000
,
1001
1000
0010
0100
0001
0010
0001
0100
,
0010
1000
0100
0010
0001
0001
0001
0000
,
0001
0100
0000
1000
0000
0000
0001
0100
0000
1000
0000
0000
0110
0000
0000
0000
,
1000
0100
0000
0001
0000
0000
1000
0100
0000
0001
0000
0000
0110
0000
1001
0000
,
0001
0100
0000
1000
0000
0000
0001
0100
0000
1000
0000
0000
0110
0000
0000
0000
,
1000
0100
0000
0001
0000
0000
1000
0100
0000
0001
0000
0000
0011
0000
1100
0000
,
0000
0000
1010
0000
0000
0000
1010
0000
0000
0000
0010
1000
0100
0000
0000
0000
,
0000
0000
0011
0000
0000
0000
0011
0000
0000
0000
0010
0001
0100
0000
0000
0000
,
0000
0000
0101
0000
0000
0000
0101
0000
0000
0000
0010
1000
0100
0000
0000
0000
,
0010
0010
0010
0010
0010
0010
0010
0110
,
1001
0001
0100
0000
0010
1000
0100
0000
,
0001
0010
0100
0000
0100
1000
0010
0000
,
1000
0100
0001
0000
0001
0100
1000
0000
,
0001
1000
0100
0000
0100
0010
0001
0000
,
0001
0100
0010
1000
0100
0010
0001
0000
,
0001
0100
1000
0100
0010
0100
1000
0000
,
1000
0100
0001
0010
1000
0010
0100
0000
,
0100
0001
0100
0010
0100
1000
0100
0000
,
0001
0100
1000
0010
0100
0010
1000
0010
,
0100
0010
0100
0001
0100
0001
0010
0100
,
1000
0010
0100
0001
0001
0001
0100
1000
,
0000
0000
0000
0110
,
1001
1000
0100
0010
0001
1000
0100
0010
,
0001
0010
0001
0100
1000
0100
0010
0100
,
0010
0100
0001
0100
1000
0100
0010
0001
,
0010
0000
1000
0000
0100
0000
0010
0000
0001
0000
0000
0000
0000
0000
1000
0001
,
1000
0000
0000
0000
0000
0000
1000
0001
1000
0000
0000
0000
0000
0000
1000
0001
,
1000
0000
0010
0100
0010
0000
1000
0001
1000
0000
0000
0000
0000
0000
1000
0010
,
1000
0000
0000
0000
0000
0000
0001
0100
0001
0000
0000
0000
0000
0000
0010
1000
,
0100
0000
0010
0001
0100
0000
0010
1000
0100
0000
0000
0000
0000
0000
0000
0000
,
1100
0000
0000
0110
0000
0110
0000
0011
,
0011
0000
0000
0000
0000
0000
0101
0000
0000
0000
0101
0000
0000
0010
1000
0000
,
1100
0000
0000
1001
0000
1001
0000
1010
,
1010
0000
0000
0000
0000
0000
0101
0000
0000
0000
0011
0000
0000
0010
0100
0000
,
0110
0010
0001
0100
0010
1000
0100
0010
,
0001
0010
0001
0100
1000
0100
0001
0010
,
0001
0100
1000
0100
0010
0001
0010
0000
,
0010
0010
0010
0010
0010
0010
0010
0110
,
1001
0000
1000
0010
0000
0000
0000
0001
,
0010
0000
1000
0100
0000
0000
0000
0000
,
1001
0000
1000
0100
0000
0000
0000
0010
,
0001
0001
0100
0000
,
1001
0000
0001
0100
0000
0000
0000
1000
,
0100
0000
0000
0000
0001
0000
0000
0010
0000
0000
0000
0000
0000
0000
0000
0000
,
1001
0000
0001
0010
0000
0000
0000
1000
,
0010
0001
0100
1001
;
