#TITLE:Choujin Sentai Jetman;
#SUBTITLE:;
#ARTIST:Hironobu Kageyama;
#TITLETRANSLIT:;
#SUBTITLETRANSLIT:;
#ARTISTTRANSLIT:;
#CREDIT:;
#BANNER:bn.PNG;
#BACKGROUND:bg.PNG;
#LYRICSPATH:;
#CDTITLE:;
#MUSIC:Choujin Sentai Jetman.ogg;
#OFFSET:-0.871;
#SAMPLESTART:6.820;
#SAMPLELENGTH:15.620;
#SELECTABLE:YES;
#BPMS:0.000=160.440,148.000=160.000;
#STOPS:;
#BGCHANGES:;

//---------------dance-single - ----------------
#NOTES:
     dance-single:
     :
     Hard:
     8:
     0.509,0.479,0.181,0.091,0.040:
0000
0000
0000
0000
,
0000
0000
0000
0000
,
0000
0000
0000
0000
,
0000
0000
0000
0000
,
1000
1100
0001
0101
,
1000
0000
0010
1000
0000
0001
0010
0000
,
0001
0000
0100
0000
0010
1000
0100
1000
,
0000
0010
0100
0001
0000
0010
0100
0000
,
1000
1010
0001
0011
,
0001
0000
0010
0100
0000
1000
0010
0000
,
0100
0000
0001
0000
0010
0100
1000
0000
,
0001
1000
0001
0000
2002
0000
0000
0000
3003
0000
0000
0000
1000
0000
0010
0000
,
0000
0100
0001
0000
0010
0100
1000
0001
,
0010
0000
0001
0100
0000
0010
1000
0100
,
1000
0000
0000
0000
0001
0000
0010
0000
0000
0000
0001
0000
0100
0001
0100
0000
,
0010
0000
1000
0100
0000
0010
0001
1000
,
0010
0000
0000
0000
1000
0000
0200
0000
0000
0000
0300
0000
0010
0001
0010
0000
,
0001
0010
0100
0000
1000
0010
0100
0000
,
0001
1000
0010
1000
0000
0001
0010
0000
,
0001
0100
0010
0000
1000
0100
0010
0000
,
0001
0000
1000
0020
0000
2030
0000
3002
,
0000
0013
0001
0000
0100
0010
1000
0000
,
0100
1000
0001
0010
0000
0001
0100
0000
,
0010
1000
0100
0000
0010
0001
0100
0000
,
0010
0000
0000
0000
1000
0000
0001
0000
0000
0000
0010
0000
0001
0100
0001
0100
,
0001
0100
0010
0000
1000
0100
0010
0000
,
0001
1000
0100
1000
0000
0001
0100
0001
,
0000
1000
0010
1000
0001
0000
0010
0000
,
0001
0100
0010
1000
0000
0100
1000
0000
,
0001
0100
0001
1000
0100
1000
0001
0010
,
0001
0000
0100
0000
0010
1000
0000
1100
,
0000
0100
0010
0001
0000
0001
0100
0010
,
0000
0000
0010
0000
1000
0000
0000
0000
1000
0000
0001
0000
0010
0000
0001
0100
,
0001
0101
1000
1100
,
1000
0000
0010
0100
0000
0001
0010
0000
,
0001
0000
0100
0000
0010
1000
0100
0001
,
0000
0100
1000
0010
0000
0001
0010
0000
,
1000
1100
0001
0101
,
1000
0000
0010
0100
0000
0001
0010
0000
,
0100
0000
1000
0000
0001
0010
0001
0100
,
0000
0010
1000
0100
0000
0010
0001
0000
,
1000
1010
0001
0011
,
0001
0000
0100
0010
0000
1000
0100
0000
,
0010
0000
0001
0000
1000
0100
1000
0001
,
0000
0010
0001
0100
0000
0010
1000
0000
,
0100
0110
0010
0011
,
0001
0000
0100
0010
0000
1000
0100
0000
,
0001
0000
0100
0000
1000
0010
0001
0000
,
0010
1000
0010
0000
2020
0000
0000
0000
0000
0000
3030
0000
0010
0000
0100
0000
,
0000
0100
0001
0000
0010
0100
1000
0001
,
0000
0010
0001
0000
0100
0010
1000
0100
,
0000
0001
0100
0000
1000
0010
0001
0010
,
0000
1000
0100
0000
0010
0001
0100
0010
,
0000
1000
0001
0000
0010
0001
0100
0010
,
0000
1000
0100
0000
0010
0000
0001
0000
,
1000
0010
1000
0000
0001
0010
0001
1000
,
0000
0000
0000
1001
0000
0000
0000
0000
;

//---------------dance-single - ----------------
#NOTES:
     dance-single:
     :
     Beginner:
     1:
     0.104,0.160,0.011,0.000,0.000:
0000
0000
0000
0000
,
0000
0000
0000
0000
,
0000
0000
0000
0000
,
0000
0000
0000
0000
,
1000
0000
0000
0000
,
0001
0000
0000
0000
,
0010
0000
0000
0000
,
0001
0000
0000
0000
,
0100
0000
0000
0000
,
0010
0000
0000
0000
,
1000
0000
0000
0000
,
0001
0000
0000
0000
,
1000
0000
0000
0000
,
0010
0000
0000
0000
,
0100
0000
0100
0000
,
0100
0000
0000
0000
,
0001
0000
0001
0000
,
0001
0000
0000
0000
,
0010
0000
0000
0000
,
0100
0000
0000
0000
,
1000
0000
1000
0000
,
1000
0000
0000
0000
,
0010
0000
0000
0000
,
0100
0000
0000
0000
,
0001
0000
0001
0000
,
0001
0000
0000
0000
,
0010
0000
0010
0000
,
0010
0000
0000
0000
,
0100
0000
0100
0000
,
0100
0000
0000
0000
,
1000
0000
0000
0000
,
0010
0000
0000
0000
,
0100
0000
0000
0000
,
0001
0000
0000
0000
,
1000
0000
0000
0000
,
0010
0000
0000
0000
,
0100
0000
0000
0000
,
0001
0000
0000
0000
,
0010
0000
0000
0000
,
0100
0000
0000
0000
,
1000
0000
0000
0000
,
0010
0000
0000
0000
,
1000
0000
0000
0000
,
0001
0000
0000
0000
,
0010
0000
0000
0000
,
0001
0000
0000
0000
,
0100
0000
0000
0000
,
0010
0000
0000
0000
,
1000
1000
0000
0000
,
0001
0000
0000
0000
,
0010
0000
0000
0000
,
0001
0000
0000
0000
,
0100
0000
0000
0000
,
0010
0000
0000
0000
,
1000
0000
0000
0000
,
0001
0001
0000
0001
,
0001
0000
1001
0000
;

//---------------dance-single - ----------------
#NOTES:
     dance-single:
     :
     Easy:
     4:
     0.244,0.256,0.023,0.000,0.000:
0000
0000
0000
0000
,
0000
0000
0000
0000
,
0000
0000
0000
0000
,
0000
0000
0000
0000
,
1000
0100
1000
0000
,
0010
0001
0010
0000
,
0001
0000
0100
0001
,
0100
0000
0010
0000
,
1000
0001
1000
0000
,
0010
0100
0010
0000
,
1000
0000
0001
0010
,
0001
0101
0000
0100
,
0010
0000
1000
0000
,
0100
0000
1000
0000
,
0010
1000
0010
0000
,
0100
0000
0001
0000
,
0010
0001
0010
0001
,
0010
0000
0100
0000
,
1000
0001
1000
0000
,
0010
0000
0100
0000
,
0001
0010
0001
0100
,
0001
0000
0010
0000
,
0100
1000
0100
0000
,
0010
0000
0001
0000
,
1000
0010
1000
0001
,
0010
0001
0000
0100
,
0010
1000
0100
0000
,
0010
0001
1000
0000
,
0100
1000
0001
0000
,
0010
0001
0100
0000
,
0001
0010
0100
1000
,
0001
0000
1000
0000
,
0001
0000
0010
0001
,
0100
0001
0100
0000
,
0010
1000
0010
0000
,
1000
0000
0100
0010
,
0100
0000
0010
0000
,
0001
0100
0001
0000
,
1000
0100
1000
0000
,
0001
0000
0010
0001
,
0100
0000
0010
0000
,
1000
0100
1000
0000
,
0010
0100
0010
0000
,
0100
0000
0001
0010
,
0100
0000
1000
0000
,
0010
1000
0001
0000
,
0010
0001
1000
0000
,
0100
0000
1000
0000
,
0010
0010
0000
0100
,
0100
0000
0001
0010
,
0001
0000
1000
0010
,
1000
0000
0001
0100
,
0001
0000
1000
0100
,
1000
0000
0001
0000
,
0010
0001
0100
0010
,
1000
1000
0000
0001
,
0001
0000
1001
0000
;

//---------------dance-single - ----------------
#NOTES:
     dance-single:
     :
     Medium:
     6:
     0.377,0.383,0.034,0.000,0.000: // measure 1
0000
0000
0000
0000
,  // measure 2
0000
0000
0000
0000
,  // measure 3
0000
0000
0000
0000
,  // measure 4
0000
0000
0000
0000
,  // measure 5
1000
0010
1000
0001
,  // measure 6
0010
0000
0001
0100
0000
0000
0010
0000
,  // measure 7
1000
0000
0100
0000
0010
0000
0001
0010
,  // measure 8
0000
0000
0100
1000
0000
0000
0010
0000
,  // measure 9
0100
0001
1000
0010
,  // measure 10
1000
0000
0001
0010
0000
0000
0001
0000
,  // measure 11
0100
0010
1000
0100
,  // measure 12
0010
0001
0010
0000
0000
0000
0100
1000
,  // measure 13
0000
0000
0001
0000
1000
0100
1000
0000
,  // measure 14
0010
0000
0100
0010
0000
0000
0100
0000
,  // measure 15
0001
0000
0010
0001
0000
0000
0010
0000
,  // measure 16
0100
0000
1000
0100
0000
0000
1000
0000
,  // measure 17
0010
0000
0100
0001
0000
0000
0100
0010
,  // measure 18
0100
0010
1000
0100
,  // measure 19
0010
0000
0001
1000
0000
1000
0001
0000
,  // measure 20
1000
0010
0100
0001
,  // measure 21
0010
0000
0001
0100
0000
0001
0000
0100
,  // measure 22
0000
0010
1000
0000
0100
0000
0010
0000
,  // measure 23
0001
0000
1000
0010
0000
0010
1000
0000
,  // measure 24
0100
0010
0001
0100
,  // measure 25
0010
0000
1000
0001
0000
0010
0001
0100
,  // measure 26
0001
1001
0000
1001
,  // measure 27
1000
0010
1000
0001
0000
0010
0000
0001
,  // measure 28
0000
0100
0010
0000
1000
0000
0010
0000
,  // measure 29
0100
0001
0010
0001
0000
0100
0010
0000
,  // measure 30
1000
0000
0100
0000
0010
0001
0010
0000
,  // measure 31
0100
0000
1000
0000
0010
0100
0000
0001
,  // measure 32
0000
0100
0000
0010
0000
1000
0000
0100
,  // measure 33
0000
0010
0001
0000
1000
0000
0010
1000
,  // measure 34
0010
0100
0001
0010
,  // measure 35
0001
0000
0100
0010
0000
0000
1000
0000
,  // measure 36
0100
0000
1000
0000
0001
0010
0001
0010
,  // measure 37
0000
0001
0100
0001
0000
0000
0100
0000
,  // measure 38
0010
1000
0100
1000
,  // measure 39
0001
0000
0010
0001
0000
0000
0100
0000
,  // measure 40
0010
0000
1000
0000
0100
1000
0100
1000
,  // measure 41
0000
0001
0100
0001
0000
0000
1000
0000
,  // measure 42
0010
1000
0001
0010
,  // measure 43
0001
0000
0100
0010
0000
0000
1000
0000
,  // measure 44
0100
0000
0010
0000
0001
0010
0001
0010
,  // measure 45
0000
0001
0100
0001
0000
0000
0100
0000
,  // measure 46
0010
1000
0100
1000
,  // measure 47
0001
0000
0010
0001
0000
0000
0100
0000
,  // measure 48
0010
1000
0100
0010
,  // measure 49
0001
1000
0001
0000
0000
0000
1000
0001
,  // measure 50
0000
0000
0010
0000
0001
0000
0100
0010
,  // measure 51
0000
0000
1000
0000
0100
0000
0010
0001
,  // measure 52
0000
0000
1000
0000
0010
0000
0100
0001
,  // measure 53
0000
0000
1000
0000
0100
0000
0001
0100
,  // measure 54
0000
0000
1000
0000
0010
0000
0100
0001
,  // measure 55
0000
0010
0100
1000
,  // measure 56
0010
1000
0010
0000
0000
0100
0001
0100
,  // measure 57
0000
0000
0000
0110
0000
0000
0000
0000
;
