#TITLE:Chariots of Fire;
#SUBTITLE:;
#ARTIST:Vangelis;
#TITLETRANSLIT:;
#SUBTITLETRANSLIT:;
#ARTISTTRANSLIT:;
#CREDIT:348;
#BANNER:Chariots of Fire Banner.png;
#BACKGROUND:Chariots of Fire Background.png;
#LYRICSPATH:;
#CDTITLE:;
#MUSIC:Chariots of Fire.mp3;
#OFFSET:-3.553;
#SAMPLESTART:21.191;
#SAMPLELENGTH:15.000;
#SELECTABLE:YES;
#BPMS:0.000=136.000;
#STOPS:;
#BGCHANGES:;

//---------------dance-single - ----------------
#NOTES:
     dance-single:
     :
     Beginner:
     1:
     0.070,0.101,0.000,0.000,0.000: // measure 1
0000
0000
0000
0000
,  // measure 2
0000
0000
0000
0000
,  // measure 3
0000
0000
0000
0000
,  // measure 4
0000
0000
0000
0000
,  // measure 5
1000
0000
0000
0000
,  // measure 6
0000
0000
0000
0000
,  // measure 7
0001
0000
0000
0000
,  // measure 8
0000
0000
0000
0000
,  // measure 9
0100
0000
0000
0000
,  // measure 10
0000
0000
0000
0000
,  // measure 11
0010
0000
0000
0000
,  // measure 12
0000
0000
0000
0000
,  // measure 13
1000
0000
0000
0000
,  // measure 14
0001
0000
0000
0000
,  // measure 15
1000
0000
0000
0000
,  // measure 16
0000
0000
0000
0000
,  // measure 17
0010
0000
0000
0000
,  // measure 18
0100
0000
0000
0000
,  // measure 19
0010
0000
0000
0000
,  // measure 20
0000
0000
0000
0000
,  // measure 21
1000
0000
0000
0000
,  // measure 22
0100
0000
0000
0000
,  // measure 23
0010
0000
0000
0000
,  // measure 24
0000
0000
0000
0000
,  // measure 25
0001
0000
0000
0000
,  // measure 26
0010
0000
0000
0000
,  // measure 27
0100
0000
0000
0000
,  // measure 28
0000
0000
0000
0000
,  // measure 29
1000
0000
0000
0000
,  // measure 30
1000
0000
1000
0000
,  // measure 31
0001
0000
0000
0000
,  // measure 32
0001
0000
0001
0000
,  // measure 33
1000
0000
0000
0000
,  // measure 34
0001
0000
1000
0000
,  // measure 35
0001
0000
0000
0000
,  // measure 36
0000
0000
0000
0000
,  // measure 37
0100
0000
0000
0000
,  // measure 38
0100
0000
0100
0000
,  // measure 39
0010
0000
0000
0000
,  // measure 40
0010
0000
0010
0000
,  // measure 41
0100
0000
0000
0000
,  // measure 42
0010
0000
0100
0000
,  // measure 43
0010
0000
0000
0000
,  // measure 44
0000
0000
0000
0000
,  // measure 45
1000
0000
0100
0000
,  // measure 46
0000
0000
0100
0000
,  // measure 47
1000
0000
0010
0000
,  // measure 48
0000
0000
0010
0000
,  // measure 49
1000
0000
0001
0000
,  // measure 50
0000
0000
0001
0000
,  // measure 51
1000
0000
0000
0000
,  // measure 52
0000
0000
0000
0000
,  // measure 53
0001
0000
0010
0000
,  // measure 54
0000
0000
0010
0000
,  // measure 55
0001
0000
0100
0000
,  // measure 56
0000
0000
0100
0000
,  // measure 57
0001
0000
1000
0000
,  // measure 58
0000
0000
1000
0000
,  // measure 59
0001
0000
0000
0000
,  // measure 60
0000
0000
0100
0000
,  // measure 61
0010
0000
0000
0000
,  // measure 62
0000
0000
1000
0000
,  // measure 63
0010
0000
0000
0000
,  // measure 64
0000
0000
0100
0000
,  // measure 65
0001
0000
0000
0000
,  // measure 66
0000
0000
1000
0000
,  // measure 67
0001
0000
0000
0000
,  // measure 68
0100
0000
0000
0000
,  // measure 69
0010
0000
0000
0000
,  // measure 70
1000
0000
0000
0000
,  // measure 71
0001
0000
0000
0000
;

//---------------dance-single - ----------------
#NOTES:
     dance-single:
     :
     Easy:
     3:
     0.167,0.205,0.065,0.346,0.000: // measure 1
0000
0000
0000
0000
,  // measure 2
0000
0000
0000
0000
,  // measure 3
0000
0000
0000
0000
,  // measure 4
0000
0000
0000
0000
,  // measure 5
2000
0000
0000
3000
,  // measure 6
0200
0000
0000
0300
,  // measure 7
0020
0000
0000
0030
,  // measure 8
0002
0000
0000
0003
,  // measure 9
2000
0000
0000
3000
,  // measure 10
0020
0000
0000
0030
,  // measure 11
0200
0000
0000
0300
,  // measure 12
0002
0000
0000
0003
,  // measure 13
2000
0000
3100
0000
,  // measure 14
1100
0000
0000
0000
,  // measure 15
0002
0000
0013
0000
,  // measure 16
0011
0000
0000
0000
,  // measure 17
2000
0000
3001
0000
,  // measure 18
1001
0000
0000
0000
,  // measure 19
0020
0000
0000
0030
,  // measure 20
0200
0000
0000
0300
,  // measure 21
0020
0000
1030
0000
,  // measure 22
1010
0000
0000
0000
,  // measure 23
0200
0000
0301
0000
,  // measure 24
0101
0000
0000
0000
,  // measure 25
0200
0000
0310
0000
,  // measure 26
0110
0000
0000
0000
,  // measure 27
0002
0000
0000
0003
,  // measure 28
2000
0000
0000
3000
,  // measure 29
0002
0000
0010
0000
,  // measure 30
0100
0000
1003
0000
,  // measure 31
2000
0000
0100
0000
,  // measure 32
0010
0000
3001
0000
,  // measure 33
0002
0000
1000
0000
,  // measure 34
1000
0000
1003
0000
,  // measure 35
0220
0000
0000
0000
,  // measure 36
0000
0000
0330
0000
,  // measure 37
0200
0000
0010
0000
,  // measure 38
0001
0000
0310
0000
,  // measure 39
0020
0000
0100
0000
,  // measure 40
1000
0000
0130
0000
,  // measure 41
0200
0000
0010
0000
,  // measure 42
0010
0000
0310
0000
,  // measure 43
2002
0000
0000
0000
,  // measure 44
0000
0000
3003
0000
,  // measure 45
2000
0000
3010
0000
,  // measure 46
1000
0010
1000
0000
,  // measure 47
0002
0000
0103
0000
,  // measure 48
0001
0100
0001
0000
,  // measure 49
2000
0000
3010
0000
,  // measure 50
0200
0000
0301
0000
,  // measure 51
0020
0000
0000
0030
,  // measure 52
0002
0000
0000
0003
,  // measure 53
0002
0000
0013
0000
,  // measure 54
0001
0010
0001
0000
,  // measure 55
2000
0000
3100
0000
,  // measure 56
1000
0100
1000
0000
,  // measure 57
0002
0000
0013
0000
,  // measure 58
0200
0000
1300
0000
,  // measure 59
0020
0000
0000
0030
,  // measure 60
2000
0000
3001
1000
,  // measure 61
0020
0000
0000
0000
,  // measure 62
0000
0030
1000
0001
,  // measure 63
0200
0000
0000
0000
,  // measure 64
0000
0300
0010
0100
,  // measure 65
0002
0000
0000
0000
,  // measure 66
0000
0003
0100
0010
,  // measure 67
2000
0000
0000
0000
,  // measure 68
0000
0000
0000
3000
,  // measure 69
0020
0000
0130
0000
,  // measure 70
0200
0000
0310
0000
,  // measure 71
2002
0000
0000
0000
,  // measure 72
3003
0000
0000
0000
;

//---------------dance-single - ----------------
#NOTES:
     dance-single:
     :
     Medium:
     5:
     0.302,0.358,0.252,0.613,0.000: // measure 1
0000
0000
0000
0000
,  // measure 2
0000
0000
0000
0000
,  // measure 3
0000
0000
0000
0000
,  // measure 4
0000
0000
0000
0000
,  // measure 5
2020
3030
0001
0100
,  // measure 6
0202
0303
1000
0001
,  // measure 7
2002
3003
0100
0010
,  // measure 8
0220
0330
1001
0000
,  // measure 9
0022
0033
1000
0100
,  // measure 10
2200
3300
0010
0100
,  // measure 11
0220
0330
0001
1000
,  // measure 12
2002
3003
0110
0000
,  // measure 13
2000
0000
0000
3001
0020
0000
0000
0000
,  // measure 14
0000
0001
0031
0000
,  // measure 15
0002
0000
0203
0000
,  // measure 16
0301
0100
1000
0100
,  // measure 17
0002
0000
0000
1003
0200
0000
0000
0000
,  // measure 18
0000
1000
1300
0000
,  // measure 19
2002
0000
0000
3003
,  // measure 20
0001
0100
1000
0010
,  // measure 21
0002
0000
0000
0103
0020
0000
0000
0000
,  // measure 22
0000
0100
0130
0000
,  // measure 23
2000
0000
3020
0000
,  // measure 24
1030
0010
0001
0010
,  // measure 25
2000
0000
0000
3010
0200
0000
0000
0000
,  // measure 26
0000
0010
0310
0000
,  // measure 27
0220
0000
0000
0330
,  // measure 28
1000
0010
0001
0100
,  // measure 29
2000
0000
3001
0000
,  // measure 30
0110
0000
2002
3003
,  // measure 31
0002
0000
0013
0000
,  // measure 32
1100
0000
2000
3001
,  // measure 33
0200
0000
0310
0000
,  // measure 34
1001
0000
0110
0000
,  // measure 35
2000
0000
3002
0000
,  // measure 36
1003
0000
1001
0000
,  // measure 37
2000
0000
0010
0000
,  // measure 38
3002
0000
0100
0000
,  // measure 39
0203
0000
0001
0000
,  // measure 40
0320
0000
1000
0000
,  // measure 41
1030
0000
1100
0000
,  // measure 42
0011
0000
1001
0000
,  // measure 43
0220
0000
0000
0330
,  // measure 44
0001
1000
0010
0100
,  // measure 45
0001
0000
0000
1000
0200
0000
0000
0310
,  // measure 46
0002
1000
1003
0000
,  // measure 47
2000
0000
0000
3001
0200
0000
0000
0310
,  // measure 48
2000
0001
3001
0000
,  // measure 49
0002
0000
0000
1003
0001
0000
0000
0000
,  // measure 50
1000
0010
0100
0001
,  // measure 51
2200
3300
0001
0010
,  // measure 52
0022
0033
1000
0001
,  // measure 53
0200
0000
0000
0310
2000
0000
0000
3001
,  // measure 54
0200
0010
0310
0000
,  // measure 55
0020
0000
0000
1030
0002
0000
0000
0103
,  // measure 56
0020
0100
0130
0000
,  // measure 57
0200
0000
0000
0310
0100
0000
0000
0000
,  // measure 58
0001
0010
0100
1000
,  // measure 59
0220
0000
0000
0330
,  // measure 60
2002
3003
1000
0100
,  // measure 61
0022
0000
0000
0033
,  // measure 62
2020
3030
0001
0010
,  // measure 63
2200
0000
0000
3300
,  // measure 64
0202
0303
1000
0001
,  // measure 65
0220
0000
0000
0330
,  // measure 66
2002
3003
0100
0010
,  // measure 67
2002
0000
0000
3003
,  // measure 68
0220
0000
0000
0330
,  // measure 69
0001
0100
1000
0010
,  // measure 70
1000
0100
0001
1000
,  // measure 71
0220
0000
0000
0000
,  // measure 72
0330
0000
0000
0000
;

//---------------dance-single - ----------------
#NOTES:
     dance-single:
     :
     Hard:
     8:
     0.463,0.409,0.267,0.858,0.108: // measure 1
0000
0000
0000
0000
,  // measure 2
0000
0000
0000
0000
,  // measure 3
0000
0000
0000
0000
,  // measure 4
0000
0000
0000
0000
,  // measure 5
2001
0000
0000
3001
0020
0000
0000
0130
,  // measure 6
2000
0000
0000
3001
0200
0000
0000
0010
,  // measure 7
0320
0000
0000
1030
0002
0000
0000
1003
,  // measure 8
0200
0000
0000
0310
0001
1000
0000
0000
,  // measure 9
0120
0000
0000
1030
0002
0000
0000
1003
,  // measure 10
0200
0000
0000
1300
0020
0000
0000
0100
,  // measure 11
0230
0000
0000
0310
2000
0000
0000
3001
,  // measure 12
0100
0000
0000
0000
1001
0000
0000
0000
0200
0000
0000
0010
0000
0000
0001
0000
,  // measure 13
0302
0000
0000
1003
0100
2000
0000
3001
,  // measure 14
0010
0000
0000
0000
1100
0000
0000
0000
0002
0000
0000
0100
0000
0000
1000
0000
,  // measure 15
2000
0000
3003
0000
0001
1000
0100
1000
,  // measure 16
0002
0000
0000
0000
2003
0000
0000
0000
3002
0000
0000
0100
0000
0000
0010
0000
,  // measure 17
0023
0000
0000
0031
0200
0000
0000
0310
,  // measure 18
1000
0000
0000
0000
0120
0000
0000
0000
1000
0000
0000
1000
0000
0000
1000
0000
,  // measure 19
0000
2000
0000
0000
0000
0000
0000
0000
3030
0000
0000
0000
0000
0000
0000
0000
2002
0000
0000
0000
0000
0000
0000
0000
3003
0000
0000
0000
0000
0000
0000
0000
,  // measure 20
0100
0000
0010
0000
0100
0000
0000
0000
0020
0000
0000
1000
0000
0000
0100
0000
,  // measure 21
0230
0000
0000
0301
1000
0020
0000
1030
,  // measure 22
0001
0000
0100
0000
0020
0000
0000
0000
2030
0000
0000
0001
0000
0000
0001
0000
,  // measure 23
3002
0000
0000
1003
0100
0001
0100
2000
,  // measure 24
0001
0000
0000
0000
3002
0000
0000
0000
0203
0000
0000
0010
0000
0000
0001
0000
,  // measure 25
0302
0000
0000
0103
0010
2000
0000
3100
,  // measure 26
0010
0000
0001
0000
1000
0000
0000
0000
2001
0000
0000
0010
0000
0000
0001
0000
,  // measure 27
0000
0010
0000
0000
0000
0000
0000
0000
0000
0000
0000
0000
3001
0000
0000
0000
0010
0000
0000
0000
0100
0000
0000
0000
1000
0000
0000
0000
0001
0000
0000
0000
,  // measure 28
1000
0000
0000
0000
0000
0000
0000
0000
0110
0000
0000
0000
0000
0000
0000
0000
0002
0000
0000
0000
0000
0000
0100
0000
0000
0000
0000
1000
0000
0000
0000
0000
,  // measure 29
2000
3003
2200
3300
,  // measure 30
0012
0000
0000
0000
0000
0000
1003
0000
0020
0000
0000
0100
0000
0000
0100
0000
,  // measure 31
0200
0330
0202
0303
,  // measure 32
2010
0000
0000
0000
3100
0000
0000
0000
0020
0000
0000
1000
0000
0000
0100
0000
,  // measure 33
0230
0000
0000
0301
2000
0000
0000
3100
,  // measure 34
0020
0000
0000
0000
0031
0000
0000
0000
2001
0000
0000
0010
0000
0000
0001
0000
,  // measure 35
0002
3003
0220
0330
,  // measure 36
0001
0100
2000
0000
3100
0001
1000
0000
,  // measure 37
0022
0033
2020
3030
,  // measure 38
0210
0000
0000
0000
0301
0000
0000
0000
2000
0000
0000
0010
0000
0000
0100
0000
,  // measure 39
0200
3300
0202
0303
,  // measure 40
1020
0000
0000
0000
0130
0000
0000
0000
0002
0000
0000
1000
0000
0000
0010
0000
,  // measure 41
0023
0000
0000
0031
0002
0000
0000
1003
,  // measure 42
2000
0000
0000
0000
3010
0000
0000
0000
0120
0000
0000
1000
0000
0000
0100
0000
,  // measure 43
0200
0330
2002
3003
,  // measure 44
0110
0000
0000
0000
1001
0000
0000
0000
0200
0000
0000
0010
0000
0000
0010
0000
,  // measure 45
0320
0000
0000
1030
0100
0002
0000
1003
,  // measure 46
0010
0000
0001
0000
1000
0000
0000
0000
0012
0000
0000
0100
0000
0000
1000
0000
,  // measure 47
2000
3003
2020
3030
,  // measure 48
0001
0000
0010
0000
2000
0000
0000
0000
3010
0000
0000
0002
0000
0000
0100
0000
,  // measure 49
0203
0000
0000
0310
0020
0000
0000
1030
,  // measure 50
0001
0000
0000
0000
0110
0000
0000
0000
2000
0000
0000
0001
0000
0000
0100
0000
,  // measure 51
0200
3300
0220
0330
,  // measure 52
0002
0000
0000
0000
0023
0000
0000
0000
1030
0000
0000
0010
0000
0000
0001
0000
,  // measure 53
2000
0000
3000
0010
1000
0002
0000
0013
,  // measure 54
0001
0000
2000
0000
0010
0000
0000
0000
3020
0000
0000
0100
0000
0000
0100
0000
,  // measure 55
0230
0000
0310
0000
0010
1000
0001
1000
,  // measure 56
0010
0000
0000
0000
0011
0000
0000
0000
2010
0000
0000
0100
0000
0000
0001
0000
,  // measure 57
0002
0000
3003
1000
0020
0000
0000
0130
,  // measure 58
0001
0000
0000
0000
0110
0000
0000
0000
2000
0000
0000
0100
0000
0000
0010
0000
,  // measure 59
0020
3030
0202
0303
,  // measure 60
1001
0000
0000
0000
0110
0000
0000
0000
2000
0000
0000
0100
0000
0000
0100
0000
,  // measure 61
3100
0000
0000
0010
0002
0000
0000
1003
,  // measure 62
0100
0000
0000
0000
0011
0000
0000
0000
0200
0000
0000
0010
0000
0000
0010
0000
,  // measure 63
0310
0000
0000
0010
2000
0000
0000
3001
,  // measure 64
0100
0000
0000
0000
1010
0000
0000
0000
0002
0000
0000
0010
0000
0000
0010
0000
,  // measure 65
0013
0000
0000
0001
0200
0000
0000
0301
,  // measure 66
0010
0000
0000
0000
1010
0000
0000
0000
0020
0000
0000
0100
0000
0000
0100
0000
,  // measure 67
0100
0000
0000
1030
0200
0000
0000
1300
,  // measure 68
0002
0000
0000
0103
0020
0000
0000
1030
,  // measure 69
0002
0000
1003
0000
1000
0100
0010
0000
,  // measure 70
0020
0000
0130
0000
0100
0010
0001
0000
,  // measure 71
0220
0000
0000
0000
,  // measure 72
0330
0000
0000
0000
;

//---------------dance-single - ----------------
#NOTES:
     dance-single:
     :
     Challenge:
     9:
     0.566,0.537,0.432,0.930,0.220: // measure 1
0000
0000
0000
0000
,  // measure 2
0000
0000
0000
0000
,  // measure 3
0000
0000
0000
0000
,  // measure 4
0000
0000
0000
0000
,  // measure 5
2002
0000
0003
3010
0001
0020
0000
1030
,  // measure 6
0100
0002
0000
0103
1000
0001
0100
0010
,  // measure 7
0220
0000
0300
1030
0001
0200
0000
0301
,  // measure 8
0010
2000
0000
3010
0001
2200
0000
3300
,  // measure 9
0202
0000
0300
1003
0010
0200
0000
0301
,  // measure 10
1000
0020
0000
1030
0100
0010
0100
1000
,  // measure 11
2002
0000
3000
1003
0001
1000
0100
0010
,  // measure 12
0002
0000
0000
1003
0100
0000
0000
0000
0200
0000
0000
1000
0000
0000
0001
0000
,  // measure 13
2300
0000
0000
0000
0000
0000
3001
0000
0020
0000
0000
0001
0000
0000
0001
0000
,  // measure 14
0031
0000
0000
0000
1100
0000
0000
0001
0020
0000
0000
0100
0000
0000
1000
0000
,  // measure 15
0130
0000
0000
0100
1000
0001
1000
0100
,  // measure 16
1010
0000
0000
0000
0011
0000
0000
1000
0020
0000
0000
0100
0000
0000
0001
0000
,  // measure 17
0230
0000
0000
0301
1000
0002
0000
0103
,  // measure 18
0010
0000
0200
0000
0020
0000
0330
0000
0110
0000
0000
1001
0000
0000
1001
0000
,  // measure 19
0000
0220
0000
0000
0000
0000
0000
0000
0330
0000
0000
0000
0000
0000
0000
0000
0002
0000
0000
0000
0010
0000
0000
0000
0100
0000
0000
0000
0013
0000
0000
0000
,  // measure 20
0002
0000
0000
0000
2000
0000
0003
0000
3020
0000
0000
0200
0030
0000
0310
0000
,  // measure 21
0120
0000
1030
0100
0010
0001
1000
0001
,  // measure 22
2000
0000
0000
0000
0200
0000
3000
0000
0320
0000
0000
0001
0000
0000
0001
0000
,  // measure 23
0032
0000
0000
1003
0100
0001
0100
2000
,  // measure 24
0002
0000
0000
3003
1001
0000
0000
0100
0002
0000
0000
1003
0000
0000
0200
0000
,  // measure 25
2000
0300
0000
0010
0000
0000
3010
0000
0200
0000
0000
0001
0000
0000
0001
0000
,  // measure 26
0302
0000
0000
0010
0000
0000
0013
0000
0200
0000
0000
1000
0000
0000
1000
0000
,  // measure 27
0000
2300
0000
0000
0000
0000
0000
0000
3001
0000
0000
0000
0010
0000
0000
0000
1000
0000
0000
0000
0010
0000
0000
0000
0001
0000
0000
0000
1000
0000
0000
0000
,  // measure 28
0110
0000
0000
0000
0000
0000
0000
0000
1001
0000
0000
0000
0000
0000
0000
0000
2000
0000
0000
0000
0000
0000
0001
0000
0000
0000
0000
0010
3000
0000
0000
0000
,  // measure 29
1020
0000
0000
0100
0000
0000
0130
0000
0210
0000
0000
0001
0000
0000
0301
0000
,  // measure 30
0102
0000
0000
0000
0003
0000
0100
0000
0002
0000
0000
1000
0000
0000
0013
0000
,  // measure 31
0012
0000
0000
1000
0000
0000
1003
0000
2001
0000
0000
0001
0000
0000
3100
0000
,  // measure 32
1200
0000
0000
0000
0301
0000
0000
0000
1200
0000
0000
0010
0000
0000
0001
0000
,  // measure 33
0320
0000
0000
0002
0030
0000
0013
0000
0021
0000
0000
0100
0000
0000
1030
0000
,  // measure 34
0210
0000
0000
0000
1300
0000
0000
0000
0002
0000
0000
1000
0000
0000
2003
0000
,  // measure 35
0002
0000
3003
0100
0001
0100
1000
0100
,  // measure 36
0001
0000
0000
0000
0000
0000
0000
0000
1001
0000
0000
0000
0000
0000
0000
0000
2000
0000
0000
0000
0000
0000
0001
0000
0000
0000
0000
0100
3000
0000
0000
0000
,  // measure 37
1200
0000
0000
1000
0000
0000
0310
0000
0120
0000
0000
0001
0000
0000
0031
0000
,  // measure 38
0011
0000
0000
0000
1001
0000
0000
0000
0210
0000
0000
0010
0000
0000
0301
0000
,  // measure 39
0102
0000
0000
0100
0000
0000
1003
0000
2001
0000
0000
0010
0000
0000
3010
0000
,  // measure 40
1020
0000
0000
0000
0031
0000
0000
0000
1020
0000
0000
0100
0000
0000
0001
0000
,  // measure 41
0230
0000
0000
0302
0000
0000
0103
0000
0201
0000
0000
0010
0000
0000
1300
0000
,  // measure 42
0120
0000
0000
0000
0031
0000
0000
0000
0200
0000
0000
0320
0000
0000
0230
0000
,  // measure 43
0020
0330
2002
3003
,  // measure 44
1000
0000
0100
0000
0002
0000
0000
0000
2003
0000
0000
3010
0000
0000
0001
0000
,  // measure 45
2001
0000
3000
0001
0010
0002
0000
1003
,  // measure 46
0100
0000
2000
0000
0010
0000
3000
0000
2010
0000
0000
3002
0000
0000
0103
0000
,  // measure 47
0101
0000
0000
2000
0000
0000
3002
0000
0010
0003
0000
0011
0000
0000
0200
0000
,  // measure 48
0020
0000
0000
0330
0110
0000
0000
0000
2001
0000
0000
0001
0000
0000
0001
0000
,  // measure 49
3002
0000
0000
0013
1000
0010
0001
1000
,  // measure 50
0012
0000
0000
0000
1003
0000
0000
0000
2100
0000
0000
0010
0000
0000
3010
0000
,  // measure 51
2020
3030
0022
0033
,  // measure 52
1000
0000
0100
0000
0020
0000
0000
0000
0032
0000
0000
1000
0000
0000
1000
0000
,  // measure 53
2003
0000
0000
3001
0100
0010
1000
0001
,  // measure 54
0200
0000
0000
0000
0301
0000
0000
1000
0020
0000
0000
0100
0000
0000
1000
0000
,  // measure 55
0230
0000
0000
0000
0302
0000
0000
0000
2003
0000
0000
0010
0000
0000
3001
0000
,  // measure 56
1001
0000
0000
0000
0110
0000
0000
0001
0020
0000
0000
0130
0000
0000
2000
0000
,  // measure 57
0001
0000
3001
1000
0100
1000
0001
0100
,  // measure 58
0010
0000
0000
0000
1100
0000
0000
0000
0002
0000
0000
0100
0000
0000
1000
0000
,  // measure 59
0020
0000
0000
0000
0033
0000
0000
1000
0001
0000
0100
0000
1000
0000
0100
0000
,  // measure 60
0001
0000
0000
0000
0012
0000
0000
0000
1000
0000
0000
0010
0000
0000
0103
0000
,  // measure 61
0201
0000
0000
0000
1000
0000
0000
0000
0001
0000
0000
0001
0000
0000
0310
0000
,  // measure 62
0120
0000
0000
0000
0100
0000
0000
0000
1000
0000
0000
0100
0000
0000
1030
0000
,  // measure 63
2010
0000
0000
0000
0001
0000
0000
0000
0100
0000
0000
0010
0000
0000
3001
0000
,  // measure 64
1002
0000
0000
0000
0100
0000
0000
0000
0010
0000
0000
0100
0000
0000
1003
0000
,  // measure 65
2000
0000
0000
0000
0010
0000
0000
0000
0001
0000
0000
3010
0000
0000
0010
0000
,  // measure 66
0200
0000
0000
0000
0010
0000
0000
0000
0001
0000
0300
0010
0000
0000
0002
0000
,  // measure 67
0020
0033
2200
3300
,  // measure 68
0001
0010
0100
0010
0001
0010
0100
1000
,  // measure 69
0202
0303
2020
3030
,  // measure 70
1000
0100
0010
0001
1000
0010
0100
0001
,  // measure 71
2002
0000
0000
0000
,  // measure 72
3003
0000
0000
0000
;
