#TITLE:Brother Louie '98;
#SUBTITLE:;
#ARTIST:Modern Talking feat. Eric Singleton;
#TITLETRANSLIT:;
#SUBTITLETRANSLIT:;
#ARTISTTRANSLIT:;
#CREDIT:;
#BANNER:;
#BACKGROUND:;
#LYRICSPATH:;
#CDTITLE:;
#MUSIC:Brother Louie '98.mp3;
#OFFSET:-7.170;
#SAMPLESTART:31.510;
#SAMPLELENGTH:10.160;
#SELECTABLE:YES;
#BPMS:0.000=118.083;
#STOPS:;
#BGCHANGES:;

//---------------dance-single - ----------------
#NOTES:
     dance-single:
     :
     Hard:
     7:
     0.444,0.402,0.163,0.245,0.061: // measure 1
0000
0000
0000
0000
0000
0000
1000
0001
,  // measure 2
0100
0000
1000
0001
0100
0000
1000
0001
,  // measure 3
0100
0100
0010
1000
0001
0001
1000
0100
,  // measure 4
0010
0000
1000
0100
0010
0000
1000
0100
,  // measure 5
0010
0010
0001
0100
0010
1000
0001
0100
,  // measure 6
0110
0000
1010
0000
1000
0100
0001
0000
,  // measure 7
0001
0100
1000
0010
0100
0001
0010
0000
,  // measure 8
0001
0100
0010
0100
0001
0010
1000
0010
,  // measure 9
0001
1000
0001
1000
0010
0100
0110
0000
,  // measure 10
0010
1000
0100
0010
0100
0000
0011
0000
,  // measure 11
0001
0100
1000
1000
0100
0001
1000
0000
,  // measure 12
0001
0000
0010
0000
0100
0000
0010
0000
0001
0000
1000
0001
1000
0000
0000
0000
,  // measure 13
0220
0000
0000
0000
0330
0000
0010
1000
,  // measure 14
1001
0000
0001
0100
0110
0000
0010
1000
,  // measure 15
0100
1000
0100
1000
0100
0000
0000
0000
0010
0000
0001
0000
0100
0000
0010
0000
,  // measure 16
0110
0000
0010
1000
1001
0000
0001
0010
,  // measure 17
0100
0010
0100
0010
0100
0000
0000
0000
0010
0000
0001
0000
1000
0000
1000
0000
,  // measure 18
2000
0000
3001
0001
0002
0000
0103
0001
,  // measure 19
1000
0001
1000
0001
1000
0000
0000
0000
0001
0000
0010
0000
0100
0000
0010
0000
,  // measure 20
0002
0000
0103
0010
2000
0000
3010
0100
,  // measure 21
0001
1000
0001
1000
0001
0000
0000
0000
1000
0000
0100
0000
0010
0000
0100
0000
,  // measure 22
0010
0010
0020
0000
0001
0000
1000
0000
,  // measure 23
0031
0001
0002
0000
0010
0000
1003
0000
,  // measure 24
0001
0100
1000
0100
0001
0000
1001
0000
,  // measure 25
1000
0100
0010
0002
0000
0000
1003
0001
,  // measure 26
0100
0100
0200
0000
1000
0000
0001
0000
,  // measure 27
0310
0010
0020
0000
1000
0000
0001
0000
,  // measure 28
0130
0010
1000
0001
2000
0000
3020
0000
,  // measure 29
0130
0010
1000
0001
0010
0000
0110
0000
,  // measure 30
1001
0000
1000
0001
0100
0000
0001
1000
,  // measure 31
0100
0001
0100
1000
0001
0000
1000
0010
,  // measure 32
0001
0000
0001
0010
1000
0000
0001
1000
,  // measure 33
0100
0001
0100
1000
0001
0001
1000
0001
,  // measure 34
0200
0000
0310
0100
0002
0000
0013
0100
,  // measure 35
1000
0100
1000
0100
1000
0000
0001
0000
0100
0000
0000
0000
0010
0000
0100
0000
,  // measure 36
0002
0000
0013
0100
2000
0000
3001
1000
,  // measure 37
0001
0100
0001
0100
0001
0000
1000
0000
0010
0000
0010
0000
0100
0000
0000
0000
,  // measure 38
2002
0000
0000
3003
,  // measure 39
2001
0010
0000
0001
,  // measure 40
3100
0100
0200
0000
0000
0000
0310
0001
,  // measure 41
2000
0010
0000
0001
,  // measure 42
3010
0010
0020
0000
0000
0000
0130
0001
,  // measure 43
2000
0010
0001
0010
,  // measure 44
0001
0001
3002
0000
0010
0000
1000
0000
,  // measure 45
0203
1000
0010
0001
,  // measure 46
0010
0000
0010
0000
0310
0000
0000
0000
1000
0000
0000
0001
1000
0000
0001
0000
,  // measure 47
1000
1000
2000
0000
0010
0000
3001
0000
,  // measure 48
0001
0001
0002
0000
0010
0000
1003
0000
,  // measure 49
1000
0100
0001
0100
0010
0000
0110
0000
,  // measure 50
0100
1000
0001
0100
0010
0000
0110
0000
,  // measure 51
0100
0001
0200
0000
0010
0000
0301
0000
,  // measure 52
0001
1000
0200
0000
0010
0000
1300
0000
,  // measure 53
1000
0100
0010
0001
1000
0000
1001
0000
,  // measure 54
0001
0000
0100
0000
0010
0000
1000
0000
0001
0000
0000
0010
0001
0000
0100
0000
,  // measure 55
0110
0000
0010
1000
1001
0001
1001
0000
;

//---------------dance-single - ----------------
#NOTES:
     dance-single:
     :
     Medium:
     5:
     0.346,0.335,0.057,0.098,0.000: // measure 1
0000
0000
0000
0000
0000
0000
1000
0001
,  // measure 2
1000
0000
0001
1000
0001
0000
0100
0010
,  // measure 3
0100
0100
0100
0000
0010
0000
1000
0010
,  // measure 4
1000
0000
0001
0100
0001
0000
1000
0001
,  // measure 5
1000
1000
1000
0000
0001
0000
0010
0000
,  // measure 6
0110
0000
0100
0000
0010
0010
0010
0000
,  // measure 7
0001
0000
1000
0000
0001
0001
0001
0000
,  // measure 8
0100
0001
0100
0000
0010
1000
0010
0000
,  // measure 9
0001
0000
1000
0000
0100
0010
0100
0000
,  // measure 10
0010
0001
1000
0000
0001
0000
0100
0000
,  // measure 11
0010
1000
0100
0000
0010
0100
1000
0000
,  // measure 12
0001
0000
1000
0000
0010
0100
0001
0000
,  // measure 13
2002
0000
0000
0000
3003
0000
1000
0100
,  // measure 14
1000
0000
0001
0100
0001
0000
1000
0000
,  // measure 15
0100
0100
0100
0000
0010
0000
0001
0010
,  // measure 16
0001
0000
1000
0010
0100
0000
0010
0000
,  // measure 17
1000
1000
1000
0000
0001
0000
1000
0001
,  // measure 18
0100
0000
0010
0100
0001
0000
0010
0000
,  // measure 19
0100
0100
0100
0000
0010
0000
0001
1000
,  // measure 20
0001
0000
1000
0010
1000
0000
0010
0000
,  // measure 21
0100
0100
0100
0000
0010
0000
1000
0100
,  // measure 22
0010
0001
0010
0000
0001
0000
0100
0001
,  // measure 23
0100
0010
1000
0000
0001
0000
1000
0000
,  // measure 24
0100
0010
0100
0000
0010
0000
0001
0000
,  // measure 25
1000
0001
1000
0001
0000
0000
0100
0010
,  // measure 26
0100
0010
1000
0000
0010
0000
0100
0001
,  // measure 27
0100
0010
1000
0000
0100
0000
0010
0000
,  // measure 28
0001
0010
0001
0000
1000
0000
0001
0000
,  // measure 29
0100
0010
1000
0001
1000
0000
0001
0000
,  // measure 30
1001
0000
1000
0100
0010
0000
0010
0100
,  // measure 31
1000
0001
1000
0000
0001
0000
0100
0010
,  // measure 32
0100
0000
0010
1000
0010
0000
1000
0010
,  // measure 33
0100
0001
0010
0000
0001
0000
0010
0001
,  // measure 34
0100
0000
0100
0001
0010
0000
0010
0001
,  // measure 35
0100
0010
1000
0000
0001
0000
1000
0100
,  // measure 36
0010
0000
0010
0100
1000
0000
1000
0001
,  // measure 37
0100
0010
1000
0000
0001
0000
0100
0000
,  // measure 38
0220
0000
0000
0330
,  // measure 39
2000
0001
0000
0001
,  // measure 40
3002
1000
0000
1000
,  // measure 41
0203
0001
0000
0001
,  // measure 42
0320
0100
0000
0130
,  // measure 43
0020
0100
1000
0100
,  // measure 44
2030
0001
0010
0001
,  // measure 45
3200
0001
1000
0301
,  // measure 46
0100
1000
0002
0003
,  // measure 47
1000
1000
1000
0000
0001
0000
0100
0000
,  // measure 48
0010
0010
0010
0000
0100
0000
0001
0000
,  // measure 49
1000
0100
0010
0000
0100
0000
1000
0000
,  // measure 50
0001
1000
0001
0100
0010
0000
0100
0010
,  // measure 51
0100
0010
0100
0000
0001
0000
1000
0100
,  // measure 52
1000
0100
1000
0000
0001
0000
0010
0000
,  // measure 53
0100
0010
0001
0010
0001
0000
0100
0000
,  // measure 54
0010
0100
0001
0000
1001
0000
0110
0000
,  // measure 55
1001
0000
0001
1000
0100
0010
0100
0000
;

//---------------dance-single - ----------------
#NOTES:
     dance-single:
     :
     Easy:
     3:
     0.213,0.201,0.057,0.131,0.000: // measure 1
0000
0000
0000
0001
,  // measure 2
0001
1000
1000
0010
,  // measure 3
0100
0100
0000
0001
,  // measure 4
0001
1000
1000
0100
,  // measure 5
0010
0010
0000
0000
,  // measure 6
0100
0000
1000
0001
,  // measure 7
0100
0000
0010
0100
,  // measure 8
0001
0001
0010
0010
,  // measure 9
0100
0100
1000
1000
,  // measure 10
0001
0000
1000
0010
,  // measure 11
1000
0000
0001
0010
,  // measure 12
0001
0000
0100
0010
,  // measure 13
0220
0000
0000
0330
,  // measure 14
1000
0001
1000
0010
,  // measure 15
0100
0200
0000
0300
,  // measure 16
0010
1000
0001
1000
,  // measure 17
0100
0200
0000
0300
,  // measure 18
0010
0001
1000
0001
,  // measure 19
1000
2000
0000
3000
,  // measure 20
0010
0100
0001
0010
,  // measure 21
0001
0002
0000
0003
,  // measure 22
1000
0001
0000
1000
,  // measure 23
0001
0100
0000
0010
,  // measure 24
0100
0001
0000
1000
,  // measure 25
0001
0010
0100
0010
,  // measure 26
0001
1000
0000
0010
,  // measure 27
1000
0100
0000
0010
,  // measure 28
0100
1000
0000
0010
,  // measure 29
1000
0001
0100
0010
,  // measure 30
0110
0000
1000
0000
,  // measure 31
1000
0001
1000
0001
,  // measure 32
0100
0000
0010
0000
,  // measure 33
0010
0100
0010
1000
,  // measure 34
1000
0001
0001
0100
,  // measure 35
0010
0010
0000
0100
,  // measure 36
0100
0001
0001
1000
,  // measure 37
0100
0100
0000
0000
,  // measure 38
0220
0000
0000
0330
,  // measure 39
2000
0000
0010
0000
,  // measure 40
0002
0000
3003
0000
,  // measure 41
0002
0000
0100
0000
,  // measure 42
2000
0000
3003
0000
,  // measure 43
1000
0010
0100
0002
,  // measure 44
2000
0000
0000
3003
,  // measure 45
0001
0010
0100
2000
,  // measure 46
0002
0000
0000
3003
,  // measure 47
1000
0001
0000
0100
,  // measure 48
0001
0100
0000
0010
,  // measure 49
1000
0100
0000
0010
,  // measure 50
0100
1000
0001
1000
,  // measure 51
0001
1000
0000
0001
,  // measure 52
0100
0010
0000
0010
,  // measure 53
0100
0001
0000
0010
,  // measure 54
0001
1000
0010
0100
,  // measure 55
0110
1001
1001
1001
;

//---------------dance-single - ----------------
#NOTES:
     dance-single:
     :
     Beginner:
     1:
     0.128,0.134,0.090,0.000,0.000: // measure 1
0000
0000
0000
1000
,  // measure 2
1000
0000
0001
0000
,  // measure 3
0100
0100
0000
0010
,  // measure 4
0010
0000
0100
0000
,  // measure 5
0001
0001
0000
0000
,  // measure 6
1001
0000
1000
0000
,  // measure 7
0100
0000
0010
0000
,  // measure 8
0100
0000
0100
0000
,  // measure 9
0010
0000
0010
0000
,  // measure 10
0001
0000
0000
0000
,  // measure 11
1000
0000
0001
0000
,  // measure 12
0100
0000
0010
0000
,  // measure 13
0110
0000
0000
0000
,  // measure 14
1001
0000
0001
0000
,  // measure 15
0100
0100
0000
0000
,  // measure 16
0010
0000
0100
0000
,  // measure 17
0001
0001
0000
0000
,  // measure 18
1000
0000
0100
0000
,  // measure 19
0010
0010
0000
0000
,  // measure 20
0100
0000
1000
0000
,  // measure 21
0001
0001
0000
0000
,  // measure 22
0001
0000
1000
0000
,  // measure 23
0010
0000
0100
0000
,  // measure 24
0001
0000
0010
0000
,  // measure 25
0100
0000
0000
0000
,  // measure 26
0010
0000
0001
0000
,  // measure 27
1000
0000
0010
0000
,  // measure 28
0100
0000
0001
0000
,  // measure 29
1000
0000
0000
0000
,  // measure 30
1001
0000
0001
0000
,  // measure 31
0100
0100
0000
0000
,  // measure 32
0010
0000
0100
0000
,  // measure 33
0001
0001
0000
1000
,  // measure 34
1000
0000
0001
0000
,  // measure 35
0100
0100
0000
0010
,  // measure 36
0010
0000
0100
0000
,  // measure 37
0001
0001
0000
0000
,  // measure 38
1001
0000
0000
0000
,  // measure 39
1001
0000
0000
0000
,  // measure 40
1000
0000
0000
0000
,  // measure 41
1001
0000
0000
0000
,  // measure 42
0001
0000
0000
0000
,  // measure 43
0100
0000
0000
0000
,  // measure 44
0001
0000
0000
0000
,  // measure 45
1000
0000
0000
0000
,  // measure 46
0100
0000
0000
0000
,  // measure 47
0110
0000
0010
0000
,  // measure 48
0001
0000
1000
0000
,  // measure 49
0001
0000
0100
0000
,  // measure 50
0010
0000
0000
0000
,  // measure 51
0100
0000
0001
0000
,  // measure 52
1000
0000
0100
0000
,  // measure 53
0010
0000
0001
0000
,  // measure 54
1000
0000
0001
0000
,  // measure 55
1001
0000
1001
1001
;
