#TITLE:BELIEVE IN FIREMAN;
#SUBTITLE:;
#ARTIST:FIREMAN;
#TITLETRANSLIT:;
#SUBTITLETRANSLIT:;
#ARTISTTRANSLIT:;
#CREDIT:;
#BANNER:;
#BACKGROUND:;
#LYRICSPATH:;
#CDTITLE:;
#MUSIC:18_-_believe_in_fireman.ogg;
#OFFSET:0.000;
#SAMPLESTART:49.500;
#SAMPLELENGTH:12.000;
#SELECTABLE:YES;
#BPMS:0.000=159.840;
#STOPS:;
#BGCHANGES:;

//---------------dance-single - ----------------
#NOTES:
     dance-single:
     :
     Easy:
     5:
     0.372,0.440,0.486,0.000,0.000:
0000
0000
0000
0000
,
0000
0000
0000
0000
,
0000
0000
0000
0000
,
0000
0000
0000
0000
,
0000
0000
0000
0000
,
0000
0000
0000
0000
,
0000
0000
0000
0000
,
0000
0000
0000
0000
,
0000
0000
0000
0000
,
1000
0100
0001
1000
,
0001
0010
1000
0001
,
1000
0010
0001
1000
,
0001
0100
1000
0001
,
1000
0010
1001
1001
,
0001
0100
1001
1001
,
1000
0100
1001
1001
,
0001
0010
1001
1001
,
0100
1000
0001
0001
,
0010
0001
1000
1000
,
0100
1000
0010
0010
,
0100
0001
0010
0010
,
0001
1000
0100
0100
,
1000
0001
0100
0100
,
0001
0010
0001
0001
,
1000
0100
1000
1000
,
0001
0100
0110
0110
,
1000
0100
0110
0110
,
1000
0001
1001
1001
,
0001
1000
1001
1001
,
1000
0010
1010
1010
,
0001
0100
0101
0101
,
1000
0100
1100
1100
,
0001
0010
0011
0011
,
1001
0000
0000
0000
,
1000
0100
0010
0001
,
1000
0010
0100
0001
,
0100
0010
1000
0100
,
1000
0001
0100
0010
,
0100
0001
0100
1000
,
0100
0001
0010
1000
,
0100
1000
1001
0110
,
1001
0000
1010
0011
,
1001
1000
0100
1000
,
0010
0100
0001
0010
,
0001
1000
0100
1000
,
0010
0100
0001
0010
,
0001
0010
1000
0010
,
0001
0010
1000
0100
,
0001
0100
1001
0110
,
1001
0000
0000
0000
,
1000
0010
0100
0100
,
0001
1000
0100
0100
,
1000
0010
0100
0100
,
0001
0010
0100
0100
,
1000
0001
0100
0100
,
0001
1000
0010
0010
,
0100
0001
0010
0010
,
0100
1000
0010
0010
,
0100
0001
1001
1100
,
0001
1000
1001
0101
,
0001
0010
0110
1100
,
1000
0100
0110
0011
,
0001
1000
1001
0110
,
1000
0001
0110
1001
,
1000
0010
0110
0101
,
0001
1000
1100
0101
,
1001
0000
0000
0000
;

//---------------dance-single - ----------------
#NOTES:
     dance-single:
     :
     Medium:
     6:
     0.459,0.472,0.743,0.000,0.000: // measure 1
0000
0000
0000
0000
,  // measure 2
0000
0000
0000
0000
,  // measure 3
0000
0000
0000
0000
,  // measure 4
0000
0000
0000
0000
,  // measure 5
0000
0000
0000
0000
,  // measure 6
0000
0000
0000
0000
,  // measure 7
0000
0000
0000
0000
,  // measure 8
0000
0000
0000
0000
,  // measure 9
0000
0000
0000
0000
,  // measure 10
1000
0001
1001
0110
,  // measure 11
1000
0001
1100
0011
,  // measure 12
1000
0001
0101
1100
,  // measure 13
0010
1000
1001
1100
,  // measure 14
1000
0001
0011
1001
,  // measure 15
1000
0100
1010
0101
,  // measure 16
0010
0001
0100
1000
,  // measure 17
0100
1000
0010
0100
0010
1000
0100
0000
,  // measure 18
1000
0001
0110
0110
,  // measure 19
0001
0000
1000
0000
0100
1000
0010
0000
,  // measure 20
0100
0001
1001
1001
,  // measure 21
1000
0000
0100
0000
1000
0010
0100
0000
,  // measure 22
0001
1000
1100
1100
,  // measure 23
1000
0000
0001
0000
0100
0001
0010
0000
,  // measure 24
0001
0100
0101
1100
,  // measure 25
1000
0010
0011
1010
,  // measure 26
1000
0001
0100
0000
1001
0000
1001
0000
,  // measure 27
0100
1000
1010
1010
,  // measure 28
0001
0100
0010
0000
0101
0000
0101
0000
,  // measure 29
0010
1000
1100
0101
,  // measure 30
0010
0001
1000
0000
1100
0000
1001
0000
,  // measure 31
0010
0001
0101
1001
,  // measure 32
0100
1000
0010
0000
0100
0010
1000
0000
,  // measure 33
0100
1000
0001
0000
0010
0001
1000
0000
,  // measure 34
1001
0000
0000
0000
,  // measure 35
1000
1000
0001
0000
1000
1000
0001
0000
,  // measure 36
0010
0001
0100
1000
,  // measure 37
0001
0001
1000
0000
0001
0001
1000
0000
,  // measure 38
0010
0001
0100
1000
,  // measure 39
0010
1000
1000
0000
1100
0000
1100
0000
,  // measure 40
0001
0010
0010
0000
0011
0000
0011
0000
,  // measure 41
1000
0001
0100
0000
0001
0000
1000
0000
,  // measure 42
1001
0000
1000
0010
0100
0000
0010
1000
,  // measure 43
0100
0100
0100
0000
0011
0000
1010
0000
,  // measure 44
1000
0000
0001
0100
0010
0000
0100
0001
,  // measure 45
0010
0010
0010
0000
1001
0000
0110
0000
,  // measure 46
1000
0000
0100
1000
0010
0000
0100
0100
,  // measure 47
0100
0000
1001
0000
0110
0000
0100
0100
,  // measure 48
0100
0000
0110
0000
1001
0000
0010
1000
,  // measure 49
0100
0000
1000
0001
0100
0000
0001
0010
,  // measure 50
1001
0000
0000
0000
,  // measure 51
1000
0001
1100
0101
,  // measure 52
1000
0001
0101
1100
,  // measure 53
0001
1000
0110
1001
,  // measure 54
1000
0001
0110
1001
,  // measure 55
0010
0001
0011
1010
,  // measure 56
1000
0100
1100
0101
,  // measure 57
0001
1000
1001
0110
,  // measure 58
1000
0001
0110
1001
,  // measure 59
0100
1000
1010
1010
,  // measure 60
0001
0100
0101
0101
,  // measure 61
0010
0001
1001
1001
,  // measure 62
1000
0100
1100
1100
,  // measure 63
0010
0001
0101
0011
,  // measure 64
1000
0010
1010
1100
,  // measure 65
1000
0010
0001
0100
,  // measure 66
1000
0100
0010
0001
1000
0100
0010
0001
,  // measure 67
1001
0000
0000
0000
;

//---------------dance-single - ----------------
#NOTES:
     dance-single:
     :
     Hard:
     8:
     0.539,0.566,0.210,0.000,0.000:
0000
0000
0000
0000
,
0000
0000
0000
0000
,
0000
0000
0000
0000
,
0000
0000
0000
0000
,
0000
0000
0000
0000
,
0000
0000
0000
0000
,
0000
0000
0000
0000
,
0000
0000
0000
0000
,
0000
0000
0000
0000
,
1000
0100
0010
0001
0000
1000
0001
0000
,
0001
0010
0100
1000
0000
0001
1000
0000
,
1000
0010
0100
0001
0000
1000
0001
0000
,
0001
0100
0010
1000
0000
0001
1000
0000
,
0100
0010
1000
0001
0000
0100
0010
0000
,
0010
0100
0001
1000
0000
0100
0010
0000
,
0001
0010
0001
0100
0000
0010
1000
0000
,
0100
1000
0010
0001
0010
1000
0100
0010
,
0011
0000
1010
0000
0010
0001
0001
0000
,
0010
0001
0100
0010
1000
1000
0100
0000
,
0001
0001
0100
0000
0010
0010
1000
0000
,
0100
1000
0010
0100
0010
1000
1000
0000
,
0100
1000
1001
0000
0010
0001
1001
0000
,
0100
0000
1000
0100
0001
0100
0010
0000
,
0001
0100
0010
0010
1000
0100
1000
0000
,
0001
0010
0100
0100
0010
0001
1000
0000
,
0100
1000
1010
0000
0100
0001
0011
0000
,
0001
1000
0100
1000
1000
0001
0100
0000
,
0001
0100
0010
0100
0010
1000
0100
1000
,
0001
0100
1000
0100
0001
0100
1000
0000
,
0100
0000
0101
0000
0001
0010
0010
0000
,
1010
0000
0011
0000
0001
0100
0100
0000
,
0010
1000
0100
1000
0001
0100
0010
0100
,
0010
0001
0010
1000
0010
0001
0010
1000
,
1001
0000
0000
0000
,
1000
0010
0100
0010
1000
0010
0100
0010
,
1000
0100
0010
0100
1000
0100
0010
0100
,
0010
0001
0010
0100
0010
0001
0010
0100
,
0010
0001
0100
0001
0010
0001
0100
0001
,
1000
0010
1000
0001
1000
0100
1000
0001
,
0100
0001
0100
0010
0100
0001
0100
0010
,
1000
0100
1000
0100
0010
0001
0010
0001
,
1001
0000
0100
0010
0100
0100
1001
0000
,
0100
1000
0010
0100
0010
1000
0100
1000
,
0010
0100
0001
0010
0001
0100
0010
0100
,
0001
0010
0100
0010
0001
1000
0100
1000
,
0100
0010
0100
1000
0001
1000
0100
1000
,
0010
0100
0001
1000
0100
1000
0010
0100
,
0001
0010
0100
1000
0100
1000
0010
0100
,
0001
1000
0001
1000
0100
0010
0100
0010
,
1001
0000
0000
0000
,
1000
0100
1000
1000
0000
0001
0100
0000
,
0001
1000
0100
0100
0000
1000
0001
0000
,
1000
0010
0100
0100
0000
0010
1000
0000
,
0100
0010
0001
0001
0000
0010
0100
0000
,
1000
0001
0100
0100
0000
0001
1000
0000
,
0100
1000
0001
0001
0000
0100
0001
0000
,
0010
0001
0100
0100
0000
0010
1000
0000
,
0100
1000
0010
0010
0000
0100
0001
0000
,
0010
0001
1000
1000
0000
0001
1001
0000
,
0010
0001
0010
0010
0000
0100
1100
0000
,
1000
0001
0100
0100
0000
0001
1001
0000
,
1000
0001
0010
0010
0000
0001
0101
0000
,
0010
1000
0100
0100
0000
1000
1010
0000
,
0100
0001
0010
0010
0000
0001
0011
0000
,
0100
1000
0100
1100
0000
0010
0011
0000
,
0001
0100
0010
1000
0001
0100
0010
1000
,
1001
0000
0000
0000
;
