#TITLE:2 Become 1;
#SUBTITLE:;
#ARTIST:Spice Girls;
#TITLETRANSLIT:;
#SUBTITLETRANSLIT:;
#ARTISTTRANSLIT:;
#CREDIT:;
#BANNER:[Retro Week] - 2 Become 1.png;
#BACKGROUND:[Retro Week] - 2 Become 1-bg.png;
#LYRICSPATH:;
#CDTITLE:;
#MUSIC:[Retro Week] - 2 Become 1.mp3;
#OFFSET:0.405;
#SAMPLESTART:55.100;
#SAMPLELENGTH:12.000;
#SELECTABLE:YES;
#BPMS:0.000=72.000;
#STOPS:;
#BGCHANGES:0.000=[Retro Week] - 2 Become 1.avi=1.000=1=1=0,
99999=-nosongbg-=1.000=0=0=0 // don't automatically add -songbackground-
;

//---------------dance-single - Copied from Copied f----------------
#NOTES:
     dance-single:
     Copied from Copied f:
     Hard:
     7:
     0.357,0.382,0.296,0.112,0.286:
0000
0000
0000
0000
,
0000
0000
0000
0000
,
0000
0000
0000
0000
,
0000
0000
0000
0000
,
0000
0000
0000
0000
0000
0000
0001
0100
,
0010
0000
1000
0010
0100
0001
1000
0000
0001
1000
0000
0000
1000
0000
0001
0000
,
0100
0000
0001
0010
0001
1000
0100
0000
0010
0100
0000
0000
1000
0000
0100
0000
,
0010
0000
0002
0000
0000
0000
1003
0000
0100
1000
0000
0000
0001
0000
0010
0000
,
0100
0000
2000
0000
0000
0000
3001
0000
0100
0001
0000
0000
0001
0000
0100
0000
,
1000
0000
0100
0010
1000
0001
1000
0000
0001
1000
0000
0000
1000
0000
0010
0000
,
0001
0000
0010
0100
0001
1000
0100
0000
1000
0010
0000
0000
1000
0000
0010
0000
,
0100
0000
0002
0000
0000
0000
1003
0000
0001
1000
0000
0000
0001
0000
0100
0000
,
0010
0000
2000
0000
0000
0000
3001
0010
0100
1000
0001
1000
1001
0000
0001
0100
,
0010
1000
0001
0000
0101
0000
0010
0000
1010
0000
2002
0000
3003
0000
1000
0010
,
0100
0000
0000
0000
0001
0100
0010
0000
0000
1000
0001
1000
0000
0001
0100
0010
,
0000
1000
0001
1000
0000
0100
0010
0001
0000
0000
1000
0000
1001
0000
1010
0000
,
0101
0210
0000
0010
0310
0000
0001
1000
,
1010
0000
0010
0100
0001
1000
0100
0010
0001
0000
1000
0002
0000
0000
1003
0010
,
0100
0000
0001
0000
1001
0000
0101
0000
0110
0000
1010
0010
1000
0100
1000
0001
,
0020
0000
0000
0000
0000
0000
0031
1000
0100
0000
1000
0000
1001
0000
0001
0100
,
0010
1000
1010
1001
0011
1100
0001
0100
,
1010
0000
1000
0010
0100
0001
1000
0100
0010
0000
0001
0200
0000
0000
0301
0100
,
0010
0000
0100
0000
0101
0000
1010
0000
0110
0000
1001
1000
0100
1000
0010
0100
,
0002
0000
0000
0000
0000
0000
0103
0010
1000
0000
0100
0000
0011
0000
0001
1000
,
0100
1000
1100
1010
0101
1001
0001
0100
,
1000
0000
0100
0001
1000
0001
0010
0000
0001
1000
0000
0000
1000
0000
0010
0000
,
0001
0000
0010
0100
0001
1000
0001
0000
0010
0001
0000
0000
1001
0000
0000
0000
;

//---------------dance-single - ----------------
#NOTES:
     dance-single:
     :
     Medium:
     4:
     0.230,0.232,0.102,0.184,0.000:
0000
0000
0000
0000
,
0000
0000
0000
0000
,
0000
0000
0000
0000
,
0000
0000
0000
0000
,
0000
0000
0000
0000
0000
0000
1000
0100
,
1000
0000
0001
0100
0110
0000
0010
1000
,
0001
0000
0010
0001
0011
0000
0001
0100
,
0010
2000
0000
3002
0000
0000
1003
0100
,
0010
0000
0002
0000
0000
0000
0200
0003
0000
0000
0000
0000
0310
0000
0010
0000
,
1000
0100
0010
0001
1001
0000
0001
0001
,
0100
0010
1000
0100
1100
0000
1000
0100
,
0010
0002
0000
0203
0000
0000
0310
1000
,
0001
0200
0000
0320
0000
0000
1030
0100
,
0010
0001
1000
0001
0101
0101
0000
1000
,
1000
0000
1001
1001
0000
0000
0001
0100
,
0001
0000
1000
0100
1000
0000
0010
0100
,
0001
2000
0000
0002
0000
3003
1000
0100
,
0010
0001
1000
0100
0010
0001
0200
0000
,
0310
0000
2000
0000
3001
0000
1000
0010
,
0100
0001
1000
0010
0100
0001
2000
0000
,
3100
0000
0020
0000
0031
0000
0001
0001
,
1000
0010
0100
0100
0001
1000
0020
0000
,
0130
0000
0002
0000
1003
0000
1000
0100
,
0100
0010
0001
0100
0100
0001
0020
0000
,
0031
0000
0002
0000
0103
0000
0010
1000
,
0100
0000
0010
0001
1001
0000
0001
0100
,
0010
0000
1000
0100
0010
0000
1001
0000
;

//---------------dance-single - ----------------
#NOTES:
     dance-single:
     :
     Easy:
     1:
     0.103,0.109,0.010,0.010,0.000:
0000
0000
0000
0000
,
0000
0000
0000
0000
,
0000
0000
0000
0000
,
0000
0000
0000
0000
,
0001
0000
0000
1000
,
1000
0000
1000
0001
,
0001
0000
0001
0100
,
0100
0000
0100
0010
,
0010
0000
0010
1000
,
0100
0000
0100
0010
,
0001
0000
0001
1000
,
0001
1000
1000
0001
,
1000
1000
0001
0100
,
0001
0100
0001
0000
,
1000
0000
0001
0000
,
1000
0000
0100
0000
,
1000
0000
0100
0010
,
0010
0020
0010
0000
,
0010
0000
0010
0001
,
0001
0001
0001
0001
,
0001
0000
0001
0100
,
0100
0100
0100
0100
,
0100
0000
0100
0010
,
0010
0010
0010
0010
,
0010
0000
0010
1000
,
0100
0000
0100
0000
,
0010
0000
0010
1001
;
