#TITLE:You Are A Pirate;
#SUBTITLE:;
#ARTIST:AleStorm;
#TITLETRANSLIT:;
#SUBTITLETRANSLIT:;
#ARTISTTRANSLIT:;
#CREDIT:;
#BANNER:bn.PNG;
#BACKGROUND:bg.PNG;
#LYRICSPATH:;
#CDTITLE:;
#MUSIC:You Are A Pirate.ogg;
#OFFSET:-0.437;
#SAMPLESTART:4.020;
#SAMPLELENGTH:16.420;
#SELECTABLE:YES;
#BPMS:0.000=126.700;
#STOPS:;
#BGCHANGES:;

//---------------dance-single - ----------------
#NOTES:
     dance-single:
     :
     Hard:
     8:
     0.608,0.559,0.333,0.000,0.983:
0000
0000
0000
0000
,
0000
0000
0000
0000
,
1100
0000
0000
0011
0000
0000
0001
0100
0010
1000
0000
0000
,
0100
1000
0010
0100
0001
0010
0100
1000
0001
0010
0000
0000
,
0001
0100
0010
1000
0100
0001
0100
1000
0010
0100
0000
0000
,
0101
0000
0000
0011
0000
0010
0100
0000
1000
0010
0000
0000
,
1010
0000
0000
0101
0000
0000
0001
0010
0100
1000
0000
0000
,
0010
1000
0001
0010
0001
1000
0100
1000
0001
0010
0000
0000
,
0001
0100
0010
1000
0100
0010
0001
1000
0010
1000
0000
0000
,
1010
0000
0000
0110
0000
0100
0001
0000
0010
0100
0000
0000
,
1001
0000
0000
1001
0000
0000
0010
0100
0010
0100
0000
0000
,
0010
0000
0000
1000
0010
1000
0010
0000
0100
0001
0000
0010
,
0001
0000
1000
0100
0000
0010
0001
0010
0001
0100
0000
0010
,
1000
0000
0000
0001
1000
0001
1000
0000
0010
0100
0000
0001
,
0010
0000
0100
1000
0000
0010
0100
0001
0100
0010
1000
0010
,
1000
0000
0000
0001
0010
0001
0010
0000
0001
0100
0000
0010
,
1000
0100
0000
0010
0001
0000
1000
0010
0000
0100
0001
0000
,
1001
0000
0000
0001
1000
0001
1000
0000
0010
1000
0000
0100
,
0010
0000
0001
0100
0000
0010
1000
0001
1000
0001
0000
0000
,
1001
0000
0000
1100
0000
0000
1000
0010
0100
0001
0000
0000
,
0010
0001
1000
0100
1000
0001
0010
0001
0100
0010
0000
0000
,
1000
0100
1000
0001
0100
0001
1000
0010
1000
0001
0000
0000
,
0011
0000
0000
0110
0000
0100
1000
0000
0010
0100
0001
0100
,
0001
0000
0000
0011
0000
0000
0010
0100
1000
0001
0000
0000
,
0010
0001
0100
0010
1000
0100
0010
0001
1000
0100
0000
0000
,
0010
0001
0100
0010
1000
0001
0010
0001
0100
0010
0000
0000
,
0110
0000
0000
1010
0000
1000
0100
0000
0010
0001
0000
0000
,
1001
0000
0000
1100
0000
0000
1000
0010
0100
0001
0000
0000
,
0010
0000
0000
0001
0100
0001
0100
0000
0010
0100
0000
0010
,
1000
0000
0100
0010
0000
0001
1000
0000
0010
1000
0000
0001
,
0010
0000
0000
0100
1000
0100
1000
0000
0100
0010
0000
0001
,
1000
0000
0010
1000
0000
0001
0010
0001
0010
0001
0000
0000
,
1000
0000
0000
0001
0100
0010
1000
0000
0100
1000
0000
0010
,
0100
0000
0001
0010
0000
0100
1000
0001
0010
0001
0000
0000
,
1000
0000
0000
0001
0100
0001
0100
0000
0010
1000
0000
0100
,
0010
0000
0001
1000
0000
0010
1000
0001
0100
0001
0000
0000
,
0011
0000
0000
1100
0000
0000
1000
0010
0100
0001
0000
0000
,
0010
0001
0100
0010
1000
0100
0010
0001
1000
0100
0000
0000
,
1000
0010
0100
0001
0010
1000
0010
0001
0100
0010
0000
0000
,
1010
0000
0000
1100
0000
0100
0010
0000
0001
0100
0000
0000
,
0101
0000
0000
1010
0000
0000
1000
0100
0010
0001
0000
0000
,
0100
0001
1000
0100
1000
0001
0010
0001
1000
0100
0000
0000
,
1000
0010
0100
0001
0010
0100
1000
0001
0100
0001
0000
0000
,
0101
0000
0000
0110
0000
0010
1000
0000
0100
0010
0000
0000
,
0001
0010
0100
1000
0100
0010
0001
0010
0100
1000
0000
0000
,
1100
0000
0000
0011
0000
0000
0001
0100
0001
0010
0000
0000
;

//---------------dance-single - ----------------
#NOTES:
     dance-single:
     :
     Beginner:
     1:
     0.097,0.127,0.000,0.000,0.000:
0000
0000
0000
0000
,
0000
0000
0000
0000
,
1000
0000
0000
0000
,
0001
0000
0000
0000
,
0010
0000
0000
0000
,
0001
0000
0001
0000
,
0001
0000
0000
0000
,
0010
0000
0000
0000
,
0100
0000
0000
0000
,
1000
0000
1000
0000
,
1000
0000
0000
0000
,
0010
0000
0000
0000
,
1000
0000
1000
0000
,
1000
0000
0000
0000
,
0001
0000
0001
0000
,
0001
0000
0000
0000
,
0010
0000
0010
0000
,
0010
0000
0000
0000
,
0100
0000
0100
0000
,
0100
0000
0000
0000
,
1000
0000
0000
0000
,
0010
0000
0000
0000
,
0100
0000
0100
0000
,
0100
0000
0000
0000
,
0001
0000
0000
0000
,
0010
0000
0000
0000
,
0001
0000
0001
0000
,
0001
0000
0000
0000
,
1000
0000
0000
0000
,
0010
0000
0010
0000
,
0010
0000
0000
0000
,
0100
0000
0100
0000
,
0100
0000
0000
0000
,
0001
0000
0001
0000
,
0001
0000
0000
0000
,
1000
0000
1000
0000
,
1000
0000
0000
0000
,
0010
0000
0000
0000
,
0100
0000
0000
0000
,
0001
0000
0001
0000
,
0001
0000
0000
0000
,
0010
0000
0000
0000
,
0100
0000
0000
0000
,
1000
0000
1000
0000
,
1000
0000
0000
0000
,
0001
0001
0001
0001
;

//---------------dance-single - ----------------
#NOTES:
     dance-single:
     :
     Easy:
     3:
     0.203,0.305,0.044,0.000,0.000:
0000
0000
0000
0000
,
0000
0000
0000
0000
,
1000
0000
0100
0000
,
1000
0010
1000
0010
,
1000
0000
0010
0000
,
0100
0001
0010
0000
,
0100
0000
1000
0000
,
0010
1000
0001
0010
,
0001
0000
0100
0000
,
0010
1000
0100
0010
,
0001
0000
1000
1000
,
1000
0000
0010
0000
,
0100
0001
0010
0100
,
1000
0000
0010
0000
,
1000
0001
0010
0000
,
0001
0000
0100
0000
,
0010
1000
0100
0001
,
0100
0000
0010
0000
,
0100
0001
0010
0000
,
0100
0000
1000
0000
,
0010
1000
0001
0010
,
0001
0000
0100
0000
,
0010
1000
0100
0000
,
0001
0000
0100
0000
,
1000
0010
0100
0001
,
0010
0000
0001
0000
,
0100
0010
1000
0000
,
0001
0000
1000
0000
,
0010
0000
1000
0000
,
0010
0100
0001
0010
,
0001
0000
0100
0000
,
0010
1000
0001
0000
,
0010
0000
0001
0000
,
0100
0010
1000
0100
,
0001
0000
0100
0000
,
1000
0010
0100
0000
,
0001
0000
0010
0000
,
0100
1000
0001
0010
,
0001
0000
0100
0000
,
0010
1000
0100
0000
,
0010
0000
0001
0000
,
1000
0010
1000
0001
,
0010
0000
0001
0000
,
0100
0010
1000
0000
,
0001
1000
0010
0100
,
0110
0110
0110
0110
;

//---------------dance-single - ----------------
#NOTES:
     dance-single:
     :
     Medium:
     4:
     0.293,0.305,0.178,0.000,0.011: // measure 1
0000
0000
0000
0000
,  // measure 2
0000
0000
0000
0000
,  // measure 3
1000
0100
0010
0001
,  // measure 4
1000
0010
0100
0001
,  // measure 5
1000
0100
0001
0100
,  // measure 6
1000
0010
0001
0000
,  // measure 7
0010
1000
0100
0010
,  // measure 8
0001
0100
0010
1000
,  // measure 9
0001
0010
0001
1000
,  // measure 10
0100
1000
0001
0000
,  // measure 11
0010
0001
0100
0110
,  // measure 12
0010
1000
0100
0110
,  // measure 13
0010
0001
1000
0010
,  // measure 14
1000
0001
0010
0011
,  // measure 15
0001
0100
0010
0000
,  // measure 16
1000
0100
0001
0101
,  // measure 17
0100
1000
0010
0100
,  // measure 18
0001
0010
0001
0000
,  // measure 19
0011
0110
1100
0000
,  // measure 20
0010
1000
0100
0001
,  // measure 21
0100
1000
0010
0100
,  // measure 22
0001
0010
0001
0100
,  // measure 23
0010
1000
0100
0000
,  // measure 24
0010
0001
1000
0010
,  // measure 25
1000
0001
0010
0001
,  // measure 26
0100
0010
1000
0100
,  // measure 27
0001
0100
1000
0000
,  // measure 28
0010
1000
0001
0011
,  // measure 29
0001
0100
0010
1010
,  // measure 30
0010
1000
0100
0010
,  // measure 31
0001
1000
0010
1010
,  // measure 32
0010
0100
0001
0011
,  // measure 33
0001
0100
0010
0110
,  // measure 34
0010
1000
0100
0001
,  // measure 35
0100
1000
0010
0110
,  // measure 36
0100
0001
0010
0011
,  // measure 37
0010
0100
1000
0010
,  // measure 38
1000
0001
0010
0001
,  // measure 39
0100
0010
1000
0100
,  // measure 40
0001
0100
1000
0000
,  // measure 41
0010
0100
0001
0010
,  // measure 42
0001
0100
0010
1000
,  // measure 43
0100
0001
0100
1000
,  // measure 44
0010
0100
0001
0000
,  // measure 45
0010
0100
1000
0010
,  // measure 46
0110
0000
0000
0110
0000
0000
0100
0010
0100
0010
0000
0000
;
