#TITLE:UR GOING 2 LOVE ME [sparta remix];
#SUBTITLE:;
#ARTIST:Mash-up by zonic14game;
#TITLETRANSLIT:;
#SUBTITLETRANSLIT:;
#ARTISTTRANSLIT:;
#CREDIT:348 with Timer Rabbit;
#BANNER:UR GOING 2 LOVE ME [sparta remix] Banner.png;
#BACKGROUND:UR GOING 2 LOVE ME [sparta remix] Background.png;
#LYRICSPATH:;
#CDTITLE:348 with Timer Rabbit.png;
#MUSIC:UR GOING 2 LOVE ME [sparta remix].mp3;
#OFFSET:-1.551;
#SAMPLESTART:4.979;
#SAMPLELENGTH:15.000;
#SELECTABLE:YES;
#BPMS:0.000=70.000,4.000=140.000;
#STOPS:20.000=0.429
,21.000=0.429
,22.000=0.429
,23.000=0.429
,72.000=0.214
,72.500=0.214
,73.000=0.429
,74.000=0.214
,74.500=0.214
,75.000=0.429
,76.000=0.214
,76.500=0.214
,77.000=0.429
,78.000=0.214
,78.500=0.214
,79.000=0.429
,112.000=0.643
,112.500=0.429
,113.500=0.643
,114.000=0.429
,115.000=0.643
,115.500=0.429
,116.500=0.643
,117.000=0.429
,118.000=0.214
,118.500=0.214
,119.000=0.214
,119.500=0.214
,120.000=0.214
,120.500=0.214
,121.000=0.214
,121.500=0.214
,122.000=0.429
,123.000=0.429
;
#BGCHANGES:;

//---------------dance-single - ----------------
#NOTES:
     dance-single:
     :
     Beginner:
     2:
     0.125,0.153,0.000,0.039,0.000: // measure 1
0000
0000
0000
0000
,  // measure 2
1000
0000
0100
0000
,  // measure 3
1000
0000
0000
0000
,  // measure 4
0001
0000
0010
0000
,  // measure 5
0001
0000
0000
0000
,  // measure 6
0200
0000
0000
0000
,  // measure 7
0310
0000
1000
0000
,  // measure 8
0001
0000
0100
0000
,  // measure 9
0001
0000
0010
0000
,  // measure 10
0100
0000
1000
0000
,  // measure 11
0010
0000
1000
0000
,  // measure 12
0010
0000
0000
0000
,  // measure 13
0100
0000
0001
0000
,  // measure 14
0100
0000
0000
0000
,  // measure 15
0001
0000
0100
0000
,  // measure 16
0001
0000
0000
0000
,  // measure 17
1000
0000
0010
0000
,  // measure 18
1000
0000
0000
0000
,  // measure 19
0002
0000
0000
0000
,  // measure 20
2003
0000
0000
0000
,  // measure 21
3010
0000
0000
0000
,  // measure 22
1000
0000
0001
0000
,  // measure 23
1000
0000
0000
0000
,  // measure 24
0001
0000
0100
0000
,  // measure 25
0001
0000
0000
0000
,  // measure 26
1000
0000
1000
0000
,  // measure 27
0010
0000
0000
0000
,  // measure 28
0100
0000
0100
0000
,  // measure 29
0020
0000
0000
0000
,  // measure 30
0000
0030
0020
0000
,  // measure 31
0000
0000
0000
0000
,  // measure 32
1030
0000
0001
0000
,  // measure 33
1000
0000
0000
0000
,  // measure 34
0001
0000
1000
0000
,  // measure 35
0010
0000
0000
0000
,  // measure 36
0100
0000
0010
0000
,  // measure 37
1000
1000
0000
0001
,  // measure 38
0001
0000
1000
0000
,  // measure 39
0010
0010
0000
0100
,  // measure 40
0100
0000
0010
0000
,  // measure 41
1000
0000
1000
0000
,  // measure 42
1000
0000
0000
0001
,  // measure 43
0001
0000
0001
0000
,  // measure 44
0001
0000
0000
0100
,  // measure 45
0010
0000
0000
0000
,  // measure 46
0100
0000
0010
0010
,  // measure 47
0100
0000
0010
0000
,  // measure 48
0100
0000
0000
0000
,  // measure 49
0001
0000
0000
0001
,  // measure 50
1000
0000
0000
1000
,  // measure 51
0010
0000
0000
0010
,  // measure 52
0100
0000
0000
0000
,  // measure 53
0100
0000
0100
0000
,  // measure 54
0100
0000
0000
0000
,  // measure 55
0010
0000
0010
0000
,  // measure 56
0010
0000
0000
0000
,  // measure 57
1000
0000
1000
0000
,  // measure 58
1000
0000
0000
0000
,  // measure 59
0001
0000
0001
0000
,  // measure 60
0001
0000
0000
0000
,  // measure 61
1000
0000
0100
0000
,  // measure 62
0010
0000
0001
0000
,  // measure 63
1000
0000
0010
0000
,  // measure 64
0100
0000
0001
0000
,  // measure 65
1000
0000
0001
0000
,  // measure 66
1000
0000
0000
0000
;

//---------------dance-single - ----------------
#NOTES:
     dance-single:
     :
     Easy:
     4:
     0.238,0.230,0.142,0.126,0.000: // measure 1
0000
0000
0000
0000
,  // measure 2
1000
0100
1000
0000
,  // measure 3
0011
0000
0101
0000
,  // measure 4
0001
0010
0001
0000
,  // measure 5
1100
0000
1010
0000
,  // measure 6
1000
0000
0001
0000
,  // measure 7
1000
0100
0010
0001
,  // measure 8
0100
0010
1000
0000
,  // measure 9
0001
0010
0100
1000
,  // measure 10
0010
0100
0001
0000
,  // measure 11
2000
0000
3200
0000
,  // measure 12
1300
0100
1000
0000
,  // measure 13
0002
0000
0023
0000
,  // measure 14
0031
0010
0001
0000
,  // measure 15
2000
0000
3001
0100
,  // measure 16
0002
0000
1003
0000
,  // measure 17
0020
0000
0130
0001
,  // measure 18
0200
0000
0310
0000
,  // measure 19
1000
0100
1000
0100
,  // measure 20
0010
0001
0010
0001
,  // measure 21
1000
0100
0010
0100
,  // measure 22
1000
0000
0001
0000
,  // measure 23
0001
0010
0100
0010
,  // measure 24
0001
0000
1000
0000
,  // measure 25
0001
0000
0011
0000
,  // measure 26
1000
0000
1100
0000
,  // measure 27
0001
0010
0100
0000
,  // measure 28
1000
0100
0010
0000
,  // measure 29
0001
0000
0000
0200
0000
0000
0310
0000
,  // measure 30
0000
2000
0000
0000
3001
0000
0010
0000
,  // measure 31
0100
1000
0001
1000
,  // measure 32
0110
0000
1001
0000
,  // measure 33
1000
0000
0001
0000
,  // measure 34
1000
0001
0000
0100
,  // measure 35
0010
0000
0100
0000
,  // measure 36
0010
0100
0000
0001
,  // measure 37
1000
0000
0001
0000
,  // measure 38
1000
0000
1001
0000
,  // measure 39
0010
0000
0100
0000
,  // measure 40
0010
0000
0110
0000
,  // measure 41
1000
0200
0000
0301
,  // measure 42
0100
2000
0000
3001
,  // measure 43
0001
0020
0000
1030
,  // measure 44
0010
0002
0000
1003
,  // measure 45
0001
0000
0101
0000
,  // measure 46
1000
0000
1010
0000
,  // measure 47
0001
1000
0010
0100
,  // measure 48
0001
0000
1000
0000
,  // measure 49
0001
1000
0000
1000
,  // measure 50
0002
0000
1003
0000
,  // measure 51
0100
0010
0000
0010
,  // measure 52
0200
0000
0310
0000
,  // measure 53
1000
0000
0001
0000
,  // measure 54
1010
0000
0001
0010
,  // measure 55
0001
0000
1000
0000
,  // measure 56
0101
0000
1000
0100
,  // measure 57
1000
0010
0100
0000
,  // measure 58
0001
0100
0010
0000
,  // measure 59
1100
0000
0011
0000
,  // measure 60
1000
0001
1000
0000
,  // measure 61
0001
0010
0001
0010
,  // measure 62
0001
0000
1000
0110
,  // measure 63
1000
0100
1000
0100
,  // measure 64
1000
0000
0001
0110
,  // measure 65
0001
0010
0100
1000
,  // measure 66
0001
0000
0000
0000
;

//---------------dance-single - ----------------
#NOTES:
     dance-single:
     :
     Medium:
     6:
     0.420,0.435,0.299,0.205,0.000: // measure 1
0000
0000
0000
0000
,  // measure 2
1000
0000
0001
0000
1000
0100
1000
0100
,  // measure 3
2000
0000
0001
3001
,  // measure 4
0001
0000
0010
0000
0001
0010
0001
0010
,  // measure 5
0002
0000
1000
1003
,  // measure 6
2000
3100
0020
0031
,  // measure 7
1000
0110
0001
0110
,  // measure 8
1000
0001
0100
0001
1000
0000
1001
0000
,  // measure 9
0001
0010
0001
0000
0001
0000
1000
0000
,  // measure 10
1000
0100
1000
0000
0010
0000
0100
0000
,  // measure 11
0001
0000
1000
0000
0001
0010
0001
0000
,  // measure 12
1000
0100
1000
0000
0101
0000
0000
0000
,  // measure 13
0100
0000
0010
0000
0100
0001
0100
0000
,  // measure 14
0010
1000
0010
0000
1001
0000
0000
0000
,  // measure 15
1000
0000
0100
0000
1000
0000
0001
0010
,  // measure 16
0100
0010
0001
1100
,  // measure 17
0001
0000
0010
0000
0001
0000
1000
0100
,  // measure 18
0010
0001
1000
0011
,  // measure 19
1000
0100
2000
0000
3001
0100
0002
0000
,  // measure 20
1003
0010
2000
0000
3001
0010
0002
0000
,  // measure 21
1003
0000
0100
0000
0000
1000
0100
1000
,  // measure 22
0200
0000
1300
0011
,  // measure 23
0001
0000
0010
0000
0000
0001
0010
0001
,  // measure 24
0020
0000
0031
1100
,  // measure 25
0001
0000
1000
0010
1000
0000
0001
0000
,  // measure 26
1000
0001
0000
0001
,  // measure 27
1000
0000
0010
1000
0010
0000
1000
0000
,  // measure 28
0010
0100
0000
0100
,  // measure 29
0010
1001
0000
0100
1001
0000
0001
0110
,  // measure 30
0000
1000
0110
0000
0001
0100
0200
0000
,  // measure 31
0310
0010
1000
0000
0110
0000
1001
0000
,  // measure 32
0110
1001
1001
0110
,  // measure 33
1000
0100
0010
0100
1000
0000
0001
0010
,  // measure 34
0002
0003
1100
0101
,  // measure 35
0001
0010
0100
0010
0001
0000
1000
0100
,  // measure 36
2000
3000
0011
1010
,  // measure 37
0001
0000
1000
0100
0010
0000
0010
0100
,  // measure 38
1000
0000
0001
1000
0001
0000
1000
0000
,  // measure 39
0010
0000
1000
0001
0100
0000
0100
0001
,  // measure 40
1000
0000
0010
0100
0010
0000
0100
0000
,  // measure 41
0002
2003
3002
0203
,  // measure 42
0310
0000
1000
0001
0100
0001
1000
0000
,  // measure 43
0020
2030
3002
2003
,  // measure 44
3100
0000
0100
1000
0001
1000
0100
0000
,  // measure 45
1000
1100
0011
0001
,  // measure 46
0100
0001
0010
0000
0100
1000
0010
0000
,  // measure 47
0100
0101
1010
0010
,  // measure 48
1000
0001
0010
0001
1000
0000
0110
0000
,  // measure 49
0001
0000
1000
0001
1000
0001
0100
0000
,  // measure 50
0001
0010
0001
0000
1000
0000
1100
0000
,  // measure 51
0001
0000
0100
0010
0100
0010
1000
0000
,  // measure 52
0100
1000
0100
0000
0010
0000
0011
0000
,  // measure 53
1000
0000
0110
0000
0001
1000
0010
2000
,  // measure 54
0000
0000
3001
0000
0001
0010
0001
0000
,  // measure 55
0100
0000
1001
0000
0010
0100
0001
0200
,  // measure 56
0000
0000
0310
0000
0100
0001
0100
0000
,  // measure 57
0002
1000
0100
1003
,  // measure 58
0200
0001
0010
0301
,  // measure 59
0001
0010
0100
0000
0010
0100
1000
0000
,  // measure 60
0001
0010
0100
1000
0001
0000
1001
0000
,  // measure 61
1000
0000
0010
0100
0010
0000
1000
0000
,  // measure 62
0001
1001
1001
1000
,  // measure 63
0001
0000
0100
0010
0100
0000
0001
0000
,  // measure 64
0100
0110
0110
0010
,  // measure 65
1000
0000
0100
0010
0002
0000
1003
0000
,  // measure 66
1001
0000
0000
0000
;

//---------------dance-single - ----------------
#NOTES:
     dance-single:
     :
     Hard:
     8:
     0.550,0.563,0.197,0.205,0.232: // measure 1
0000
0000
0000
0000
,  // measure 2
1000
0000
0000
0100
0000
0000
0001
0000
0000
0100
0000
0000
1000
0000
0001
0000
,  // measure 3
2000
0000
3001
0010
0100
0010
0001
0000
,  // measure 4
0100
0000
0000
0001
0000
0000
1000
0000
0000
0001
0000
0000
0100
0000
0010
0000
,  // measure 5
0100
0000
0010
1000
0100
0010
0001
0000
,  // measure 6
1100
1001
0011
1001
,  // measure 7
0001
0010
0100
0010
0001
0010
0100
1000
,  // measure 8
0001
0100
0010
1000
0100
1000
0100
1000
,  // measure 9
0001
0000
0000
1000
0100
0000
0010
0000
0001
0000
0010
0000
0001
0000
0000
0000
,  // measure 10
1000
0000
0000
0001
0100
0000
0010
0000
1000
0000
0001
0000
1000
0000
0000
0000
,  // measure 11
0001
0000
0000
1100
0000
0000
0001
0000
0000
1010
0000
0000
0001
0000
0010
0000
,  // measure 12
0100
1000
0100
0010
0002
0000
1000
1000
,  // measure 13
1003
0000
0000
0101
0000
0000
1000
0000
0000
0011
0000
0000
1000
0000
0100
0000
,  // measure 14
1000
0010
1000
0001
2000
0000
3001
0000
,  // measure 15
1001
0000
0000
0100
0000
0000
0110
0000
0000
0010
0000
0000
1000
0000
0001
0000
,  // measure 16
0100
0010
0000
0000
0100
0000
0001
0000
1000
0000
0001
0000
0100
0000
0000
0000
,  // measure 17
0110
0000
0000
1000
0000
0000
1001
0000
0000
0001
0000
0000
0100
0000
0010
0000
,  // measure 18
1000
0001
0000
0000
1000
0000
0100
0000
0001
0000
0100
0000
1000
0000
0000
0000
,  // measure 19
0001
0010
0200
1300
0010
1000
0002
0103
,  // measure 20
0001
0000
1000
0000
0020
0000
0130
0000
0001
0000
1000
0000
0002
0000
1003
0001
,  // measure 21
1000
0000
0000
0010
0200
0000
0010
0000
0000
0001
0000
0000
0301
0000
1000
0000
,  // measure 22
0001
0010
0001
0100
0001
1000
0001
0000
,  // measure 23
0100
0000
0000
0001
2000
0000
0010
0000
0000
0001
0000
0000
3010
0000
0100
0000
,  // measure 24
0010
1000
0001
0100
0001
1000
0010
0000
,  // measure 25
2000
0000
0000
0100
0000
0000
0010
0000
0000
3001
1000
0000
0001
0000
0010
0000
,  // measure 26
0001
0010
0000
0000
0001
0010
0000
0000
0001
0000
0100
0000
1000
0000
0100
0000
,  // measure 27
0002
0000
0000
0010
0000
0000
0100
0000
0000
1003
0010
0000
0100
0000
0001
0000
,  // measure 28
1000
0100
0000
0000
1000
0100
0000
0000
1000
0000
0100
0000
0001
0000
0100
0000
,  // measure 29
1000
0100
1000
0200
0310
0001
0010
0002
,  // measure 30
1003
0001
1000
0001
0100
0100
0010
0010
,  // measure 31
1000
1000
0001
0001
1000
0001
1000
0010
,  // measure 32
0100
0001
0100
0001
1000
0010
1000
0010
,  // measure 33
1000
0100
0000
0010
0001
0000
0000
0000
0001
0000
0010
0000
0001
0000
0000
0000
,  // measure 34
1000
0100
0001
0100
1000
0000
1001
0000
,  // measure 35
0001
0010
0000
0100
1000
0000
0000
0000
1000
0000
0100
0000
1000
0000
0000
0000
,  // measure 36
0001
0010
0100
0010
0001
0010
0001
0000
,  // measure 37
0101
0000
0000
1000
0010
0000
0000
0000
1000
0000
0001
0000
1000
0000
0000
0000
,  // measure 38
1100
0000
0000
0001
0010
0000
0000
0000
0100
0000
0010
0000
0100
0000
0000
0000
,  // measure 39
0011
0000
0000
1000
0100
0000
0000
0000
1010
0000
0000
0001
0100
0000
0000
0000
,  // measure 40
0001
0010
0100
1000
0010
0100
0002
0000
,  // measure 41
1003
0200
0000
0000
1300
0000
0000
0000
0010
0002
0000
0000
0013
0000
0000
0000
,  // measure 42
0001
0010
0100
0000
0100
0010
0001
0000
,  // measure 43
0001
2000
0000
0000
3010
0000
0000
0000
0010
0200
0000
0000
0301
0000
0000
0000
,  // measure 44
0001
0010
0100
1000
0001
1000
0100
0000
,  // measure 45
2000
0000
0000
3001
1000
0000
0000
0000
0020
0000
0000
0130
0010
0000
0000
0000
,  // measure 46
1000
0100
0010
0000
0010
0100
1000
0001
,  // measure 47
0020
0000
0000
0031
0010
0000
0000
0000
0200
0000
0000
1300
0100
0000
0000
0000
,  // measure 48
1001
0000
0001
0010
1000
0000
1000
0010
,  // measure 49
0001
0000
1000
0100
0001
0000
0001
0100
,  // measure 50
1000
0100
0010
0001
0100
0010
1000
0001
,  // measure 51
1100
0000
0000
0000
1000
0000
0001
0000
1000
0000
0000
0001
0010
0000
0000
0000
,  // measure 52
0101
0000
0000
0000
0100
0000
0010
0000
0100
0000
0000
0010
1000
0000
0000
0000
,  // measure 53
0001
0000
0010
0000
0001
0000
0010
0000
0001
0000
0100
0000
0010
0000
0100
0010
,  // measure 54
0200
0000
0301
0000
1000
0100
1100
0000
,  // measure 55
0001
0000
1000
0000
0100
0000
1000
0000
0001
0000
1000
0000
0010
0000
1000
0100
,  // measure 56
2000
0000
3010
0000
0100
0001
0101
0000
,  // measure 57
1001
0000
0000
0001
0010
0000
0000
0000
0001
0000
0010
0000
0001
0000
0100
0000
,  // measure 58
0110
0000
0000
0010
1000
0000
0000
0000
1000
0000
0100
0000
0010
0000
0001
0000
,  // measure 59
1000
0000
0000
1000
0100
0000
0000
0000
0010
0000
0000
0010
0001
0000
0000
0000
,  // measure 60
0001
0010
1000
0010
0001
0100
1000
0100
,  // measure 61
0001
0000
0010
0000
0001
0000
0010
0001
0000
1000
0100
0000
1000
0000
0001
0000
,  // measure 62
2000
0000
3001
1000
0100
1000
0001
0000
,  // measure 63
1000
0000
0100
0000
1000
0000
0100
1000
0000
0001
0010
0000
0001
0000
0010
0000
,  // measure 64
0002
0000
1003
0100
0010
0100
1000
0000
,  // measure 65
0110
0000
0000
0000
0001
0000
1000
0000
0001
0000
0000
1000
0100
0000
0000
0010
,  // measure 66
0001
0000
0000
0000
;

//---------------dance-single - ----------------
#NOTES:
     dance-single:
     :
     Challenge:
     10:
     0.781,0.843,0.149,0.173,0.791: // measure 1
0000
0000
0000
0000
,  // measure 2
1000
0100
0000
0100
1000
0000
0001
0010
0001
0000
1000
0000
0001
0000
1000
0001
,  // measure 3
1000
0000
0000
0000
0001
0000
0010
0000
0001
0100
0001
0100
0001
0000
1000
0000
,  // measure 4
0001
0010
0000
0010
0001
0000
1000
0100
1000
0000
0010
0000
0100
0000
0010
1000
,  // measure 5
0010
1000
0010
1000
0001
0100
0001
0100
0001
0000
1000
0000
0100
0000
0010
0000
,  // measure 6
1002
1003
0200
0310
0002
1003
0020
0130
,  // measure 7
0001
0010
0001
1100
1000
0001
1000
0011
,  // measure 8
1000
0001
0100
0101
0001
1000
0010
1010
,  // measure 9
0001
0000
1000
0000
0100
0000
0010
0001
0010
0000
0100
0000
1000
0000
0001
1000
,  // measure 10
0001
0000
1000
0000
0010
0000
1000
0100
1000
0000
0001
0000
1000
0010
1000
0010
,  // measure 11
1000
0010
0000
0010
0100
0000
0001
0100
0010
0000
1000
0000
0010
0000
1000
0001
,  // measure 12
0100
0000
0010
0000
1000
0000
0100
0000
0010
0001
0010
0001
0010
0000
0001
0000
,  // measure 13
1000
0001
0000
0001
0100
0000
0010
1000
0010
0000
1000
0000
0100
0000
0010
0001
,  // measure 14
0010
0001
0010
0001
1000
0100
1000
0100
1000
0000
0100
0000
0010
0000
0001
0000
,  // measure 15
1000
0001
0000
0001
1000
0000
0010
1000
0010
0000
0100
0000
0001
0000
1000
0001
,  // measure 16
1000
0100
1000
0000
0001
0000
1000
0010
1000
0000
0001
0000
1000
0001
1000
0000
,  // measure 17
0010
0100
0000
0100
0010
0000
1000
0010
1000
0000
0001
0000
0100
0000
0010
0100
,  // measure 18
0010
1000
0010
0000
0100
0000
0001
1000
0001
0000
0010
0000
0100
1000
0100
0000
,  // measure 19
1000
0001
1000
0010
2000
0000
3001
0010
0001
0100
0001
1000
0002
0000
1003
0010
,  // measure 20
0100
0001
1000
0010
0200
0000
0301
1000
0001
1000
0001
0100
0020
0000
1030
0001
,  // measure 21
1000
0001
0000
1000
0001
0000
1000
0100
1000
0000
0001
0000
0100
0000
0001
0010
,  // measure 22
0001
0100
0001
0000
1000
0000
0001
1000
0001
0100
0001
0010
0001
0000
1000
0000
,  // measure 23
0010
0100
0000
0010
0100
0000
0001
0100
0001
0000
1000
0000
0001
0000
1000
0010
,  // measure 24
1000
0001
1000
0001
0100
0010
0100
0010
1000
0000
0001
0000
1000
0100
1000
0000
,  // measure 25
0010
1000
0000
0010
1000
0000
0010
0100
0010
0000
1000
0000
0001
0000
1000
0001
,  // measure 26
1000
0100
1000
0000
0001
0000
1000
0010
1000
0100
1000
0001
1000
0000
0001
0000
,  // measure 27
0100
0001
0000
0100
0001
0000
1000
0010
1000
0000
0001
0000
1000
0000
0001
0100
,  // measure 28
0001
0100
0001
0100
0010
1000
0010
1000
0001
0000
0100
0000
0001
0000
1000
0010
,  // measure 29
1000
0100
2000
0000
3010
0000
0100
0001
0200
0000
0301
0000
1000
0001
0020
0000
,  // measure 30
0031
0000
1000
0001
2000
0000
3001
0000
2000
0000
0100
0000
3010
0001
1000
0000
,  // measure 31
0002
0000
0100
0000
0010
1003
0001
0000
1010
0000
0000
0000
0101
0000
0000
0000
,  // measure 32
1000
0001
1000
0011
0100
0010
0100
1010
,  // measure 33
0001
0010
0000
0010
0100
0000
0100
1000
0100
0000
1000
0000
0001
0000
1000
0001
,  // measure 34
1000
0100
1000
0100
1000
0000
0001
0000
0010
0001
0010
0001
0010
0000
0001
0000
,  // measure 35
1000
0100
0000
0100
0010
0000
0010
0001
0010
0000
0001
0000
0010
0000
0100
1000
,  // measure 36
0100
1000
0100
1000
0001
0010
0001
0010
0001
0000
0000
0000
1000
0000
0001
0000
,  // measure 37
1000
0100
0000
1000
0010
0000
0100
0001
0100
0000
0001
0000
1000
0000
0001
0010
,  // measure 38
0001
0100
0001
0100
0001
0000
0000
0000
1000
0010
1000
0010
1000
0000
0000
0000
,  // measure 39
0001
0000
1000
0100
1000
0000
0000
0000
0010
0000
0100
0001
0100
0000
0000
0000
,  // measure 40
0001
0000
1000
0100
1000
0000
0100
0010
0100
0000
0010
0001
0010
0000
0001
1000
,  // measure 41
0001
1000
0000
1000
0001
0000
0100
0010
0000
0010
0100
0000
0001
0000
1000
0010
,  // measure 42
2000
3001
1002
0103
,  // measure 43
0100
0001
0000
0001
0100
0000
0010
1000
0000
1000
0010
0000
1000
0000
0001
0100
,  // measure 44
0002
1003
2001
3010
,  // measure 45
1000
0100
0000
0010
0001
0000
0001
0010
0000
0100
1000
0000
0001
0000
0100
0010
,  // measure 46
0200
0301
1020
0130
,  // measure 47
0100
0001
0000
1000
0010
0000
0100
0001
0000
1000
0010
0000
1000
0000
0010
0100
,  // measure 48
0020
1030
0201
0310
,  // measure 49
0001
0000
0100
0001
0100
0000
0010
1000
0010
0000
1000
0001
1000
0000
0010
0100
,  // measure 50
0010
0000
1000
0000
0001
0000
0100
0000
0001
1000
0001
1000
0001
0000
1000
0000
,  // measure 51
0011
0000
0000
1000
0100
0000
1000
0000
0100
0000
0001
0000
0100
0000
1000
0001
,  // measure 52
1000
0000
0000
0001
0100
0000
0001
0000
1000
0000
0010
0000
1000
0001
0100
0001
,  // measure 53
1000
0010
0000
0100
0010
0000
0100
0001
0100
0000
0001
0000
1000
0000
0001
0010
,  // measure 54
0001
0000
0100
0010
0100
0000
0001
0000
1000
0000
0010
0100
0010
0000
1000
0000
,  // measure 55
0001
0010
0000
0100
0010
0000
0001
1000
0001
0000
1000
0000
0001
0000
0100
0001
,  // measure 56
0100
0000
0000
0000
1001
0000
1000
0100
1000
0000
0001
0010
0001
0000
1000
0001
,  // measure 57
1000
0000
0001
0100
0001
0000
1000
0100
1000
0000
0010
0100
0010
0000
0100
0000
,  // measure 58
0110
0000
0001
0010
0100
0000
1000
0100
0010
0000
0001
1000
0010
0000
0100
0001
,  // measure 59
1000
0000
0001
0010
0001
0000
0000
0000
0101
0000
1000
0100
1000
0000
0000
0000
,  // measure 60
0110
0000
0001
1000
0100
0000
0010
0001
1000
0000
0001
1000
0010
1000
0001
0000
,  // measure 61
1000
0100
0000
0010
0100
0000
1000
0001
0010
0000
0001
0000
1000
0000
0001
1000
,  // measure 62
0001
0000
0000
0000
0110
0000
0000
0000
1000
0100
0010
0100
1000
0000
0001
0000
,  // measure 63
0010
0001
0000
0100
0010
0000
1000
0001
0100
0000
0001
0000
1000
0000
0001
0010
,  // measure 64
0001
0000
0000
0000
1000
0000
0001
0000
0000
0000
1000
0000
0010
0100
0010
0100
,  // measure 65
0010
0000
0000
1000
0001
0000
0010
0000
0001
0000
1000
0000
0001
0010
0100
1000
;
