#TITLE:Owls;
#SUBTITLE:;
#ARTIST:Weebl's Stuff;
#TITLETRANSLIT:;
#SUBTITLETRANSLIT:;
#ARTISTTRANSLIT:;
#CREDIT:;
#BANNER:;
#BACKGROUND:;
#LYRICSPATH:;
#CDTITLE:;
#MUSIC:Owls.mp3;
#OFFSET:-0.080;
#SAMPLESTART:41.459;
#SAMPLELENGTH:12.000;
#SELECTABLE:YES;
#BPMS:0.000=145.000;
#STOPS:;
#BGCHANGES:0.000=Owls[www.savevid.com].avi=1.000=1=1=0,
99999=-nosongbg-=1.000=0=0=0 // don't automatically add -songbackground-
;

//---------------dance-single - ----------------
#NOTES:
     dance-single:
     :
     Hard:
     7:
     0.623,0.507,0.121,0.951,0.000:
2000
0000
3001
0000
0100
0010
1000
0100
,
0010
0001
0000
0100
0000
1000
0000
0100
,
0000
0001
1000
1000
0001
0001
0100
0000
,
0010
0010
0100
0100
0002
0000
1003
0000
,
0200
0000
1300
0100
0001
0000
0100
0000
,
2000
0000
3010
0000
0001
0010
1000
0000
,
0010
1000
0100
0000
0010
1000
0100
0100
,
1000
0000
0001
0100
0010
0100
0002
0000
,
2003
0000
3100
0001
0100
0100
0010
0000
,
0001
0000
0010
0100
1000
0100
0020
0000
,
0230
0000
1300
0001
0100
0100
0010
0000
,
1000
0000
0100
0001
0200
0000
2300
0000
,
3001
0000
0100
0010
1000
1000
0010
0000
,
0001
0010
1000
0010
0001
0010
1000
0000
,
0010
0000
0001
0100
0010
0010
1000
0100
,
0020
0000
0031
0100
2000
0000
3100
0000
,
0002
0000
0023
0000
0230
0000
1300
0100
,
0002
0000
0203
0000
1300
0100
0010
1000
,
0020
0000
0032
0000
0203
0000
1300
0100
,
0002
0000
0203
0000
0310
1000
0100
0001
,
0200
0000
2300
0000
3020
0000
0130
0001
,
2000
0000
3020
0000
0130
0010
0001
0010
,
2000
0000
3200
0000
0320
0000
0031
1000
,
0200
0000
0302
0000
0103
1000
0010
0100
,
2000
3200
0302
0023
,
0230
2300
3002
0203
,
0320
0230
2300
3002
,
0023
0000
2030
0000
3200
0000
0301
0100
,
2000
3020
0032
0023
,
2030
3200
0320
2030
,
3002
0203
2300
3002
,
0023
0000
2030
0000
3010
0001
0100
0010
,
0100
0100
0010
1000
0000
0101
0000
0010
,
1000
1000
0100
0010
0000
1100
0000
0010
,
0001
0001
0100
0020
0000
1030
0001
0100
,
0010
0000
1001
0000
0110
0000
0000
1000
,
0100
0100
1000
0010
0000
0101
0000
0010
,
0100
0100
0001
0010
0000
1100
0000
0010
,
0001
0001
0100
0020
0000
1030
0100
0001
,
0100
1010
0011
0000
;

//---------------dance-single - ----------------
#NOTES:
     dance-single:
     :
     Medium:
     5:
     0.570,0.507,0.151,1.000,0.000:
2000
3100
0001
0100
,
1000
0010
0000
0100
0000
0001
0000
0010
,
0000
0100
0000
1000
0010
0000
1001
0000
,
0200
2300
3020
0230
,
0302
0000
0013
0100
2000
0000
3001
0000
,
0200
0000
0310
0000
1000
0100
0000
0010
,
0000
1000
0000
0010
0100
0000
0001
0100
,
0020
0000
1030
0000
0100
0010
0002
0000
,
0010
1000
0010
1003
,
0010
0000
0100
0000
0010
0001
2000
0000
,
0100
0001
0100
3001
,
0110
0000
1000
0001
0200
0000
0320
0000
,
1000
0001
1000
0031
,
1000
0000
0100
0000
0010
0001
0200
0000
,
1000
0001
1000
0301
,
0010
0000
0100
1000
0020
0000
0230
0000
,
0302
0023
0230
2300
,
3020
0230
0302
2003
,
3200
0320
0230
2300
,
3002
0203
0320
2030
,
3200
0320
0032
0203
,
0320
0230
0302
0023
,
0230
2300
3020
0230
,
0302
0203
0320
2030
,
3200
0320
0032
0203
,
0320
2030
3200
2300
,
3020
0230
0320
2030
,
3200
0320
0032
0203
,
0320
0230
0302
2003
,
3200
0320
0032
2003
,
3020
0230
0302
2003
,
3020
0230
0320
2030
,
3100
0000
0010
0001
0000
0110
0000
1000
,
0100
0000
1000
0010
0000
0101
0000
0010
,
1000
0000
0100
1000
0000
0100
0010
0000
,
0001
0000
0101
0000
1100
0000
0000
0010
,
1000
0000
0100
0010
0000
0101
0000
0010
,
0100
0000
0001
1000
0000
0110
0000
1000
,
0100
0000
0010
0001
0000
0100
0010
0000
,
1000
1100
0101
0000
;

//---------------dance-single - ----------------
#NOTES:
     dance-single:
     :
     Easy:
     2:
     0.300,0.268,0.091,0.604,0.000: // measure 1
2000
0000
3001
0000
,  // measure 2
0100
0100
0010
0000
,  // measure 3
0002
0000
1003
0000
,  // measure 4
0010
0010
0100
0100
,  // measure 5
0002
0000
0103
0000
,  // measure 6
0010
1000
0010
0000
,  // measure 7
0200
0000
1300
0000
,  // measure 8
0001
1000
0100
0000
,  // measure 9
0020
0000
0130
0000
,  // measure 10
0001
1000
0010
0000
,  // measure 11
0002
0000
0103
0000
,  // measure 12
0010
0100
0001
0000
,  // measure 13
2000
0000
3010
0000
,  // measure 14
0100
0001
0100
0001
,  // measure 15
0020
0000
0130
0000
,  // measure 16
1000
1000
0001
0001
,  // measure 17
0200
0000
0320
0000
,  // measure 18
2030
0000
3200
0000
,  // measure 19
0320
0000
0032
0000
,  // measure 20
0203
0000
0320
0000
,  // measure 21
2030
0000
3002
0000
,  // measure 22
0203
0000
0320
0000
,  // measure 23
0230
0000
0302
0000
,  // measure 24
0023
0000
0230
0000
,  // measure 25
2300
0000
3020
0000
,  // measure 26
0230
0000
0302
0000
,  // measure 27
0023
0000
0230
0000
,  // measure 28
2300
0000
3020
0000
,  // measure 29
0230
0000
0320
0000
,  // measure 30
2030
0000
3200
0000
,  // measure 31
0320
0000
0032
0000
,  // measure 32
0203
0000
0320
0000
,  // measure 33
1030
0000
1001
0000
,  // measure 34
0001
0000
1001
0000
,  // measure 35
0100
0000
0110
0000
,  // measure 36
1000
1000
0001
0000
,  // measure 37
0100
0000
0110
0000
,  // measure 38
0010
0000
0110
0000
,  // measure 39
1000
0000
1001
0000
,  // measure 40
0010
0010
0100
0000
;

//---------------dance-single - ----------------
#NOTES:
     dance-single:
     :
     Beginner:
     1:
     0.177,0.179,0.030,0.378,0.000:
2000
0000
3000
0000
,
0001
0000
1000
0000
,
0002
0000
0003
0000
,
0200
0000
0300
0000
,
0010
0000
0020
0000
,
0030
0000
1000
0000
,
0002
0000
0003
0000
,
1000
0000
0100
0000
,
0020
0000
0030
0000
,
0001
0000
0100
0000
,
0020
0000
0030
0000
,
1000
0000
0001
0000
,
0200
0000
0300
0000
,
0010
0000
1000
0000
,
0002
0000
0003
0000
,
1000
0000
0100
0000
,
0020
0000
0030
0000
,
0002
0000
0003
0000
,
0200
0000
0300
0000
,
0020
0000
0030
0000
,
2000
0000
3000
0000
,
0200
0000
0300
0000
,
0020
0000
0030
0000
,
0002
0000
0003
0000
,
2000
0000
3000
0000
,
0020
0000
0030
0000
,
0200
0000
0300
0000
,
0002
0000
0003
0000
,
0020
0000
0030
0000
,
0200
0000
0300
0000
,
2000
0000
3000
0000
,
0020
0000
0030
0000
,
0100
0000
0100
0000
,
0010
0000
0010
0000
,
1000
0000
1000
0000
,
0001
0000
1001
0000
,
1000
0000
1000
0000
,
0001
0000
0001
0000
,
0010
0000
0010
0000
,
0100
0000
0110
0000
;
