#TITLE:Open House Republik Mimpi;
#SUBTITLE:;
#ARTIST:Cast of Republik Mimpi;
#TITLETRANSLIT:;
#SUBTITLETRANSLIT:;
#ARTISTTRANSLIT:;
#CREDIT:348;
#BANNER:Open House Republik Mimpi Banner.png;
#BACKGROUND:Open House Republik Mimpi Background.png;
#LYRICSPATH:Open House Republik Mimpi.lrc;
#CDTITLE:;
#MUSIC:Open House Republik Mimpi.mp3;
#OFFSET:-2.078;
#SAMPLESTART:47.437;
#SAMPLELENGTH:15.000;
#SELECTABLE:YES;
#DISPLAYBPM:62.500:125.000;
#BPMS:0.000=62.500,22.000=250.000,26.000=125.000;
#STOPS:22.000=0.960
;
#BGCHANGES:;

//---------------dance-single - ----------------
#NOTES:
     dance-single:
     :
     Beginner:
     1:
     0.074,0.088,0.000,0.000,0.000:
0000
0000
0000
0000
,
1000
0000
0000
0000
,
0001
0000
0000
0000
,
0100
0000
0000
0000
,
0010
0000
0000
0000
,
0100
0000
0000
0000
,
0000
0000
0001
0000
,
1000
0000
0001
0000
,
0000
0000
0100
0000
,
0010
0000
0100
0000
,
0000
0000
0001
0000
,
0000
0000
1000
0000
,
0000
0000
0010
0000
,
0000
0000
0100
0000
,
0000
0000
0001
0000
,
0001
0000
0001
0000
,
0000
0000
1000
0000
,
1000
0000
1000
0000
,
0000
0000
0010
0000
,
0000
0000
0010
0000
,
0010
0000
0100
0000
,
0000
0000
0100
0000
,
0100
0000
0001
0000
,
0000
0000
1000
0000
,
0000
0000
1000
0000
,
0000
0000
0001
0000
,
0000
0000
0000
0000
,
0000
0000
0100
0000
,
0100
0000
0100
0000
,
0000
0000
0010
0000
,
0010
0000
0010
0000
,
0000
0000
1000
0000
,
0000
0000
0100
0000
,
0000
0000
0010
0000
,
0000
0000
0001
0000
,
0000
0000
0100
0000
,
0000
0000
0010
0000
,
0000
0000
1000
0000
,
0100
0000
1000
0000
,
0000
0000
0001
0000
,
0010
0000
0001
0000
,
0000
0000
1000
0000
,
0000
0000
0010
0000
,
0000
0000
0100
0000
,
0000
0000
0001
0000
,
0000
0000
1000
0000
,
0000
0000
0001
0000
,
0000
0000
0100
0000
,
0000
0000
0010
0000
,
0000
0000
0010
0000
,
0000
0000
0100
0000
,
0001
0000
0000
0000
;

//---------------dance-single - ----------------
#NOTES:
     dance-single:
     :
     Easy:
     3:
     0.178,0.179,0.087,0.139,0.000:
0000
0000
0000
0000
,
1000
0000
1000
0000
,
0001
0000
0001
0000
,
0100
0000
0001
0000
,
1000
0000
0010
0000
,
1000
0000
0001
0000
,
0000
0000
1000
0100
,
1000
0000
0002
0000
,
0013
0000
0001
0010
,
0001
0000
2000
0000
,
3100
0000
1000
0000
,
1100
0000
0001
0000
,
0011
0000
0100
0000
,
0001
1000
0001
0000
,
0010
0000
0002
0003
,
2000
3000
0020
0000
,
0000
0030
1000
0100
,
1100
0000
0010
0001
,
0011
0000
1000
0000
,
0010
0100
0010
0000
,
1000
0000
0001
0000
,
0100
0010
0100
0000
,
0001
0000
1000
0100
,
0010
0001
0200
0000
,
0000
0310
0020
0000
,
0000
0130
0200
0000
,
0000
0300
0001
0000
,
1000
0000
0001
0100
,
0010
0000
1000
0000
,
1001
0000
1000
0010
,
0100
0000
0001
0000
,
1001
0000
1000
0000
,
0110
0000
0001
0000
,
0110
0000
1000
0001
,
1000
0000
0010
0100
,
0010
0000
1000
0000
,
0001
0000
0100
0000
,
0010
0000
0200
0300
,
0020
0030
2000
0000
,
0000
3000
0001
0100
,
0101
0000
0010
1000
,
1010
0000
0010
0000
,
1000
0100
1000
0000
,
0010
0000
0100
0000
,
0001
0010
0001
0000
,
0100
0000
0001
0010
,
0100
1000
0020
0000
,
0000
0030
0100
0001
,
1000
0010
2000
0000
,
0000
3001
0002
0000
,
1000
1003
2000
0000
,
0002
0000
3003
0000
;

//---------------dance-single - ----------------
#NOTES:
     dance-single:
     :
     Medium:
     4:
     0.260,0.290,0.147,0.191,0.000: // measure 1
0000
0000
0000
0000
,  // measure 2
1000
0100
2000
0000
,  // measure 3
3001
0010
0002
0000
,  // measure 4
0103
0001
0200
0000
,  // measure 5
0310
1000
0020
0000
,  // measure 6
1030
0001
2000
0000
,  // measure 7
0000
0000
3001
0010
,  // measure 8
0100
0010
0001
0000
,  // measure 9
0110
0000
1000
0100
,  // measure 10
0010
0100
1000
0000
,  // measure 11
0110
0000
0001
1000
,  // measure 12
0100
1000
0001
0100
,  // measure 13
0010
0000
1001
0000
,  // measure 14
0100
0010
0110
0000
,  // measure 15
1001
0000
0001
0010
,  // measure 16
1000
0010
0002
0000
,  // measure 17
1000
1003
1000
0100
,  // measure 18
0010
0001
0010
0000
0001
0000
0010
0000
,  // measure 19
0100
0000
1000
0010
2000
0000
0000
0000
,  // measure 20
3001
0100
0010
1000
,  // measure 21
0020
0000
0230
0000
,  // measure 22
0301
1000
0010
0100
,  // measure 23
0002
0000
1003
0001
,  // measure 24
0100
0010
0100
0000
0011
0000
0000
0000
,  // measure 25
1000
0010
1100
0000
,  // measure 26
0001
0100
1001
0000
,  // measure 27
0110
0000
1000
0001
,  // measure 28
0100
0001
1000
0100
,  // measure 29
0001
0100
2000
0000
,  // measure 30
3001
0000
0001
0100
,  // measure 31
0100
0001
1000
0010
,  // measure 32
0200
0000
0310
1000
,  // measure 33
0001
0100
0001
1000
,  // measure 34
0020
0000
1030
0100
,  // measure 35
1000
0100
1000
0000
0001
0010
0001
0000
,  // measure 36
0010
0001
1000
0000
,  // measure 37
0001
0000
1000
0001
,  // measure 38
1000
0001
0100
0001
,  // measure 39
1000
0001
0200
0000
,  // measure 40
0010
0310
0010
1000
,  // measure 41
0001
0100
0001
0000
0100
0000
0001
0000
,  // measure 42
1000
0000
0010
1000
0020
0000
0000
0000
,  // measure 43
1030
0001
0100
0010
,  // measure 44
1010
0000
0002
0000
,  // measure 45
0103
0010
1000
0001
,  // measure 46
0101
0000
1000
0001
,  // measure 47
0100
0001
0100
0000
2002
0000
0000
0000
,  // measure 48
0000
3003
0100
0010
,  // measure 49
1000
0100
1000
0000
0220
0000
0000
0000
,  // measure 50
0330
0000
1000
0000
0011
0000
1000
0100
,  // measure 51
1000
0001
1100
0110
,  // measure 52
2002
0000
3003
0000
;

//---------------dance-single - ----------------
#NOTES:
     dance-single:
     :
     Hard:
     7:
     0.430,0.379,0.373,0.234,0.026: // measure 1
0000
0000
0000
0000
,  // measure 2
1000
0000
0100
0000
1000
0100
1000
0000
,  // measure 3
0001
0000
0010
0000
0001
0010
0001
0000
,  // measure 4
1000
0000
0010
0000
0100
0001
0100
0000
,  // measure 5
0001
0000
1000
0100
1000
0000
0001
0000
,  // measure 6
0100
0000
0001
1000
0002
0000
0000
0000
,  // measure 7
2000
3003
0011
1100
,  // measure 8
0001
0010
1000
0010
0001
0000
1000
0100
,  // measure 9
0010
1001
1010
0101
,  // measure 10
1000
0100
0001
0100
1000
0000
0001
1000
,  // measure 11
0010
0110
1001
0110
,  // measure 12
0001
0010
0100
1000
0001
0000
1000
0001
,  // measure 13
0100
0010
1000
0000
0002
0000
0023
0000
,  // measure 14
0230
0000
2300
0000
3001
0100
0010
0100
,  // measure 15
0002
1003
1100
1010
,  // measure 16
0101
0000
0011
0000
1000
0100
0010
0000
,  // measure 17
0010
0100
1000
0000
0001
0001
0100
0010
,  // measure 18
0100
0000
0101
0000
1000
1000
0010
0100
,  // measure 19
0010
1010
0102
1003
,  // measure 20
2010
0000
3001
0000
1000
0001
0100
0001
,  // measure 21
1000
1001
0201
0310
,  // measure 22
0120
0000
1030
0000
0010
1000
0001
1000
,  // measure 23
0010
0000
0110
0000
1000
0001
1000
0000
,  // measure 24
1000
0100
0010
0001
2000
0000
0010
0000
,  // measure 25
3001
0110
0002
0100
,  // measure 26
1003
0110
2000
0001
,  // measure 27
0001
0000
3001
0000
0001
0010
0001
0100
,  // measure 28
0010
1000
0100
0000
1001
0000
1100
0000
,  // measure 29
0001
0010
0001
0100
0010
0000
1000
0001
,  // measure 30
0010
0001
0100
0000
1001
0000
0011
0000
,  // measure 31
0001
0100
0010
0000
0010
1000
0100
0010
,  // measure 32
0002
1003
0101
1010
,  // measure 33
0001
1000
0100
0010
0100
0000
1000
0100
,  // measure 34
0001
0100
1000
0000
0001
1000
0200
0000
,  // measure 35
0310
0000
0001
0000
2000
0000
0000
0000
3001
0000
0000
0010
0000
0000
0001
0000
,  // measure 36
1000
0000
0000
0100
0000
0000
1000
0000
0010
0000
0100
0000
0010
0000
0000
0000
,  // measure 37
1000
0001
1000
0000
0001
0010
0001
0010
,  // measure 38
0100
1000
0100
1000
1100
0000
0101
0000
,  // measure 39
0011
0000
1010
0000
0001
0010
0100
0000
,  // measure 40
0100
0010
0001
0000
2010
0000
3001
0010
,  // measure 41
0100
0010
0001
0000
0102
0000
1003
0100
,  // measure 42
0010
0100
1000
0000
0110
0000
0101
0000
,  // measure 43
1000
0010
0001
0010
1000
0001
0100
0001
,  // measure 44
2000
3010
0110
1010
,  // measure 45
0001
0100
1000
0100
0001
1000
0010
1000
,  // measure 46
0002
0000
0000
0000
0103
0000
0000
0000
0001
0000
1000
0000
0001
0000
0000
1000
,  // measure 47
0100
0010
0001
0100
0020
0000
0100
0000
,  // measure 48
1000
0000
0000
0000
0130
0000
0000
0000
0100
0000
0001
0000
0100
0000
0000
0010
,  // measure 49
1000
0001
0100
0010
0200
0000
0001
0000
,  // measure 50
0310
0000
0000
0000
0110
0000
0000
0000
0210
0000
0000
0001
0000
0000
0010
0000
,  // measure 51
0310
0000
0000
0000
1001
0000
0000
0000
1002
0000
0000
0100
0000
0000
1003
0000
,  // measure 52
2002
0000
3003
0000
;

//---------------dance-single - ----------------
#NOTES:
     dance-single:
     :
     Challenge:
     9:
     0.583,0.580,0.225,0.260,0.368: // measure 1
0000
0000
0000
0000
,  // measure 2
1000
0000
0200
0000
0000
1300
0100
1000
0020
0000
0000
0000
1030
0000
0001
0000
,  // measure 3
0100
0000
0010
0000
0100
0001
1000
0001
0200
0000
0000
0000
0310
0000
0100
0000
,  // measure 4
0001
0000
1000
0000
0001
0010
0100
0010
0002
0000
0000
0000
1003
0000
1000
0100
,  // measure 5
0020
0000
0000
0000
0130
1000
0001
1000
0200
0000
1300
0000
0001
0000
1000
0010
,  // measure 6
2000
0000
0000
0000
3001
0010
0100
1000
0002
0000
0000
0000
1000
0000
0000
0000
,  // measure 7
1000
0000
1003
0000
1000
0100
1000
0010
,  // measure 8
1000
0000
0001
0000
0100
0000
0010
0000
1000
0000
1000
0100
0000
0001
0100
0000
,  // measure 9
1000
0000
1000
0010
0000
0001
0010
0000
2000
0000
0100
0000
0010
0000
3001
0000
,  // measure 10
0002
0000
0100
0000
0010
0000
1003
0000
1000
0000
0001
0010
0000
0010
0001
0000
,  // measure 11
1000
0000
0010
0100
0000
0100
0010
0000
0100
0000
0000
1001
0000
0000
0010
0000
,  // measure 12
1000
0000
0100
0000
0010
0000
0001
0000
1000
0000
0010
0100
0010
0000
1000
0000
,  // measure 13
0001
0000
0010
0000
0001
0000
1000
0000
0020
0000
0000
1000
0000
0000
0130
0000
,  // measure 14
0200
0000
0000
0001
0000
0000
0310
0000
0010
0000
1000
0000
0001
0100
0001
0000
,  // measure 15
1000
0000
0000
0000
0110
0000
0000
0000
0001
0000
1000
0100
0000
0010
0001
0000
,  // measure 16
1000
0000
0100
0000
1000
0000
0001
0000
0100
0000
0001
0010
0000
0100
1000
0000
,  // measure 17
0001
0000
0100
0000
1010
0000
0000
0000
0002
0000
0000
0100
0000
0103
0001
0000
,  // measure 18
1000
0000
0010
0000
0100
0000
0001
0000
2000
0000
0000
0010
0000
3010
1000
0000
,  // measure 19
0100
1000
0011
0000
1000
0100
0001
0100
,  // measure 20
1000
0000
0100
0000
0001
0000
0100
0000
1000
0000
0001
0010
0001
0000
1000
0000
,  // measure 21
0002
0010
0013
0000
0001
0100
1000
0100
,  // measure 22
0001
0000
0100
0000
1000
0000
0100
0000
0001
0000
1000
0100
1000
0000
0001
0000
,  // measure 23
2000
0000
0100
0000
3100
0000
0100
0000
1100
0000
0000
0001
0010
0000
0001
0000
,  // measure 24
0011
0000
0000
1000
0100
0000
0010
0000
0001
0000
0100
0000
0010
0000
1000
0000
,  // measure 25
0001
0000
0000
0000
0110
0000
0000
0000
1001
0000
1000
0010
0000
0010
1000
0000
,  // measure 26
0010
0000
0100
0000
0010
0000
0000
0000
0110
0000
0001
0100
0000
0100
0001
0000
,  // measure 27
1000
0000
0001
0000
1000
0000
0000
0000
0110
0000
0000
1000
0100
0000
0000
0010
,  // measure 28
0001
0000
1000
0000
0001
0100
0001
0000
2000
0000
0000
3001
0010
0000
0001
0000
,  // measure 29
0200
0000
0000
0310
1000
0000
0100
0000
0010
0000
0001
0000
0100
0000
0010
0000
,  // measure 30
2000
0000
0000
0000
3001
0000
1000
0000
0001
0000
0100
0010
0100
0000
0001
0000
,  // measure 31
1000
0000
0010
0100
0010
0000
1000
0000
0011
0000
0000
1100
0000
0000
0011
0000
,  // measure 32
1000
0001
1000
0000
0001
0000
0010
0000
0001
0000
0010
0000
0100
0000
1000
0000
,  // measure 33
0001
0000
0100
0000
0010
0000
1000
0000
0001
0000
1000
0001
0000
0100
0010
0000
,  // measure 34
1000
0001
0110
0000
0001
0010
0001
0100
,  // measure 35
0010
1000
0000
0101
0000
1000
0010
0000
0100
0001
0000
1010
0000
0001
0100
0000
,  // measure 36
0001
1000
0001
0000
1000
0000
0001
0000
1000
0000
0100
0000
1000
0000
0100
0000
,  // measure 37
0010
0000
0001
0000
0010
0000
0001
0000
1000
0100
1000
0100
0010
0001
0010
0001
,  // measure 38
1000
0010
1000
0010
0100
0001
0100
0001
1000
0000
0001
0100
0000
0001
0100
0000
,  // measure 39
0010
0000
0100
0000
0001
0000
1000
0000
0001
0000
1000
0010
0000
1000
0010
0000
,  // measure 40
1000
0000
0001
0000
0200
0000
0010
0000
0310
0000
0000
1001
0000
0100
0010
0000
,  // measure 41
1000
0000
0100
0000
0010
0000
0001
0000
1000
0000
0000
0110
0000
0001
0100
0000
,  // measure 42
0010
1000
0002
0000
1003
1000
0100
0100
,  // measure 43
1000
0000
0100
0000
0001
0000
0100
0000
2000
0000
0000
3001
0010
0000
0001
0000
,  // measure 44
1000
0001
0201
0000
0301
0001
0010
0010
,  // measure 45
0001
0000
0010
0000
1000
0000
0010
0000
0002
0000
0000
1003
0001
0000
0100
0000
,  // measure 46
0020
0000
0100
0000
0100
0000
0130
0000
0110
0000
0000
1000
0001
0000
0010
0000
,  // measure 47
0001
0000
1000
0100
1000
0000
0001
0000
2000
0000
0000
0000
0001
0000
0001
0000
,  // measure 48
3002
0000
1000
0000
1000
0000
1003
0000
1001
0000
0000
0010
0100
0000
0001
0000
,  // measure 49
1000
0000
0001
0010
0001
0000
1000
0000
0020
0000
0000
0000
0100
0000
0100
0000
,  // measure 50
0130
0000
0000
0000
0110
0000
0000
0000
0110
0000
1000
0100
0000
0010
0001
0000
,  // measure 51
0100
0000
0010
0000
1001
0000
0000
0000
1001
0000
0001
0100
0000
0010
1000
0000
,  // measure 52
2002
0000
3003
0000
;
