#TITLE:Magic Man;
#SUBTITLE:;
#ARTIST:Ludacris feat. the Bee Gees;
#TITLETRANSLIT:;
#SUBTITLETRANSLIT:;
#ARTISTTRANSLIT:;
#CREDIT:;
#BANNER:bn.PNG;
#BACKGROUND:bg.PNG;
#LYRICSPATH:;
#CDTITLE:;
#MUSIC:Magic Man.ogg;
#OFFSET:-0.420;
#SAMPLESTART:11.000;
#SAMPLELENGTH:13.820;
#SELECTABLE:YES;
#BPMS:0.000=170.000;
#STOPS:;
#BGCHANGES:;

//---------------dance-single - ----------------
#NOTES:
     dance-single:
     :
     Hard:
     7:
     0.541,0.563,0.130,0.509,0.030:
0000
0000
0000
0000
,
0000
0000
0000
0000
,
0000
0000
0000
0000
,
0000
0000
0000
0000
,
2000
0000
3001
0000
0010
0100
1000
0010
,
0200
0000
0310
0000
1000
0100
0001
0100
,
2000
0000
3100
0000
0010
0001
0100
0010
,
1000
0000
0001
0010
0001
0000
0100
0000
,
0020
0000
2030
0000
3200
0000
0310
0001
,
0020
0000
0230
0000
2300
0000
3000
0010
,
1000
0000
0001
0000
0010
0001
0100
0000
,
0010
1000
0100
0000
0010
0000
0001
1000
,
0020
0000
2030
0000
3200
0000
0301
0100
,
2000
0000
3020
0000
0230
0000
0300
0001
,
0010
0001
0100
0000
0010
1000
0100
0001
,
0000
0100
0000
1000
0010
0000
0100
0000
,
0001
0000
0010
0000
0001
0000
0100
0010
,
1000
0010
0100
0001
1000
0000
0000
0100
,
1000
0010
1000
0000
0100
0000
0001
0000
,
0100
1000
0100
0000
0010
0000
0001
0100
,
0020
0000
2030
0000
3002
0000
0003
0010
,
0001
0000
0000
0100
0001
0010
0000
0100
,
1000
0000
0010
0000
1000
0001
0010
0001
,
1000
0000
0010
0000
1000
0100
0001
0100
,
1100
0101
1100
0000
,
0011
0000
1010
0000
0011
0000
0001
0010
,
0100
0000
1000
0000
0010
0000
0100
0000
0001
0000
1000
0000
,
0000
0100
0010
0001
0010
0100
0000
1000
,
0010
1000
0001
0000
0011
0000
0110
0000
,
0100
0000
1000
0000
0010
0000
0000
0000
0000
0000
0100
0000
0000
0100
0000
0000
,
0001
0000
0010
0001
0100
0000
0010
0000
,
1000
0100
0001
0100
1000
0000
0010
0000
,
0100
0001
0100
0001
0100
0000
0010
0000
,
1000
0100
1000
0100
1000
0000
0010
0000
,
0100
0000
0001
0000
0010
0001
0100
0001
,
0010
0000
0100
1000
0010
0000
1000
0000
,
0001
0010
0001
0010
0001
0000
0010
0000
,
0100
1000
0100
1000
0100
0000
0010
0000
,
0001
0000
1000
0000
0010
1000
0001
0010
,
0001
0000
0100
0010
1000
0000
0100
0000
,
0020
0000
0032
0000
2003
0000
3010
1000
,
0002
0000
0023
0000
0032
0000
0103
0010
,
1000
0000
0100
0000
0001
0000
0100
1000
,
0010
0000
0100
0000
0001
0000
0010
0001
,
0200
0000
0320
0000
2030
0000
3100
0010
,
0002
2003
3020
0030
,
1000
0001
0010
0000
,
0011
0000
0010
0000
0100
0000
1000
0010
,
0200
0000
0302
0000
2003
0000
3010
1000
,
0200
0302
0203
0300
,
1000
0000
0010
0000
1000
0001
0010
0001
,
1000
0000
0010
1000
0100
0000
0001
0000
,
0200
0000
2300
0000
3020
0000
1030
0001
,
0020
0032
0203
0300
,
0020
0030
0110
0000
,
0100
0001
0010
0100
1000
0010
0100
0000
,
0110
0000
0000
0000
;

//---------------dance-single - ----------------
#NOTES:
     dance-single:
     :
     Medium:
     5:
     0.329,0.331,0.083,0.047,0.000:
0000
0000
0000
0000
,
0000
0000
0000
0000
,
0000
0000
0000
0000
,
0000
0000
0000
0000
,
2000
0000
0000
0000
3000
0001
0000
0002
,
0000
0000
0000
0000
0003
1000
0000
2000
,
0000
0000
0000
0000
3000
0001
0000
0002
,
0000
0000
0000
0003
1000
0000
0010
0000
,
1000
0001
0010
0001
,
0100
0010
1000
0000
,
0100
0001
0100
1000
,
0010
0100
0001
0000
,
0010
0001
0100
0010
,
1000
0100
0001
0000
,
0100
1000
0010
1000
,
0001
0010
0001
0000
,
1000
0100
1000
0001
,
0100
0001
1000
0000
,
0010
1000
0001
0010
,
0001
0100
0010
0000
,
1000
0100
0001
0000
,
0100
0000
1000
0000
,
0010
1000
0001
0010
,
0001
0100
0010
1000
,
0001
1000
1001
0000
,
0010
0100
0110
0010
,
1000
0100
0001
0100
,
0000
1000
1100
0000
,
0100
0010
0001
1000
,
0010
1000
0000
0010
,
0100
0001
0010
0100
,
1000
0001
0010
0000
,
0001
0000
0100
0000
0001
0100
0001
0000
,
0000
0000
1000
0000
0100
1000
0100
0000
,
0010
0001
1000
0010
,
1000
0001
0010
0001
,
0100
0000
0010
0000
1000
0010
1000
0000
,
0000
0000
0010
0000
0100
0001
0100
0000
,
0010
1000
0001
0010
,
0001
0100
0010
1000
,
0100
0001
0100
1000
,
0010
0001
0010
1000
,
0100
0001
0100
1000
,
0010
0001
0010
1000
,
0010
0100
0001
1000
,
0100
0010
0001
0000
,
1000
0001
1000
0000
,
1001
0001
1000
0010
,
1000
0001
0010
0001
,
0100
0010
1000
0000
,
0100
0010
0001
1000
,
0010
1000
0001
0010
,
0001
0100
0010
1000
,
0100
0010
0001
0000
,
0011
0000
1100
0000
,
0010
0100
0001
1000
,
1001
0000
0000
0000
;

//---------------dance-single - ----------------
#NOTES:
     dance-single:
     :
     Easy:
     3:
     0.206,0.232,0.035,0.000,0.000:
0000
0000
0000
0000
,
0000
0000
0000
0000
,
0000
0000
0000
0000
,
0000
0000
0000
0000
,
1000
0000
0001
0000
,
0010
0000
0001
0000
,
0100
0000
0010
0000
,
1000
0000
0100
0000
,
0010
0000
0010
0000
,
0001
0001
0001
0000
,
1000
0000
0010
0000
,
1000
0000
0100
0000
,
0010
0000
0001
0000
,
0100
0100
0100
0000
,
0010
0000
1000
0000
,
0001
0000
0010
0000
,
0001
0000
0100
0000
,
0010
0010
0010
0000
,
1000
0000
0100
0000
,
0010
0000
0001
0000
,
1000
1000
1000
0000
,
0010
0000
1000
0000
,
0001
0000
0010
0000
,
0001
0000
0100
0000
,
0010
0010
0010
0000
,
0100
0100
0100
0000
,
0010
0000
1000
0000
,
0001
0001
0001
0000
,
1000
0000
0100
0000
,
1000
1000
0000
0000
,
0010
0000
0100
0000
,
0001
0001
0001
0000
,
0010
0000
0001
0000
,
0100
0000
0010
0000
,
1000
0000
0001
0000
,
0010
0000
0001
0000
,
0100
0000
0010
0000
,
1000
0000
0100
0000
,
0001
0000
0100
0000
,
1000
0000
0010
0000
,
0100
0100
0100
0000
,
0001
0001
0001
0000
,
0010
0000
0001
0000
,
0100
0000
0010
0000
,
1000
1000
1000
0000
,
0001
0001
0001
0000
,
1000
0000
0010
0000
,
1010
0000
0010
0000
,
0100
0100
0100
0000
,
0001
0001
0001
0000
,
0010
0000
0001
0000
,
1000
0000
0100
0000
,
1000
1000
1000
0000
,
0001
0001
0001
0000
,
1000
0000
1001
0000
,
0000
0000
0000
0000
,
0110
0000
0000
0000
;

//---------------dance-single - ----------------
#NOTES:
     dance-single:
     :
     Beginner:
     1:
     0.108,0.166,0.012,0.000,0.000: // measure 1
0000
0000
0000
0000
,  // measure 2
0000
0000
0000
0000
,  // measure 3
0000
0000
0000
0000
,  // measure 4
0000
0000
0000
0000
,  // measure 5
1000
0000
0000
0000
,  // measure 6
0001
0000
0000
0000
,  // measure 7
0010
0000
0000
0000
,  // measure 8
0001
0000
0000
0000
,  // measure 9
0100
0000
0000
0000
,  // measure 10
0010
0000
0010
0000
,  // measure 11
0010
0000
0000
0000
,  // measure 12
1000
0000
0000
0000
,  // measure 13
0001
0000
0000
0000
,  // measure 14
1000
0000
1000
0000
,  // measure 15
1000
0000
0000
0000
,  // measure 16
0100
0000
0000
0000
,  // measure 17
0010
0000
0000
0000
,  // measure 18
0001
0000
0000
0000
,  // measure 19
1000
0000
0000
0000
,  // measure 20
0010
0000
0010
0000
,  // measure 21
0010
0000
0000
0000
,  // measure 22
0100
0000
0000
0000
,  // measure 23
0001
0000
0000
0000
,  // measure 24
1000
0000
0000
0000
,  // measure 25
0001
0000
0001
0000
,  // measure 26
0001
0000
0001
0000
,  // measure 27
0001
0000
0000
0000
,  // measure 28
1000
0000
0000
0000
,  // measure 29
0010
0000
0000
0000
,  // measure 30
0100
0000
0100
0000
,  // measure 31
0100
0000
0000
0000
,  // measure 32
0001
0000
0000
0000
,  // measure 33
1000
0000
0000
0000
,  // measure 34
0010
0000
0000
0000
,  // measure 35
1000
0000
0000
0000
,  // measure 36
0001
0000
0000
0000
,  // measure 37
0010
0000
0000
0000
,  // measure 38
0001
0000
0000
0000
,  // measure 39
0100
0000
0000
0000
,  // measure 40
0010
0000
0010
0000
,  // measure 41
0010
0000
0000
0000
,  // measure 42
1000
0000
0000
0000
,  // measure 43
0100
0000
0000
0000
,  // measure 44
0010
0000
0010
0000
,  // measure 45
0010
0000
0000
0000
,  // measure 46
0001
0000
0000
0000
,  // measure 47
1000
0000
0000
0000
,  // measure 48
0100
0000
0100
0000
,  // measure 49
0100
0000
0000
0000
,  // measure 50
0010
0000
0000
0000
,  // measure 51
0001
0000
0000
0000
,  // measure 52
1000
0000
1000
0000
,  // measure 53
1000
0000
0000
0000
,  // measure 54
0010
0000
0000
0000
,  // measure 55
0100
0000
0100
0000
,  // measure 56
0000
0000
0000
0000
,  // measure 57
1001
0000
0000
0000
;
