#TITLE:Noiseproof;
#SUBTITLE:(Maniax Edit);
#ARTIST:Sta;
#TITLETRANSLIT:;
#SUBTITLETRANSLIT:;
#ARTISTTRANSLIT:;
#GENRE:Quasi-Dubstep;
#CREDIT:;
#BANNER:;
#BACKGROUND:;
#LYRICSPATH:;
#CDTITLE:;
#MUSIC:noiseproof_premaster.mp3;
#OFFSET:-0.755;
#SAMPLESTART:41.077;
#SAMPLELENGTH:12.000;
#SELECTABLE:YES;
#BPMS:0.000=148.333
,132.000=296.666
,134.000=148.333
;
#STOPS:132.000=0.202
,133.000=0.202
;
#BGCHANGES:;
#KEYSOUNDS:;
#ATTACKS:;

//---------------dance-single - TaroNuke----------------
#NOTES:
     dance-single:
     TaroNuke:
     Hard:
     9:
     0.489,0.529,0.054,0.294,0.395,397.000,7.000,38.000,0.000,0.000,0.000,0.489,0.529,0.054,0.294,0.395,397.000,7.000,38.000,0.000,0.000,0.000:
0000
0000
0000
0000
,
0000
0000
0000
0000
,
0000
0000
0000
0000
,
0000
0000
0000
0100
0010
1000
0001
0020
,
0000
0000
0000
0000
0000
0230
0000
0000
,
0000
0000
0300
1000
0001
1000
0010
0100
,
0002
0000
0000
2003
0000
0000
3020
0000
,
0100
0100
0130
0100
,
0001
0000
0000
1000
0000
0000
0000
0000
0000
0000
0000
0000
0001
0000
0010
0000
0100
0000
1000
0000
0100
0000
0010
0000
,
0001
0000
0000
0000
0200
0000
0000
0000
0310
0000
0000
0010
1000
0000
0000
1000
,
0001
0000
0000
0001
0000
0000
0001
0000
0100
0002
0000
0000
0000
0000
0000
0000
,
0203
0000
0320
0000
1030
0001
1000
0000
,
0001
0000
0000
0000
1000
0000
0001
0010
0100
1000
0100
0010
,
0001
0000
0000
0001
0200
0000
0000
0000
1300
0000
0000
0100
0001
0000
0000
1000
,
0001
0000
0000
0001
0000
0000
0001
0000
1000
0000
0002
0000
0000
0000
0000
0000
,
0203
0000
0000
0320
0000
0000
1030
0000
0000
0001
0100
0001
,
1000
0000
0001
0000
1000
0000
0001
0010
0100
1000
0100
0010
,
0001
0000
0000
0000
0200
0000
0000
0000
0310
0000
0000
1000
0100
0000
0000
0001
,
0100
0000
0000
0100
0000
0000
0100
0000
1000
0200
0000
0000
0000
0000
0000
0000
,
0320
0032
1003
0000
,
1000
0000
0001
0000
1000
0000
0001
0010
0100
1000
0100
0010
,
0001
0000
0000
0000
0100
0010
0100
0010
0100
0000
0000
0100
0001
0000
0000
0001
,
1000
0000
0000
1000
0000
0000
1000
0000
0001
0000
2000
0000
0000
0000
0000
0000
,
3002
0203
0310
0000
,
1000
0000
0001
0000
1000
0000
0001
0010
0100
1000
0100
0010
,
0001
0010
1000
0010
0001
0100
1000
0100
,
0010
2000
0000
0000
3002
0000
0000
0000
,
0203
0000
0000
0000
0320
0000
0000
0000
1030
0000
0010
0000
1000
0010
1000
0010
,
0100
0000
0000
0100
0010
0000
0000
0010
0100
0000
0000
0100
0001
0000
0000
0000
,
1000
0000
0000
0000
0000
0000
0000
0000
0001
0000
0000
0000
0000
0000
0000
0000
0100
0000
0000
0000
0000
0000
0000
0000
0001
0000
0000
0010
0000
0000
0100
0000
0000
1000
0000
0000
0010
0000
0000
0000
0000
0000
1000
0000
0000
0100
0000
0000
,
0010
0000
0000
0010
0100
0000
0000
0100
0010
0000
0000
0010
1000
0000
0000
0001
,
0200
0000
0000
0000
0300
0000
1000
0001
2000
0000
0000
0000
0000
0000
0000
0000
,
3100
0000
0000
0100
0010
0000
0000
0010
0100
0000
0000
0100
0001
0000
0000
0100
,
1000
0000
0011
0000
1000
0010
0100
0001
,
0010
0000
0000
0010
0100
0000
0000
0100
0010
0000
0000
0010
0001
0000
0000
0001
,
0100
0000
0000
0100
0010
0000
0000
0010
0100
0000
0000
0100
1000
0000
0000
1000
,
0100
0000
0000
0100
0010
0000
0000
0010
0100
0000
0000
0100
0002
0000
0003
0000
,
2000
0000
0000
0000
3000
0001
0200
0000
,
0310
0000
0000
0010
0100
0000
0000
0100
0010
0000
0000
0010
1000
0000
0000
0000
,
0001
0000
0000
0001
0000
0000
0001
0000
2000
0000
0000
0000
3001
0000
0010
0000
,
0100
0000
0000
0100
0010
0000
0000
0010
0100
0000
0000
0100
0001
0000
0000
0000
,
0200
0000
1300
0000
0010
0100
0002
0000
,
0103
0000
0000
0100
0010
0000
0000
0010
0100
0000
0000
0100
1000
0000
0000
1000
,
0100
0001
0010
0100
,
0010
0000
0001
0000
0100
1000
0000
0100
,
0000
0010
0000
0001
0000
0010
0000
1000
,
0010
0000
1000
0000
0100
0001
0000
0100
,
0000
0010
0000
1000
0000
0010
0000
0001
,
0010
0000
0001
0000
0100
1000
0000
0100
,
0000
0010
0000
0001
0000
0010
0000
1000
,
0010
0000
1000
0000
0100
0001
0000
0100
,
0000
0010
0000
1000
0000
0010
0000
0000
,
0001
0100
0001
0000
0100
0010
0100
0000
,
0010
0000
0000
0000
0010
0000
0000
0000
1010
0000
0000
1000
0000
0000
0001
0000
,
1000
0001
0100
0000
0010
1000
0001
0000
,
0100
0000
0000
0100
0000
0000
0100
0000
0110
0000
0000
0010
0000
0000
0010
0000
,
1000
0100
0001
0000
1000
0010
0001
0000
,
0100
0010
0110
0000
,
1000
0100
0010
0000
,
0001
0000
0000
0001
0000
0000
0001
1000
0010
0000
0000
0000
2000
0000
0000
0000
,
3001
0000
0001
0001
0000
0100
0000
1000
,
0000
0001
0000
1000
0000
0100
0000
0001
,
0000
0000
1000
1000
0000
0100
0000
0001
,
0000
1000
0000
0001
0000
1000
0000
0010
,
0000
0000
0001
0001
0000
0100
0000
1000
,
0000
0001
0000
1000
0000
0100
0000
0010
,
0000
0000
1000
1000
0000
0100
0000
0001
,
0000
1000
0000
0001
0000
0100
0000
0000
,
2000
0000
0000
0000
3002
0000
0000
0000
0103
0000
0000
0000
0010
1000
0010
1000
,
0010
0000
0000
0000
0010
0000
0000
0000
0100
0000
0000
0010
0000
0000
0010
0000
,
1000
1000
0001
0000
,
0100
0000
0000
0000
0000
0000
0100
0000
0000
0000
0000
0000
0100
0000
0000
0000
0001
0000
0000
0000
0000
0000
0000
1000
0000
0100
0000
0010
0000
0001
0000
0000
,
2000
0000
0000
0000
3010
0000
0100
0001
,
0100
0100
0110
0000
,
0010
0000
0110
0000
,
0100
0000
0000
0100
0000
0000
0100
0001
0010
0000
0000
0000
2200
0000
3300
0000
;

//---------------dance-single - TaroNuke----------------
#NOTES:
     dance-single:
     TaroNuke:
     Medium:
     6:
     0.323,0.411,0.008,0.209,0.039,264.000,1.000,27.000,0.000,0.000,0.000,0.323,0.411,0.008,0.209,0.039,264.000,1.000,27.000,0.000,0.000,0.000:
0000
0000
0000
0000
,
0000
0000
0000
0000
,
0000
0000
0000
0000
,
0000
0000
0000
0000
,
1000
0001
0100
0001
,
1000
0100
0010
0001
,
1000
1000
0001
0001
,
0200
0000
0320
0000
,
1030
0000
0000
1000
0000
0000
0001
0000
0010
0100
0000
1000
,
0001
0100
1000
0010
,
0002
0000
0203
0000
,
0320
0100
1030
0000
,
1000
0000
0000
1000
0000
0000
0001
0000
0100
0010
0000
1000
,
0001
0010
1000
0100
,
0002
0000
0203
0000
,
0320
0001
1030
0010
,
1000
0000
0000
1000
0000
0000
0001
0000
0010
0100
0000
1000
,
0001
0100
1000
0010
,
0002
0000
0203
0000
,
0320
1000
0130
0000
,
1000
0000
0000
1000
0000
0000
0001
0000
0100
0010
0000
1000
,
0001
0010
1000
0100
,
0002
0000
0203
0000
,
0320
1000
0031
0000
,
1000
0000
0000
1000
0000
0000
0001
0000
1000
0010
0000
0100
,
0001
0100
0001
0100
0010
1000
0010
1000
,
0100
0010
0100
0010
0001
0100
0001
0100
,
0010
0010
0010
1000
,
0200
0000
0310
0000
,
0001
0000
1000
0000
,
0200
0000
1300
0000
,
0001
0000
0010
0000
,
0200
0000
0310
0000
,
0001
0000
1000
0000
,
0200
0000
1300
0000
,
0020
0000
0130
0000
,
0002
0000
1003
0000
,
0200
0000
0310
0000
,
0002
0000
1003
0000
,
0020
0000
0130
0000
,
0002
0000
1003
0000
,
0200
0000
0310
0000
,
0200
0000
0310
0000
,
0020
0000
0031
0000
,
0001
1000
0010
1000
,
0100
0000
1000
0000
0010
0000
1000
0001
,
1000
0001
0100
0001
,
0010
0000
0001
0000
0100
0000
0001
1000
,
0001
1000
0010
1000
,
0100
0000
1000
0000
0010
0000
1000
0001
,
1000
0001
0100
0001
,
0010
0001
0100
0001
,
1000
1000
0100
0100
,
0001
0001
0100
0100
,
1000
1000
0010
0010
,
0001
0001
0010
0010
,
1000
1000
0100
0100
,
0001
0001
0100
0100
,
1000
1000
0010
0010
,
0001
0001
0100
0100
,
1000
0100
0010
0001
,
0100
0010
0100
0001
,
1000
0010
0100
0001
,
0010
0001
0010
0001
,
1000
0100
0010
0001
,
0100
0010
0100
0001
,
1000
0100
0010
0001
,
0100
0010
1000
0001
,
1000
1000
1000
1000
,
0001
0100
0010
0100
,
0001
0001
0001
0001
,
0100
0010
1000
0100
,
1000
1000
1000
1000
,
0010
0100
0010
1000
,
0001
0001
0001
0001
,
0100
0010
1000
1001
;

//---------------dance-single - TaroNuke----------------
#NOTES:
     dance-single:
     TaroNuke:
     Easy:
     2:
     0.165,0.235,0.000,0.132,0.000,132.000,0.000,17.000,0.000,0.000,0.000,0.165,0.235,0.000,0.132,0.000,132.000,0.000,17.000,0.000,0.000,0.000: // measure 0
0000
0000
0000
0000
,  // measure 1
0000
0000
0000
0000
,  // measure 2
0000
0000
0000
0000
,  // measure 3
0000
0000
0000
0000
,  // measure 4
1000
0000
1000
0000
,  // measure 5
0001
0000
0001
0000
,  // measure 6
0100
0000
0100
0000
,  // measure 7
0010
0000
0010
0000
,  // measure 8
1000
0000
0100
0000
,  // measure 9
0001
0000
0010
0000
,  // measure 10
1000
0000
1000
0000
,  // measure 11
0001
0000
0001
0000
,  // measure 12
1000
0000
0100
0000
,  // measure 13
0001
0000
0010
0000
,  // measure 14
1000
0000
1000
0000
,  // measure 15
0001
0000
0001
0000
,  // measure 16
1000
0001
1000
0000
,  // measure 17
0001
1000
0001
0000
,  // measure 18
0100
0000
0100
0000
,  // measure 19
0010
0000
0010
0000
,  // measure 20
0100
0010
0100
0000
,  // measure 21
0010
0100
0010
0000
,  // measure 22
0100
0000
0100
0000
,  // measure 23
0010
0000
0010
0000
,  // measure 24
1000
0001
1000
0001
,  // measure 25
0100
0010
0100
0010
,  // measure 26
2000
0000
3002
0000
,  // measure 27
0203
0000
0320
0000
,  // measure 28
2030
0000
0000
0000
,  // measure 29
3001
0000
0000
0000
,  // measure 30
2000
0000
0000
0000
,  // measure 31
3001
0000
0000
0000
,  // measure 32
0020
0000
0000
0000
,  // measure 33
0230
0000
0000
0000
,  // measure 34
0320
0000
0000
0000
,  // measure 35
2030
0000
0000
0000
,  // measure 36
3002
0000
0000
0000
,  // measure 37
1003
0000
0000
0000
,  // measure 38
0002
0000
0000
0000
,  // measure 39
1003
0000
0000
0000
,  // measure 40
0200
0000
0000
0000
,  // measure 41
0320
0000
0000
0000
,  // measure 42
0230
0000
0000
0000
,  // measure 43
0320
0000
0000
0000
,  // measure 44
0031
0000
0001
0000
,  // measure 45
0001
0000
0000
0000
,  // measure 46
1000
0000
1000
0000
,  // measure 47
1000
0000
0000
0000
,  // measure 48
0100
0000
0100
0000
,  // measure 49
0100
0000
0000
0000
,  // measure 50
0010
0000
0010
0000
,  // measure 51
0010
0000
0000
0000
,  // measure 52
0100
0000
0010
0000
,  // measure 53
0100
0000
0000
0000
,  // measure 54
0001
0000
1000
0000
,  // measure 55
0001
0000
0000
0000
,  // measure 56
0100
0000
0010
0000
,  // measure 57
0100
0000
0000
0000
,  // measure 58
0001
0000
1000
0000
,  // measure 59
0001
0000
0000
0000
,  // measure 60
1000
0000
0100
0000
,  // measure 61
0010
0000
0000
0000
,  // measure 62
0001
0000
0010
0000
,  // measure 63
0100
0000
0000
0000
,  // measure 64
1000
0000
0001
0000
,  // measure 65
1000
0000
0001
0000
,  // measure 66
0100
0000
0010
0000
,  // measure 67
0100
0000
0010
0000
,  // measure 68
1000
0000
1000
0000
,  // measure 69
1000
1000
1000
0000
,  // measure 70
0001
0000
0001
0000
,  // measure 71
0001
0001
0001
0200
,  // measure 72
0310
0000
0010
0000
,  // measure 73
0010
0010
0010
0000
,  // measure 74
0100
0000
0100
0000
,  // measure 75
0100
0100
0100
0010
;
