#TITLE:London Bridge;
#SUBTITLE:;
#ARTIST:SCI Guyz;
#TITLETRANSLIT:;
#SUBTITLETRANSLIT:;
#ARTISTTRANSLIT:;
#GENRE:Classical;
#CREDIT:;
#BANNER:London Bridge-banner.png;
#BACKGROUND:London Bridge-bg.png;
#LYRICSPATH:;
#CDTITLE:;
#MUSIC:London Bridge.ogg;
#OFFSET:-0.004;
#SAMPLESTART:33.732;
#SAMPLELENGTH:14.960;
#SELECTABLE:YES;
#BPMS:0.000=142.000
,168.000=130.000
,169.000=110.000
,170.000=90.000
,171.000=76.000
,174.000=78.900
,176.000=84.220
,179.000=86.890
,182.000=89.550
,184.000=92.880
,185.000=96.540
,187.000=101.529
,188.000=105.519
,190.500=108.179
,191.500=112.179
,193.000=117.499
,195.000=123.489
,197.000=126.489
,199.000=131.809
,201.000=135.799
,203.000=138.129
,207.000=141.999
;
#STOPS:;
#BGCHANGES:-10000.000=songbackground=1.000=0=0=1=====,
-0.004=London Bridge.mpg=1.000=1=0=1===CrossFade==,
218.500=London Bridge-bg.png=1.000=0=0=1=Centered====,
99999=-nosongbg-=1.000=0=0=0 // don't automatically add -songbackground-
;
#KEYSOUNDS:;
#ATTACKS:;

//---------------dance-single - ----------------
#NOTES:
     dance-single:
     :
     Hard:
     8:
     0.569,0.489,0.358,0.288,0.035,336.000,36.000,29.000,0.000,0.000,0.000,0.569,0.489,0.358,0.288,0.035,336.000,36.000,29.000,0.000,0.000,0.000:
0000
0000
0000
0000
,
0000
0000
0000
0000
,
0000
0000
0000
0000
,
0000
0000
0000
0000
0000
0000
0000
0000
0000
0000
0001
1000
0010
0000
0010
0000
,
1000
0000
0010
0000
0100
0001
0010
0000
,
0100
1000
0010
0000
0100
0001
1000
0000
,
0001
0000
1000
0000
0100
0010
1000
0000
,
0010
0000
0001
0000
0100
0010
1000
0001
,
0010
0001
0100
0100
0001
0001
0002
0000
,
1000
1000
2003
0000
0010
0010
3020
0000
,
0130
0010
1000
0010
0001
0010
0100
0000
,
0010
0000
0000
0000
1001
0000
0000
0000
0001
0000
1000
0001
1000
0000
0001
0000
,
0100
1000
0100
0010
1000
0100
0020
0000
,
0100
0100
0230
0000
1000
1000
2300
0000
,
3001
1000
0100
1000
0010
0010
0020
0000
,
0130
0000
0000
0000
0001
0000
0000
0000
0010
0000
0010
0100
1000
0000
0001
0000
,
0100
1000
0100
0001
0010
1000
0010
0001
,
0100
1000
0100
0001
0011
1100
1001
0000
,
0010
0001
0010
1000
0100
0001
0100
1000
,
0010
0001
0010
1000
1100
0011
1001
0000
,
0000
0101
0000
1010
0000
1100
0000
0011
,
0000
1001
0000
1001
0001
0100
0020
0000
,
1030
0010
0100
0001
0100
0010
1000
0001
,
0010
0100
1000
0001
1001
0101
1010
0000
,
1000
0010
0100
0001
0010
0100
1000
0000
,
0010
0200
0002
0303
0001
2000
0020
3030
,
0100
0010
1000
0001
0010
0100
1000
0000
,
1000
0000
0000
0000
0001
0000
0000
0000
0100
0000
0010
0100
0010
0000
0100
0000
,
0001
1000
0100
1000
0010
0100
0001
0000
,
0001
0200
0020
0330
0100
0020
2000
3030
,
1000
0010
1000
0100
1000
0001
0010
0000
,
0001
0000
0000
0000
0100
0000
0000
0000
0010
0000
0100
0001
1000
0000
0100
0000
,
0010
0000
0000
0000
,
0002
0000
2003
0000
0200
0000
0000
3300
,
1000
0010
1000
0100
1000
0001
0100
0001
,
0010
0001
0100
0010
0110
0101
1001
0000
,
0001
1000
0010
0100
0001
1000
0001
0010
,
0001
1000
0100
0010
0110
1100
1001
0000
,
0001
0100
1000
0100
0001
0010
1000
0010
,
0001
0100
0010
1000
1001
0101
0011
0000
,
0001
0010
1000
0010
0001
0100
1000
0100
,
0001
0010
0001
0100
0110
1001
0101
0000
,
2002
0000
0000
0000
3003
0000
1000
0001
,
0100
0010
0110
0101
1001
1000
0001
0100
,
1000
0000
0100
0000
0010
0100
0010
0000
1000
0000
0001
0000
0001
0000
1000
0000
,
0010
0100
0010
0010
0020
0000
0130
0001
,
2000
0000
3001
1000
0200
0000
1300
0010
,
0001
0010
0100
0010
2000
0000
3010
0000
,
0100
0000
0000
0000
0010
0000
1000
0010
1000
0000
0010
0000
0100
0000
0001
0000
,
0010
0100
1000
0010
0200
0000
0310
1000
,
0002
0000
1003
0010
0200
0000
0310
1000
,
0010
0100
0001
0010
0200
0000
1300
0000
,
0100
0000
1000
0100
0010
0001
0010
0100
,
1000
0010
0100
0001
1000
0010
0100
0101
,
0000
1100
0000
0011
0000
1001
0000
0000
;

//---------------dance-single - ----------------
#NOTES:
     dance-single:
     :
     Challenge:
     10:
     0.758,0.760,0.805,0.219,0.363,431.000,81.000,22.000,26.000,1.000,0.000,0.758,0.760,0.805,0.219,0.363,431.000,81.000,22.000,26.000,1.000,0.000:
0000
0000
0000
0000
,
0000
0000
0000
0000
,
0000
0000
0000
0000
,
0000
0000
0000
0000
0000
0000
0000
0000
0000
0000
0001
0100
0001
0000
1010
0000
,
1000
0001
0010
0001
0100
1000
0200
0000
,
0310
1000
0200
0000
0310
0001
0200
0000
,
0310
0001
0010
0100
0010
1000
0200
0000
,
0310
0000
0000
0000
1001
0000
0000
0000
0101
0000
0001
0100
0010
0000
1000
0000
,
0100
0000
0010
0001
0010
0000
0001
0000
0100
0000
0010
0000
0100
0010
0100
0000
,
0010
0000
1000
0000
0100
1000
0100
0000
1000
0000
0010
0000
0100
0010
0100
0000
,
0100
0000
0100
0001
0010
0000
0001
0000
0100
0000
0010
0000
1000
0001
1000
0000
,
0011
0000
0000
0000
1100
0000
0000
0000
0101
0000
0001
0100
0010
0000
1000
0000
,
1100
0000
1000
0001
0100
0000
0001
0000
0010
0000
0100
0000
1000
0100
1000
0000
,
1000
0000
0010
0000
0100
0010
0100
0000
0100
0000
0001
0000
0010
0001
0010
0000
,
0001
0000
0100
0010
1000
0000
0001
0000
0010
0000
1000
0000
0010
0001
0100
0000
,
0010
0000
0000
0000
0010
0000
0000
0000
0010
0000
0100
0001
1000
0000
0100
0000
,
0110
0001
0100
1000
1100
0100
0001
0010
,
0110
0000
0100
0000
1000
0000
0010
0000
0101
0000
1010
0000
2002
0MM0
0000
3003
,
0101
0100
1000
0100
0110
0010
1000
0100
,
0110
0000
0010
0000
0001
0000
0100
0000
1000
0000
0100
0000
0220
0000
M00M
0330
,
0101
0000
0001
0100
0010
0000
0100
0000
0110
0000
0010
1000
0100
0000
0010
0000
,
0011
0000
0001
0100
0010
0000
0100
0000
0010
0000
1000
0000
2002
0000
0MM0
3003
,
1001
0000
0010
0100
0010
0000
0001
0000
1001
0000
0100
0010
0100
0000
1000
0000
,
1001
0000
0001
0100
0010
0000
1000
0000
0110
0000
0011
0000
0202
0000
M0M0
0303
,
0001
0100
1000
0100
0010
1000
0100
0000
,
0010
0000
0001
0000
0100
0001
0100
0001
0100
0000
0010
0000
1000
0010
1000
0010
,
1000
0010
0100
0001
1000
0100
0010
0000
,
0011
0000
0000
0000
1100
0000
0000
0000
0101
0000
0001
0100
0010
0000
0100
0000
,
0010
1000
0100
0001
0100
0010
0001
0000
,
0001
0000
0100
0000
0010
1000
0010
1000
0010
0000
1000
0000
0100
0010
0100
0010
,
0100
0010
0001
1000
0010
1000
0100
0000
,
0110
0000
0000
0000
0011
0000
0000
0000
0101
0000
0010
1000
0100
0000
0010
0000
,
0011
0000
0000
0000
,
0002
0000
0200
0000
0010
0000
0000
0303
,
0101
0000
0001
0100
0010
0000
1000
0000
1100
0000
0100
0010
0001
0000
0010
0000
,
0110
0000
0100
1000
0010
0000
0100
0000
0110
0000
1001
0000
0202
0000
M0M0
0303
,
0101
0000
0001
0100
0010
0000
0100
0000
0110
0000
0010
1000
0100
0000
0010
0000
,
0011
0000
0001
0010
0100
0000
1000
0000
1100
0000
1010
0000
0202
0000
M0M0
0303
,
0101
0000
0001
0100
0010
0000
0110
0000
1001
0000
0001
0100
0010
0000
1010
0000
,
1100
0000
1000
0100
0010
0000
0100
0000
1100
0000
0011
0000
2002
0000
0MM0
3003
,
1001
0000
0001
0010
0001
0000
0011
0000
1100
0000
1000
0100
1000
0000
1100
0000
,
1010
0000
1000
0010
1000
0000
0010
0000
0110
0000
0101
0000
0022
0000
0000
0000
,
M033
0M00
000M
00M0
000M
M000
1000
0001
,
0100
0000
0010
1000
1010
0000
0101
0000
1001
0000
0010
0000
0100
0000
0010
0010
,
0100
0000
1000
0000
0100
1000
0010
0100
0001
0000
1000
0000
0001
0000
0100
0010
,
1000
0000
0100
0000
0010
0000
0001
0000
0100
0001
0100
0001
0100
0000
0010
0000
,
0100
0001
0100
0001
0100
0000
0001
0000
0010
0100
0010
0100
0010
0000
0100
0010
,
0001
0000
1000
0000
0001
0000
0010
0000
0100
0010
0100
0010
0100
0000
0000
0000
,
1100
0000
0000
0000
0110
0000
0010
0100
1000
0000
0001
0000
0101
0000
0001
0100
,
0010
0000
1000
0000
0100
0000
0010
0000
0001
0100
0010
1000
0001
0000
0010
0000
,
0100
1000
0010
0100
0001
0000
1000
0000
0001
0100
0010
1000
0100
0000
1000
0010
,
0100
0000
0010
0000
0100
0000
0001
0000
1000
0001
1000
0001
1000
0000
0000
0000
,
0101
0000
0000
0000
1001
0000
0001
0100
0010
0000
1010
0000
0101
0000
0001
1000
,
0100
0000
0011
0000
0101
0000
0011
0000
0110
0000
1100
0000
1001
0000
0001
0100
,
0010
M11M
0000
M1M1
0000
1MM1
0000
0000
;

//---------------dance-single - ----------------
#NOTES:
     dance-single:
     :
     Medium:
     5:
     0.400,0.380,0.447,0.129,0.000,224.000,45.000,13.000,0.000,0.000,0.000,0.400,0.380,0.447,0.129,0.000,224.000,45.000,13.000,0.000,0.000,0.000:
0000
0000
0000
0000
,
0000
0000
0000
0000
,
0000
0000
0000
0000
,
0000
0000
0000
0000
,
1000
0001
0010
0100
,
0010
0100
0010
0100
,
0010
0001
0100
0100
,
0010
0000
1000
0000
0001
1000
0001
0010
,
0001
0000
0100
0000
0010
1000
0010
0000
,
1000
0010
1000
0000
0010
1000
0010
0000
,
1000
0000
0001
0000
0010
0100
0010
0000
,
0110
0011
0202
0303
,
0001
0000
1000
0000
0100
0010
0001
0000
,
0001
0010
0100
0000
0100
0010
0001
0000
,
0001
0000
0100
0000
0010
1000
0100
0000
,
1000
0010
0220
0330
,
1001
0010
1001
0010
,
1001
0110
1001
0110
,
0110
1000
0110
0001
,
0110
1001
0110
1001
,
0000
0001
0000
1000
0000
0100
0000
0010
,
0000
0011
0000
1100
0000
0101
0000
1010
,
0000
0010
0000
0010
0000
0100
0000
0100
,
0000
0110
0000
1001
0000
0110
0000
1001
,
0001
0100
0001
0100
0001
0100
0002
0000
,
0003
0000
0000
0000
,
1000
0100
1000
0100
1000
0100
1000
0000
,
1000
0000
0001
0000
0200
0020
0000
0330
,
0010
1000
0010
1000
0010
1000
0010
0000
,
0000
0000
0000
0000
,
0010
0100
0010
0100
0010
0100
0010
0000
,
0100
0000
0001
0000
2000
0200
0000
0000
,
3300
0000
0000
0000
,
1000
0000
0002
0000
0200
0000
0000
0303
,
0101
0001
0101
0100
,
0101
1010
0101
1010
,
1010
0010
1010
1000
,
1010
0101
1010
0101
,
0000
1001
0000
0101
0000
0110
0000
1010
,
0000
1000
0000
0001
0000
0010
0000
0100
,
0000
1100
0000
0011
0000
0101
0000
1010
,
0000
1000
0000
0001
0000
0010
0000
0001
,
0202
0000
0303
0100
,
0010
0000
0100
0001
1000
0000
0001
0000
,
1000
0000
0100
0100
1000
0000
0100
0000
,
1000
0000
0010
0100
0010
0000
0010
0100
,
0010
0000
0010
0100
0010
0000
0100
0000
,
0001
0000
0010
0100
0010
0000
0100
0000
,
1000
0000
0010
1000
0000
0000
1000
0000
,
0001
0000
1000
0001
0100
0000
0001
1000
,
0100
0000
1000
0001
0100
0000
0001
0000
,
0100
0000
0010
0100
0010
0000
0100
0000
,
0001
0000
1000
0001
0100
0000
0001
0100
,
0010
0000
1000
0100
1000
0100
1000
0100
,
0010
0001
0000
0001
0000
0001
0000
0000
;

//---------------dance-single - ----------------
#NOTES:
     dance-single:
     :
     Easy:
     3:
     0.236,0.244,0.099,0.070,0.000,149.000,10.000,7.000,0.000,0.000,0.000,0.236,0.244,0.099,0.070,0.000,149.000,10.000,7.000,0.000,0.000,0.000:
0000
0000
0000
0000
,
0000
0000
0000
0000
,
0000
0000
0000
0000
,
0000
0000
0000
0000
,
1000
0000
0001
0000
,
0100
0000
0100
0000
,
0010
0000
1000
0000
,
0100
0100
0100
0000
,
0010
0001
1000
1000
,
0001
0001
1000
1000
,
0001
0100
0010
0010
,
0100
0001
0010
0000
,
0100
1000
0010
0010
,
0100
0100
0010
0010
,
0100
0001
1000
0100
,
0010
0100
1000
0000
,
1001
0000
0010
0000
,
1001
0010
0010
0110
,
1001
0000
0100
0000
,
1001
0100
0100
0101
,
0001
0000
0100
0000
,
1000
0100
0010
1000
,
0001
0000
0010
0000
,
0100
1000
0010
0100
,
0001
1000
0001
0200
,
0300
0000
0000
0000
,
0001
1000
0001
0200
,
0301
0100
0010
0000
,
0100
0010
1000
0100
,
0000
0000
0000
0000
,
0010
1000
0100
0010
,
0100
1000
0001
0000
,
0000
0000
0000
0000
,
0001
0001
0200
0300
,
0010
0010
0100
0100
,
0010
0100
0010
0110
,
0001
0001
1000
1000
,
0001
1000
0001
1001
,
0001
0100
0001
0100
,
0001
0001
0100
0101
,
0100
0100
0010
0010
,
1000
0010
0100
0001
,
2002
0000
3003
1000
,
0000
0001
0000
0100
,
0000
0010
0000
1000
,
0000
0001
0000
0010
,
0000
0010
0000
0100
,
0000
1000
0000
0010
,
0010
0010
0000
0100
,
0000
0001
0000
1000
,
0000
0100
0000
0010
,
0000
0100
0000
1000
,
0000
0001
0000
0100
,
0000
0000
0010
0000
1000
0000
1000
0001
,
0200
0020
0000
0030
0000
0300
0000
0000
;

//---------------dance-single - ----------------
#NOTES:
     dance-single:
     :
     Beginner:
     1:
     0.129,0.134,0.010,0.000,0.000,90.000,1.000,0.000,0.000,0.000,0.000,0.129,0.134,0.010,0.000,0.000,90.000,1.000,0.000,0.000,0.000,0.000: // measure 0
0000
0000
0000
0000
,  // measure 1
0000
0000
0000
0000
,  // measure 2
0000
0000
0000
0000
,  // measure 3
0000
0000
0000
0000
,  // measure 4
1000
0000
0000
0000
,  // measure 5
0000
0000
0000
0000
,  // measure 6
0001
0000
0000
0000
,  // measure 7
0000
0000
0000
0000
,  // measure 8
0010
0000
0000
0000
,  // measure 9
0100
0000
0100
0000
,  // measure 10
0100
0000
0000
0000
,  // measure 11
0001
0001
0001
0000
,  // measure 12
1000
0000
0000
0000
,  // measure 13
0010
0000
0010
0000
,  // measure 14
0100
0000
0000
0000
,  // measure 15
0100
0100
0100
0000
,  // measure 16
0001
0000
1000
0000
,  // measure 17
0001
0000
1000
1000
,  // measure 18
0001
0000
0001
0000
,  // measure 19
1000
0000
1000
1000
,  // measure 20
0010
0000
0010
0000
,  // measure 21
0010
0000
0010
0010
,  // measure 22
0100
0000
0100
0000
,  // measure 23
0100
0000
0100
0100
,  // measure 24
0010
0000
0000
0000
,  // measure 25
1000
0000
0100
0000
,  // measure 26
0010
0000
0000
0000
,  // measure 27
0100
0100
0100
0000
,  // measure 28
1000
0000
0000
0000
,  // measure 29
0001
0000
0001
0000
,  // measure 30
0001
0000
0000
0000
,  // measure 31
0100
0100
0100
0000
,  // measure 32
0000
0000
0000
0000
,  // measure 33
0000
0000
0000
0000
,  // measure 34
0001
0000
0001
0000
,  // measure 35
0001
0000
0001
0001
,  // measure 36
1000
0000
1000
0000
,  // measure 37
1000
0000
1000
1000
,  // measure 38
0100
0000
0100
0000
,  // measure 39
0100
0000
0100
0100
,  // measure 40
0010
0000
0010
0000
,  // measure 41
0010
0000
0010
0010
,  // measure 42
1001
0000
0000
0001
,  // measure 43
0000
0000
0000
1000
,  // measure 44
0000
0000
0000
0001
,  // measure 45
0000
0000
0000
1000
,  // measure 46
0000
1000
0000
0001
,  // measure 47
0000
0000
0000
1000
,  // measure 48
1000
1000
0000
0001
,  // measure 49
0000
0000
0000
1000
,  // measure 50
0000
0001
0000
1000
,  // measure 51
0000
0000
0000
0001
,  // measure 52
0001
0001
0000
1000
,  // measure 53
0000
0010
0000
0100
;
