#TITLE:The Heat Is On;
#SUBTITLE:;
#ARTIST:Aaron G.;
#TITLETRANSLIT:;
#SUBTITLETRANSLIT:;
#ARTISTTRANSLIT:;
#CREDIT:;
#BANNER:The Heat Is On bn.PNG;
#BACKGROUND:The Heat Is On bg.PNG;
#LYRICSPATH:;
#CDTITLE:;
#MUSIC:The Heat Is On.mp3;
#OFFSET:-0.200;
#SAMPLESTART:49.620;
#SAMPLELENGTH:15.620;
#SELECTABLE:YES;
#BPMS:0.000=114.000;
#STOPS:;
#BGCHANGES:;

//---------------dance-single - ----------------
#NOTES:
     dance-single:
     :
     Hard:
     7:
     0.526,0.509,0.415,0.168,0.232: // measure 1
0000
0000
0000
0000
,  // measure 2
0000
0000
0000
0000
,  // measure 3
0000
0000
0000
0000
,  // measure 4
0000
0000
0000
0000
,  // measure 5
1001
0000
0001
0000
0010
0000
0000
0001
0000
0000
0102
0000
0103
0000
0000
0000
,  // measure 6
0110
0000
0010
0000
1000
0000
0000
0100
0000
0000
0210
0000
0310
0000
0000
0000
,  // measure 7
0011
0000
0001
0000
1000
0000
0000
0010
0000
0000
0120
0000
0130
0000
0000
0000
,  // measure 8
0101
0000
0001
0000
0010
0000
0000
0100
0000
0000
2100
0000
3100
0000
0000
0000
,  // measure 9
0010
0000
0001
0010
0000
0000
0100
0000
1000
0000
0010
1000
0000
0000
0010
0000
,  // measure 10
0100
0001
0100
0000
0001
0000
0010
0000
0001
1000
0001
1000
0000
0000
0001
0000
,  // measure 11
1000
0100
1000
0100
0000
0000
0010
0000
0001
0000
1000
0001
0000
0100
0010
0000
,  // measure 12
1000
0000
0000
1000
0010
0000
0000
0010
0100
0000
0000
0101
0000
0000
0001
0000
,  // measure 13
0010
0000
0100
1000
0000
0100
1000
0000
0010
0000
0100
0001
0000
0100
0001
0000
,  // measure 14
0100
0000
0010
1000
0000
0010
0000
0100
0001
0000
0010
0100
0000
1000
0000
0000
,  // measure 15
0010
0000
2000
0001
0000
3001
0000
0000
0100
0000
0020
1000
0000
1030
0000
0000
,  // measure 16
0010
0000
1000
0001
0000
0010
0001
0000
0100
0000
0110
0000
0000
1010
0000
0000
,  // measure 17
1001
0000
0001
0000
0010
0000
0000
1000
0000
0000
2010
0000
3010
0000
0000
0000
,  // measure 18
0011
0000
0001
0000
0100
0000
0000
0010
0000
0000
1020
0000
1030
0000
0000
0000
,  // measure 19
1001
0000
0001
0000
0010
0000
0000
0001
0000
0000
0102
0000
0103
0000
0000
0000
,  // measure 20
0110
0000
0010
0000
1000
0000
0000
0001
0000
0000
0012
0000
0013
0000
0000
0000
,  // measure 21
0110
0000
0100
0000
1000
0000
1000
0010
0000
0000
2010
0000
3010
0000
0000
0000
,  // measure 22
0110
0000
0100
0000
0001
0000
0001
0010
0000
0000
0012
0000
0013
0000
0000
0000
,  // measure 23
0110
0000
0100
0000
1000
0000
1000
0010
0000
0000
2010
0000
3010
0000
0000
0000
,  // measure 24
0100
0001
0010
1000
0010
0001
0100
0010
,  // measure 25
0110
0000
1010
0000
0010
1000
0100
0001
,  // measure 26
0100
1000
0010
0001
0010
1000
0010
0100
,  // measure 27
0101
0000
0011
0000
0010
0100
1000
0001
,  // measure 28
0010
0001
0100
0010
1000
0100
0010
0001
,  // measure 29
0011
0000
0101
0000
0001
0100
0010
1000
,  // measure 30
0100
0010
0001
1000
0010
0100
0001
0001
,  // measure 31
1000
1000
0100
0100
0010
0010
0001
2000
,  // measure 32
0000
3010
1000
0001
0010
0001
0100
0010
,  // measure 33
0110
0000
1010
0000
0010
1000
0100
0002
,  // measure 34
0100
0000
0000
0100
0000
0000
0103
0000
1000
0000
0010
0000
0100
0000
0001
0000
,  // measure 35
0101
0000
0110
0000
0010
1000
0100
0020
,  // measure 36
0001
0001
0001
0031
0001
0010
0001
0100
,  // measure 37
0110
0000
1010
0000
1000
0100
0001
0100
,  // measure 38
1000
0010
0100
0001
0010
0100
1000
1000
,  // measure 39
0001
0000
0001
0000
0010
0000
0001
0000
0100
0000
0000
0010
0000
0000
1010
0000
,  // measure 40
0000
0010
0100
0001
0010
0001
1000
0010
,  // measure 41
1010
0000
0010
0000
0100
0001
0000
0100
0000
0010
0000
0000
1000
0000
0001
0000
,  // measure 42
0011
0001
0010
0100
1000
0010
0100
0001
,  // measure 43
0101
0100
0010
1000
0020
0000
1030
0001
,  // measure 44
0010
0001
0100
0001
0010
1000
0010
0100
,  // measure 45
0110
0000
0100
0000
1000
0001
0000
0010
0000
0001
0000
0000
0100
0000
0010
0000
,  // measure 46
1000
0100
0001
0100
1000
0010
0001
0010
,  // measure 47
1000
1000
0001
0001
0010
0010
0001
1000
;

//---------------dance-single - ----------------
#NOTES:
     dance-single:
     :
     Beginner:
     2:
     0.144,0.162,0.000,0.000,0.000:
0000
0000
0000
0000
,
0000
0000
0000
0000
,
0000
0000
0000
0000
,
0000
0000
0000
0000
,
1000
0000
0000
0001
,
0001
0000
0000
0010
,
0010
0000
0000
0100
,
0100
0000
0000
1000
,
1000
0000
1000
0000
,
0001
0000
0001
0000
,
0010
0000
0010
0000
,
0001
0000
0001
0000
,
0100
0000
0100
0000
,
0010
0000
0010
0000
,
1000
0000
1000
0000
,
0001
0000
0001
0001
,
0001
0000
1000
0000
,
0010
0000
1000
0000
,
0001
0000
0010
0000
,
0001
0000
0100
0000
,
0010
0000
1000
0000
,
0100
0000
0001
0000
,
0100
0000
1000
0000
,
0010
0000
0100
0100
,
0100
0000
0001
0000
,
0010
0000
0001
0001
,
0001
0000
1000
0000
,
0010
0000
1000
1000
,
1000
0000
0010
0000
,
0100
0000
0001
0001
,
0001
0000
0010
0000
,
0100
0100
0100
0000
,
1000
0000
0010
0010
,
0010
0000
1000
0000
,
0100
0000
0001
0001
,
0001
0000
0100
0000
,
0010
0000
1000
1000
,
1000
0000
0010
0010
,
0010
0000
0100
0000
,
0001
0001
0001
0000
,
1000
0000
0100
0100
,
0100
0000
0010
0000
,
0001
0000
1000
1000
,
1000
0000
0010
0000
,
0100
0000
0001
0001
,
0001
0000
1000
0000
,
0010
0010
0010
0010
;

//---------------dance-single - ----------------
#NOTES:
     dance-single:
     :
     Easy:
     3:
     0.267,0.278,0.049,0.198,0.000:
0000
0000
0000
0000
,
0000
0000
0000
0000
,
0000
0000
0000
0000
,
0000
0000
0000
0000
,
1000
0100
1000
0002
,
0013
0001
0100
0020
,
1030
0100
0001
0200
,
1300
0010
0100
0002
,
1003
0100
1000
1000
,
0001
0100
0001
0001
,
1000
0010
1000
0001
,
0010
0001
1000
1001
,
0001
0010
0001
0001
,
0100
0010
1000
1000
,
0010
0010
0100
0100
,
0001
1000
0100
0010
,
0011
0001
0100
0020
,
0130
1000
0001
0020
,
0031
0100
0010
2000
,
3100
0010
0001
0200
,
0310
1000
0001
0020
,
0031
0100
0010
2000
,
3100
0010
0001
0200
,
0310
1000
0001
0010
,
1001
1000
0100
1000
,
0002
0003
0010
0001
,
0100
0010
1000
0100
,
0002
0003
0100
1000
,
0010
0100
0001
0010
,
0002
0003
1000
0100
,
0100
0100
0100
0010
,
0001
1000
0010
0100
,
0101
0001
0010
0100
,
2000
3000
0010
0100
,
0001
0100
0010
1000
,
0002
0003
0010
0001
,
0100
0010
1000
0100
,
0002
0003
0100
1000
,
1000
1000
1000
0100
,
0010
0001
1000
0010
,
0110
0100
0001
0010
,
0002
0003
0100
0010
,
1000
0001
0010
0001
,
2000
3000
0010
1000
,
0100
0001
0100
1000
,
0020
0030
0100
0001
,
0001
0000
0001
0000
0001
0000
0001
0001
;

//---------------dance-single - ----------------
#NOTES:
     dance-single:
     :
     Medium:
     5:
     0.320,0.324,0.020,0.109,0.000:
0000
0000
0000
0000
,
0000
0000
0000
0000
,
0000
0000
0000
0000
,
0000
0000
0000
0000
,
1000
0000
0100
0000
0010
0020
0030
0000
,
0001
0000
0100
0000
0010
0020
0030
0000
,
1000
0000
0001
0000
0100
0200
0000
0300
,
0001
0000
1000
0000
0100
0200
0000
0300
,
1000
0000
0010
0000
1000
0001
1000
0000
,
0001
0000
0010
0000
0001
1000
0001
0000
,
0100
0000
0010
0000
1000
0100
1000
0000
,
0100
0010
0001
1001
,
0001
0000
0100
0000
0010
1000
0010
0000
,
1000
0000
0100
0000
0010
0001
0010
0000
,
0001
0001
0001
0000
1000
1000
1000
0000
,
0010
0000
0100
0000
0001
0000
1000
0001
,
1000
0000
0010
0000
0100
0200
0300
0000
,
0001
0000
0010
0000
0100
0200
0300
0000
,
1000
0000
0010
0000
1000
2000
3000
0000
,
0001
0000
0010
0000
0001
0002
0003
0000
,
0100
0000
0010
0000
1000
0200
0300
0000
,
0010
0000
0001
0000
0100
0020
0030
0000
,
1000
0000
0010
0000
0100
0002
0003
0000
,
1000
0100
1000
0000
0001
0100
0001
0000
,
1000
0000
0010
0000
1000
0001
1000
0000
,
0001
0000
0010
0000
0001
0100
0001
0100
,
0001
0000
0100
0000
0010
0100
0010
0000
,
1000
0000
0010
0000
1000
0100
1000
0100
,
1000
0000
0100
0000
0010
0100
0010
0000
,
0001
0000
1000
0000
0001
0100
0001
0000
,
1000
0100
1000
0000
0001
0000
0010
0001
,
0000
0100
0010
0000
1000
0010
1000
0000
,
0010
0000
0100
0000
0001
0010
0001
0000
,
1000
0000
0001
0000
1000
0100
1000
0001
,
0010
0000
0001
0000
0100
0010
0100
0000
,
0010
0000
1000
0000
0100
0001
0100
1000
,
0100
0000
0010
0000
0001
0100
0010
0000
,
1000
0000
0001
0000
0010
0001
0010
0000
,
0001
0100
0001
0000
0100
0010
0100
0010
,
0000
1000
0010
0000
1000
0100
1000
0000
,
1001
0000
0001
0000
0010
0001
0010
0000
,
0001
0000
0100
0000
0010
1000
0100
1000
,
0010
0000
0100
0000
0001
0100
0001
0000
,
0010
0000
0001
0000
1000
0010
1000
0001
,
0010
0000
0001
0000
0100
0001
0100
0000
,
0010
0000
1000
0000
0100
1000
0100
0000
,
0010
0000
0001
0000
1000
0000
0010
0100
;
