#TITLE:Revolution Deathsquad;
#SUBTITLE:;
#ARTIST:DragonForce;
#TITLETRANSLIT:;
#SUBTITLETRANSLIT:;
#ARTISTTRANSLIT:;
#CREDIT:BLAZING WITH POWER;
#BANNER:Revolution Deathsquad bn.PNG;
#BACKGROUND:Revolution Deathsquad bg.PNG;
#LYRICSPATH:;
#CDTITLE:;
#MUSIC:Revolution Deathsquad.mp3;
#OFFSET:-0.060;
#SAMPLESTART:74.380;
#SAMPLELENGTH:15.620;
#SELECTABLE:YES;
#BPMS:0.000=200.020;
#STOPS:;
#BGCHANGES:;

//---------------dance-single - ----------------
#NOTES:
     dance-single:
     :
     Hard:
     9:
     0.714,0.783,0.360,0.440,0.013: // measure 1
0000
0000
0000
0000
,  // measure 2
0000
0000
0000
0000
,  // measure 3
0000
0000
0000
0000
,  // measure 4
0000
0000
0000
0000
,  // measure 5
0000
0000
0000
0000
,  // measure 6
0000
0000
0000
0000
,  // measure 7
0000
0000
0000
0000
,  // measure 8
0000
0000
0000
0000
,  // measure 9
2000
0000
3100
0020
0000
0031
2000
0000
,  // measure 10
3020
0000
0130
0002
0000
0013
0001
0100
,  // measure 11
0020
0000
1030
0002
0003
0100
1000
0100
,  // measure 12
0001
0010
1000
0010
0001
0100
0010
1000
,  // measure 13
0020
0000
0130
0002
0000
1003
0200
0000
,  // measure 14
0320
0000
0031
2000
0000
3010
1000
0100
,  // measure 15
0001
0100
1000
0010
0100
0001
0010
0001
,  // measure 16
1000
0000
0000
1000
0010
0000
0100
0000
0001
0000
0000
0001
0100
0000
0010
0000
,  // measure 17
2002
0000
0000
3003
,  // measure 18
1100
0000
0101
0000
0001
0100
0010
0000
,  // measure 19
0110
0110
0000
1010
1010
0000
1000
0000
,  // measure 20
1001
1001
0000
0101
0101
0000
0100
0000
,  // measure 21
0010
1000
0100
0010
0001
1000
0010
0100
,  // measure 22
0002
0000
0000
0003
,  // measure 23
1000
0100
0010
0001
1000
0010
0100
0001
,  // measure 24
0100
0010
0000
1000
0001
0000
1001
0000
,  // measure 25
0001
0010
0100
1000
0010
0100
0001
1000
,  // measure 26
0010
1000
0000
0100
0010
0000
0001
0100
,  // measure 27
0020
1030
0200
0310
,  // measure 28
0001
1000
0000
0010
1000
0000
1010
0000
,  // measure 29
0010
0100
0000
0001
0100
0010
0000
1000
,  // measure 30
0100
0010
0001
0010
0100
1000
0010
0100
,  // measure 31
0001
0100
0000
0010
1000
0100
0001
0100
,  // measure 32
1000
0010
0000
0100
0001
0000
0101
0000
,  // measure 33
0001
0010
0000
0100
1000
0010
0100
0001
,  // measure 34
1000
0010
0000
1000
0100
0000
0001
0100
,  // measure 35
2000
3010
0200
0301
,  // measure 36
0010
0001
0000
0100
0010
0000
0110
0000
,  // measure 37
0010
1000
0000
0100
0010
0001
0000
1000
,  // measure 38
0010
0100
0001
0100
0010
1000
0100
0000
,  // measure 39
0010
0000
0001
0200
0000
0000
0310
0000
,  // measure 40
1000
0000
0001
0020
0000
0000
0130
0000
,  // measure 41
2000
3100
0020
0032
,  // measure 42
0103
0010
1000
0001
0010
0001
0100
0000
,  // measure 43
0010
1000
0000
0100
1000
0001
0000
0010
,  // measure 44
0001
0000
0100
0010
1000
0000
0010
0000
,  // measure 45
0200
0000
0000
0302
0000
0000
2003
0000
,  // measure 46
3100
0010
0001
1000
0010
0100
0001
0000
,  // measure 47
0100
0010
0000
1000
0010
0000
0100
0000
,  // measure 48
0001
0000
0010
0001
0100
0000
0010
0000
,  // measure 49
0110
0000
1010
0000
0010
0100
0000
0101
,  // measure 50
0000
0001
0010
0000
0100
1000
0100
0000
,  // measure 51
0010
0001
0010
0001
0100
0001
0100
0000
,  // measure 52
0010
1000
0010
1000
0100
1000
0100
0000
,  // measure 53
0010
0001
0010
0100
1000
0010
1000
0100
,  // measure 54
0010
0001
0100
0010
1000
0001
0010
0000
,  // measure 55
1001
0000
0000
0000
0000
0000
0000
0000
0000
0000
0000
0110
,  // measure 56
0000
0000
0000
0000
,  // measure 57
0010
1000
0100
0010
0001
1000
0010
0000
,  // measure 58
1000
0010
0100
0001
1000
0100
0001
0000
,  // measure 59
0101
0000
0100
1000
0000
0010
0100
0000
,  // measure 60
0101
0000
0001
0010
0000
0100
1000
0000
,  // measure 61
0001
1000
0001
1000
0010
0100
0010
0100
,  // measure 62
0110
1001
0110
1001
,  // measure 63
2000
0000
0000
3020
0000
0000
0230
0000
,  // measure 64
0301
0010
0000
0001
1000
0000
1001
0000
,  // measure 65
1000
0010
1000
0001
0100
0001
1000
0100
,  // measure 66
1000
0100
0010
0001
1000
0010
0100
0001
,  // measure 67
1000
0100
0000
0010
0002
0000
2003
0000
,  // measure 68
3010
0000
0100
0001
0200
0000
0320
0000
,  // measure 69
1030
0000
0001
0010
0001
0000
1000
0000
,  // measure 70
0010
1000
0100
0001
0100
1000
0010
0000
,  // measure 71
0110
0000
0100
0001
0200
0000
0310
0000
,  // measure 72
1000
0000
0001
0010
0002
0000
0103
0000
,  // measure 73
0110
0000
0010
1000
0200
0000
0310
0000
,  // measure 74
0001
0000
1000
0010
2000
0000
3001
0000
,  // measure 75
0010
0001
0100
0001
0010
0100
1000
0000
,  // measure 76
0010
1000
0001
0100
0001
0100
0010
0000
,  // measure 77
1010
0000
1000
0100
0010
0000
0001
0100
,  // measure 78
0110
0010
1010
0101
,  // measure 79
0001
0010
0100
1000
0010
0100
0001
1000
,  // measure 80
0020
1030
0200
0320
,  // measure 81
0031
1000
0100
0001
0100
1000
0010
0100
,  // measure 82
0002
0013
0002
0203
,  // measure 83
0310
1000
0100
0010
0001
1000
0010
0100
,  // measure 84
0001
0100
0010
1000
0100
0010
0001
0100
,  // measure 85
0010
1000
0100
0000
0010
0001
0100
0000
,  // measure 86
0010
1000
0001
0000
0100
0001
1000
0000
,  // measure 87
2002
0000
0000
3003
,  // measure 88
1100
0011
0101
1010
,  // measure 89
0010
1000
0100
0010
0001
1000
0010
0100
,  // measure 90
0001
0010
0001
0100
0010
1000
0100
0010
,  // measure 91
0002
0000
0000
0003
,  // measure 92
1001
2002
0000
0000
0000
0000
3003
0000
;

//---------------dance-single - ----------------
#NOTES:
     dance-single:
     :
     Beginner:
     3:
     0.166,0.368,0.045,0.009,0.000:
0000
0000
0000
0000
,
0000
0000
0000
0000
,
0000
0000
0000
0000
,
0000
0000
0000
0000
,
0000
0000
0000
0000
,
0000
0000
0000
0000
,
0000
0000
0000
0000
,
0000
0000
0000
0000
,
1000
0000
0000
0000
,
0001
0000
0000
0000
,
0010
0000
0000
0000
,
0001
0000
0001
0000
,
0001
0000
0000
0000
,
0100
0000
0000
0000
,
0010
0000
0000
0000
,
1000
0000
1000
0000
,
1001
0000
0000
0000
,
0010
0010
0000
0000
,
1000
0000
1000
0000
,
0001
0000
0001
0000
,
1001
0000
0000
0000
,
0000
0000
0000
0000
,
1000
0000
0000
0000
,
0010
0000
0010
0000
,
0010
0000
0000
0000
,
0100
0000
0100
0000
,
0100
0000
0000
0000
,
0001
0000
0000
0000
,
1000
0000
1000
0000
,
1000
0000
0000
0000
,
0010
0000
0000
0000
,
0100
0000
0100
0000
,
0100
0000
0000
0000
,
0001
0000
0001
0000
,
0001
0000
0000
0000
,
0010
0000
0000
0000
,
1000
0000
1000
0000
,
1000
0000
0000
0000
,
0010
0000
0000
0000
,
0100
0000
0000
0000
,
0001
0000
0001
0000
,
0001
0000
0000
0000
,
1000
0000
0000
0000
,
0100
0000
0000
0000
,
0010
0000
0010
0000
,
0010
0000
0000
0000
,
0001
0000
0000
0000
,
1000
0000
0000
0000
,
0010
0000
0010
0000
,
0010
0000
0000
0000
,
0100
0000
0000
0000
,
0001
0000
0001
0000
,
0001
0000
0000
0000
,
1000
0000
0000
0000
,
1001
0000
0000
0000
,
0110
0000
0000
0000
,
1000
0000
0000
0000
,
0001
0000
0000
0000
,
0010
0000
0010
0000
,
0010
0000
0000
0000
,
0100
0000
0100
0000
,
0100
0000
0000
0000
,
0010
0000
0000
0000
,
1000
0000
0000
0000
,
0001
0000
0001
0000
,
0001
0000
0000
0000
,
1000
0000
0000
0000
,
0100
0000
0000
0000
,
0010
0000
0010
0000
,
0010
0000
0000
0000
,
0001
0000
0000
0000
,
1000
0000
0000
0000
,
0100
0000
0100
0000
,
0100
0000
0000
0000
,
0010
0000
0010
0000
,
0001
0000
0001
0000
,
1000
0000
1000
0000
,
0010
0000
0100
0100
,
0100
0000
0000
0000
,
0010
0000
0010
0010
,
0010
0000
0000
0000
,
1000
0000
1000
1000
,
1000
0000
0000
0000
,
0001
0000
0000
0000
,
0010
0010
0010
0010
,
0100
0100
0100
0100
,
0010
0000
0000
0000
,
1000
1000
1000
1000
,
0001
0000
0001
0000
,
1000
0000
1000
0000
,
0002
0000
0003
0000
,
1001
0000
0000
0000
;

//---------------dance-single - ----------------
#NOTES:
     dance-single:
     :
     Easy:
     5:
     0.389,0.532,0.144,0.108,0.000:
0000
0000
0000
0000
,
0000
0000
0000
0000
,
0000
0000
0000
0000
,
0000
0000
0000
0000
,
0000
0000
0000
0000
,
0000
0000
0000
0000
,
0000
0000
0000
0000
,
0000
0000
0000
0000
,
1000
0000
0100
0010
,
0100
0000
0010
0001
,
0010
0000
0001
0100
,
0010
1000
0001
0100
,
0010
0000
1000
0100
,
0010
0000
0001
0100
,
0010
1000
0001
0010
,
0001
1000
0100
1000
,
0002
0000
0000
0003
,
1000
1000
0010
0010
,
0100
0000
0101
0000
,
0001
0000
0011
0000
,
0010
0100
1000
0001
,
0020
0000
0000
0030
,
0001
0100
0001
1000
,
0010
1000
0100
0000
,
0010
0001
1000
0010
,
1000
0100
0010
0001
,
0200
0300
0020
0030
,
1000
0001
0010
0001
,
1000
0010
1000
0100
,
0002
0000
0000
0003
,
0100
0010
1000
0001
,
0010
0001
1000
0000
,
0100
1000
0001
0010
,
0001
0100
0010
1000
,
0100
0000
0010
0000
,
0001
1000
0001
0000
,
1000
0010
1000
0001
,
0010
0001
0100
0000
,
0010
1000
0100
0000
,
0001
0100
0010
0000
,
1000
0000
0001
0010
,
0002
0000
1003
0000
,
0100
1000
0010
0100
,
0001
0010
1000
0010
,
0001
0000
0100
0010
,
2000
0000
3010
0000
,
0100
0001
0010
0001
,
0100
0010
1000
0100
,
0001
0100
1000
0100
,
0010
0002
0000
1003
,
0010
1000
0001
0010
,
0001
0100
0010
1000
,
0100
0100
0010
0010
,
0001
0001
1000
1000
,
1001
0000
0000
0000
,
0110
0000
0000
0000
,
0010
1000
0001
0100
,
0001
0010
0100
1000
,
0010
1000
0001
0010
,
0001
1000
0100
1000
,
0001
0100
0001
0010
,
0011
0011
0011
0011
,
0010
0000
0100
0000
,
1000
0010
1000
0000
,
0001
0010
1000
0010
,
0001
0100
1000
0100
,
0001
0000
0010
0100
,
1000
0000
0010
0100
,
0001
0000
1000
0100
,
0001
0000
0100
0000
,
1000
0010
0100
0001
,
1000
0100
0010
0001
,
1000
0010
0100
0001
,
1000
0100
0010
0001
,
1000
0010
0001
0010
,
1000
0100
0001
0100
,
1000
1000
1000
1000
,
0001
0001
1001
1001
,
1000
0010
1000
0001
,
0010
0000
0001
0100
,
0010
1000
0100
0001
,
0100
0000
1000
0010
,
1000
0001
0010
0001
,
1000
0000
0010
0000
,
0100
0100
0001
0001
,
1000
1000
0010
0010
,
0220
0000
0000
0330
,
0110
0110
1001
1001
,
1000
0010
1000
0001
,
1000
0100
1000
0001
,
0202
0000
0303
0000
,
1000
0001
0000
0000
0000
0000
0000
0000
;

//---------------dance-single - ----------------
#NOTES:
     dance-single:
     :
     Medium:
     7:
     0.561,0.618,0.342,0.225,0.004:
0000
0000
0000
0000
,
0000
0000
0000
0000
,
0000
0000
0000
0000
,
0000
0000
0000
0000
,
0000
0000
0000
0000
,
0000
0000
0000
0000
,
0000
0000
0000
0000
,
0000
0000
0000
0000
,
1000
0000
0000
0100
0000
0000
0010
0000
,
0001
0000
0000
0100
0000
0000
0010
1000
,
0010
0000
0000
0100
0000
0000
0001
0000
,
1000
0100
1000
0000
0001
0100
0001
0000
,
1000
0000
0000
0010
0000
0000
1000
0000
,
0001
0000
0010
0001
0000
0000
0100
0000
,
0010
0000
1000
0001
0000
0001
0010
0000
,
0001
0100
0001
0000
1000
0100
1000
0000
,
2002
0000
0000
3003
,
1100
0000
0101
0000
0100
0010
0100
0000
,
0010
1000
0000
0001
0100
0000
0101
0000
,
0001
0010
0000
0100
1000
0000
1100
0000
,
0010
0001
0100
0010
,
2000
0000
0000
3000
,
0001
0100
0010
1000
,
0001
1000
0000
1000
0001
0000
1001
0000
,
1000
0010
0100
0001
,
0010
0100
0000
0100
0010
0000
0001
0100
,
0002
1003
2000
3001
,
1000
0010
0000
0100
0001
0000
0010
0000
,
0001
1000
0000
0100
1000
0010
0000
0100
,
0002
0010
0100
1003
,
0010
1000
0000
0010
1000
0000
0001
0000
,
0100
0001
0000
0100
0001
0000
0101
0000
,
0001
0010
0000
0001
0010
0000
0100
0000
,
1000
0001
0000
1000
0001
0000
1000
0010
,
2000
3010
0200
0301
,
0010
0001
0000
0100
0001
0000
0010
0000
,
0001
0100
0000
0010
1000
0100
0000
0010
,
0001
0100
0010
1001
,
1000
0000
0100
0002
0000
0000
0103
0000
,
1000
0000
0010
0200
0000
0000
0301
0000
,
0020
0031
0200
0320
,
2030
0000
3001
0010
0001
0000
0011
0000
,
0001
0100
0000
0000
0100
0010
0000
0000
,
0010
0000
1000
0100
0000
0000
0010
0000
,
0002
0000
0000
2003
0000
0000
3020
0000
,
0130
0001
0010
0000
0001
0000
0011
0000
,
0001
0010
0000
0100
1000
0000
0010
0000
,
0100
0000
0001
1000
0001
0000
1000
0000
,
1010
0000
1010
0000
0000
0101
0000
0202
,
0000
0303
0100
0000
0010
1000
0100
0000
,
0010
0000
0001
0010
0001
0000
0100
0000
,
0010
0000
1000
0001
1000
0000
0001
0000
,
1000
0000
0100
1000
0100
0000
0010
0000
,
0001
0000
0100
0001
0100
0000
0010
0000
,
1001
0000
0000
0000
0000
0000
0000
0000
0000
0000
0000
0110
,
0000
0000
0000
0000
,
0010
0000
1000
0010
0000
0100
0000
0001
,
0000
0010
0100
0000
1000
0000
0001
0010
,
0001
0000
1000
0010
0000
0000
1000
0000
,
0001
0000
0100
0001
0000
0000
1000
0000
,
0010
1000
0010
0000
0100
0001
0100
0000
,
0011
0110
1100
1010
,
0010
0000
0000
0100
0000
0000
0001
0000
,
1000
0100
0000
0010
0001
0000
1000
0000
,
1010
0000
0000
0101
0000
0000
0011
0000
,
0010
0100
0010
0000
0100
1000
0100
0000
,
1000
0010
0000
1000
0001
0000
0010
0000
,
0001
0000
0100
0001
0100
0000
0010
0000
,
1000
0000
0100
1000
0100
0000
0010
0000
,
0001
1000
0001
0000
1000
0010
1000
0000
,
0010
0000
0100
0001
0100
0000
0001
0000
,
0010
0000
0001
1000
0001
0000
1000
0000
,
0010
0000
1000
0100
1000
0000
0100
0000
,
0010
0000
0001
0010
0001
0000
0100
0000
,
0010
0000
1000
0001
1000
0000
0010
0000
,
1000
0000
0100
0010
0100
0000
0010
0000
,
0011
0000
0001
0100
0001
0000
0100
0010
,
0100
0010
1010
0110
,
0001
0100
0001
0000
1000
0100
1000
0000
,
0001
0010
0110
0110
,
0100
1000
0010
0000
1000
0100
0010
0000
,
0001
0100
0101
0101
,
0100
0010
1000
0000
0010
0100
0001
0000
,
0010
0001
0100
0010
,
1000
0100
1000
0000
0001
0100
0001
0000
,
1000
0010
1000
0000
0001
0010
0001
0000
,
2002
0000
0000
3003
,
1100
0011
0101
1010
,
0001
0100
0010
0000
1000
0100
0010
0000
,
0001
1000
0010
0000
1000
0001
0100
0000
,
2002
0000
0000
3003
,
0110
0220
0000
0000
0000
0330
0000
0000
;
