#TITLE:Pine nut;
#SUBTITLE:;
#ARTIST:Doin;
#TITLETRANSLIT:;
#SUBTITLETRANSLIT:;
#ARTISTTRANSLIT:;
#CREDIT:348;
#BANNER:Pine nut Banner.png;
#BACKGROUND:Pine nut Background.png;
#LYRICSPATH:;
#CDTITLE:;
#MUSIC:Pine nut.mp3;
#OFFSET:-0.743;
#SAMPLESTART:1.034;
#SAMPLELENGTH:15.000;
#SELECTABLE:YES;
#BPMS:0.000=100.000,17.000=200.000,50.000=100.000,66.000=200.000,131.000=100.000,146.000=200.000,340.000=100.000;
#STOPS:;
#BGCHANGES:;

//---------------dance-single - ----------------
#NOTES:
     dance-single:
     :
     Beginner:
     2:
     0.133,0.170,0.000,0.000,0.000: // measure 1
0000
0000
0000
0000
,  // measure 2
0000
0000
0000
0000
,  // measure 3
1000
0000
1000
0000
,  // measure 4
0001
0000
0001
0000
,  // measure 5
1000
0001
0000
0000
,  // measure 6
0000
0010
0000
0000
,  // measure 7
0000
0100
0000
0000
,  // measure 8
0000
1000
0000
0000
,  // measure 9
0000
0001
0000
1000
,  // measure 10
0000
0001
0000
0000
,  // measure 11
0000
0100
0000
0010
,  // measure 12
0000
0100
0000
0000
,  // measure 13
0000
0010
0000
0010
,  // measure 14
0000
0100
0000
0100
,  // measure 15
0000
0010
0000
0010
,  // measure 16
0000
0100
0000
0100
,  // measure 17
0000
0010
0100
0000
,  // measure 18
0000
0000
0001
0000
,  // measure 19
0000
0000
1000
0000
,  // measure 20
0000
0000
0010
0000
,  // measure 21
0000
0000
1000
0000
,  // measure 22
0010
0000
0100
0000
,  // measure 23
0000
0000
0001
0000
,  // measure 24
0100
0000
0010
0000
,  // measure 25
0000
0000
1000
0000
,  // measure 26
0100
0000
0010
0000
,  // measure 27
0000
0000
0001
0000
,  // measure 28
0010
0000
0100
0000
,  // measure 29
0000
0000
1000
0000
,  // measure 30
0000
0000
0001
0000
,  // measure 31
0100
0000
0001
0000
,  // measure 32
0000
0000
1000
0000
,  // measure 33
0000
0000
0001
0000
,  // measure 34
1000
0000
1000
0000
,  // measure 35
0001
0000
0100
0000
,  // measure 36
0010
0000
0010
0000
,  // measure 37
0100
0000
0001
0000
,  // measure 38
0010
0000
0001
0000
,  // measure 39
0000
0000
1000
0000
,  // measure 40
0100
0000
1000
0000
,  // measure 41
0000
0000
0001
0000
,  // measure 42
0000
0000
1000
0000
,  // measure 43
0000
0000
0010
0000
,  // measure 44
0000
0000
0100
0000
,  // measure 45
0000
0000
0000
0001
,  // measure 46
0000
0010
0000
0100
,  // measure 47
0000
0000
0000
0100
,  // measure 48
0000
0010
0000
0001
,  // measure 49
0000
0000
0000
1000
,  // measure 50
0000
0000
0000
0001
,  // measure 51
0000
0000
0000
1000
,  // measure 52
0000
0000
0000
0001
,  // measure 53
0000
0000
0000
0100
,  // measure 54
0000
0000
0000
0010
,  // measure 55
0000
0000
0000
0100
,  // measure 56
0000
0000
0000
0010
,  // measure 57
0000
0000
0000
1000
,  // measure 58
0000
0001
0000
1000
,  // measure 59
0000
0000
0000
0010
,  // measure 60
0000
0100
0000
0010
,  // measure 61
0000
0000
0000
1000
,  // measure 62
0000
0001
0000
0100
,  // measure 63
0000
0000
0000
0010
,  // measure 64
0000
1000
0000
0001
,  // measure 65
0000
0000
0000
1000
,  // measure 66
0000
0000
0000
0010
,  // measure 67
0000
0000
0000
0100
,  // measure 68
0000
0000
0000
0001
,  // measure 69
0000
0000
0000
0001
,  // measure 70
0000
0000
0000
0100
,  // measure 71
0000
0000
0000
0010
,  // measure 72
0000
0000
0000
1000
,  // measure 73
0000
0000
0000
0001
,  // measure 74
0000
0000
0000
1000
,  // measure 75
0000
0100
0000
1000
,  // measure 76
0000
0000
0000
0001
,  // measure 77
0000
0000
0000
1000
,  // measure 78
0000
0000
0000
0100
,  // measure 79
0000
0000
0000
1000
,  // measure 80
0000
0100
0000
1000
,  // measure 81
0000
0000
0000
0001
,  // measure 82
0000
0000
0000
0010
,  // measure 83
0000
0000
0000
0001
,  // measure 84
0000
0010
0000
0001
,  // measure 85
0000
0000
0000
1000
,  // measure 86
0000
1000
0000
0100
,  // measure 87
0000
0100
0000
0010
,  // measure 88
0000
0010
0000
0001
,  // measure 89
0000
0001
1000
0000
;

//---------------dance-single - ----------------
#NOTES:
     dance-single:
     :
     Easy:
     5:
     0.388,0.444,0.146,0.169,0.000: // measure 1
0000
0000
0000
0000
,  // measure 2
0000
0000
0000
0000
,  // measure 3
1000
0100
1000
0010
,  // measure 4
0100
0001
0010
0001
,  // measure 5
1000
0001
0010
0001
,  // measure 6
0010
0100
1000
0100
,  // measure 7
1000
0001
0010
0100
,  // measure 8
0010
0001
1000
0010
,  // measure 9
0100
0010
1000
0001
,  // measure 10
0010
0001
0100
0001
,  // measure 11
1000
0010
1000
0100
,  // measure 12
1000
0001
1000
0010
,  // measure 13
0100
0002
0000
1003
,  // measure 14
2000
3010
0020
0130
,  // measure 15
0200
0301
1000
0001
,  // measure 16
1100
0010
0100
0010
,  // measure 17
0101
1001
1000
0100
,  // measure 18
0010
0001
1000
0001
,  // measure 19
1100
0000
0001
0010
,  // measure 20
0100
1000
0010
0100
,  // measure 21
0011
0000
1000
0100
,  // measure 22
0020
0000
0031
0010
,  // measure 23
0200
0000
1300
0100
,  // measure 24
0010
0001
1000
0000
,  // measure 25
1001
0000
0001
0010
,  // measure 26
1000
0010
0001
0100
,  // measure 27
1000
0100
0001
1000
,  // measure 28
0100
1000
0001
1000
,  // measure 29
0100
0001
0100
1000
,  // measure 30
0010
0001
0010
1000
,  // measure 31
0001
0010
0001
1000
,  // measure 32
0001
0010
0100
1000
,  // measure 33
0010
0100
0002
0000
,  // measure 34
2003
3001
0100
0101
,  // measure 35
0010
1010
0020
0130
,  // measure 36
0200
0310
1000
0110
,  // measure 37
0001
0110
1000
0001
,  // measure 38
0010
0100
1000
0001
,  // measure 39
0010
1000
0010
0001
,  // measure 40
0100
0010
1000
0100
,  // measure 41
0001
0100
1000
0100
,  // measure 42
0010
0001
1000
0100
,  // measure 43
0001
0100
1000
0010
,  // measure 44
0100
0001
1000
0001
,  // measure 45
0100
0020
0000
1030
,  // measure 46
0100
1000
0010
1000
,  // measure 47
0001
1100
0000
0001
,  // measure 48
0010
0001
0100
0001
,  // measure 49
1000
0011
0000
1000
,  // measure 50
0100
1100
0000
0001
,  // measure 51
0010
0011
0000
1000
,  // measure 52
0100
1000
1001
0001
,  // measure 53
0010
0001
1001
0001
,  // measure 54
0010
0001
1000
0100
,  // measure 55
1000
0002
1000
1003
,  // measure 56
0100
0010
0001
0010
,  // measure 57
0100
2000
0001
3001
,  // measure 58
0001
0100
0010
1000
,  // measure 59
0010
0200
0010
0310
,  // measure 60
1000
0001
0100
0010
,  // measure 61
1000
0020
0100
0130
,  // measure 62
0001
0100
0000
0010
,  // measure 63
1000
0010
0000
1000
,  // measure 64
0100
0001
0100
1000
,  // measure 65
0001
1000
0000
0001
,  // measure 66
0100
0001
0000
1000
,  // measure 67
0010
1000
0000
0001
,  // measure 68
0100
1000
0100
0001
,  // measure 69
0100
0010
0000
2000
,  // measure 70
0000
3001
0010
0100
,  // measure 71
0010
0001
1000
0002
,  // measure 72
0000
0103
0001
1000
,  // measure 73
0010
1000
0001
0200
,  // measure 74
0000
0310
1000
0001
,  // measure 75
1000
0010
0100
0020
,  // measure 76
0000
1030
0001
0100
,  // measure 77
0010
0100
0001
1000
,  // measure 78
0000
0001
0000
1000
,  // measure 79
0001
1000
0000
0010
,  // measure 80
0100
0010
0100
0010
,  // measure 81
0000
0110
0000
0010
,  // measure 82
0000
0100
0000
0010
,  // measure 83
0100
0010
0000
1000
,  // measure 84
0001
1000
0001
1000
,  // measure 85
0000
1001
0000
0020
,  // measure 86
0000
0230
0301
0010
,  // measure 87
0100
1000
0001
1000
,  // measure 88
1001
0001
1000
0010
,  // measure 89
0100
0001
2000
0000
,  // measure 90
3000
0000
0000
0000
;

//---------------dance-single - ----------------
#NOTES:
     dance-single:
     :
     Medium:
     6:
     0.435,0.444,0.299,0.199,0.000: // measure 1
0000
0000
0000
0000
,  // measure 2
0000
0000
0000
0000
,  // measure 3
1000
0000
0100
0000
0010
0000
0001
0010
,  // measure 4
0001
0000
0010
0000
0100
0000
1000
0001
,  // measure 5
1000
0001
0010
0001
,  // measure 6
0100
0001
1000
0002
,  // measure 7
1003
0010
1000
0100
,  // measure 8
1000
0001
1000
0200
,  // measure 9
0310
0100
1000
0001
,  // measure 10
1000
0100
1000
0002
,  // measure 11
0013
0001
0010
0100
,  // measure 12
1000
0010
0100
0002
,  // measure 13
1003
0000
0001
0000
0000
0000
1000
0100
,  // measure 14
1000
0002
0013
0200
,  // measure 15
1300
0000
0010
0000
0100
0000
0010
1000
,  // measure 16
0010
1000
1100
0001
,  // measure 17
0011
0000
0110
0000
0001
1000
0001
0000
,  // measure 18
0010
0001
1000
0100
,  // measure 19
1000
0000
0100
0000
1000
0010
1000
0000
,  // measure 20
0010
0100
0001
0100
,  // measure 21
0001
0000
1000
0000
0010
0100
0010
0000
,  // measure 22
1000
0100
0010
0001
,  // measure 23
1000
0000
0100
0000
0010
0001
0010
0000
,  // measure 24
0001
1000
0100
0001
,  // measure 25
0100
1000
0011
0000
,  // measure 26
1100
0000
0001
1000
,  // measure 27
2000
3001
1010
0000
,  // measure 28
0101
0000
0100
0010
,  // measure 29
0020
0130
0101
0000
,  // measure 30
0011
0000
2000
3010
,  // measure 31
0010
1000
1100
0000
,  // measure 32
1010
0000
0002
0103
,  // measure 33
0100
0001
1000
0000
,  // measure 34
0001
0010
0001
0000
0001
0100
0001
0000
,  // measure 35
0200
0301
1000
0001
,  // measure 36
1000
0100
1000
0000
1000
0010
1000
0000
,  // measure 37
0001
1001
2000
0100
,  // measure 38
0100
3100
0010
0001
,  // measure 39
0011
0000
0002
0010
,  // measure 40
0010
0013
0100
1000
,  // measure 41
1100
0000
0001
0100
,  // measure 42
1010
0000
1000
0010
,  // measure 43
0101
0000
1000
0001
,  // measure 44
1000
0001
0110
0000
,  // measure 45
1001
0000
0000
0001
,  // measure 46
1000
0000
0001
0100
0001
0000
1000
0000
,  // measure 47
0001
0010
0001
1000
,  // measure 48
0001
2000
3100
1000
,  // measure 49
0010
1000
0101
1000
,  // measure 50
0001
0000
0100
0001
0100
0000
0001
0000
,  // measure 51
0010
0001
1000
0010
,  // measure 52
0100
0002
0013
0001
,  // measure 53
1000
0001
1010
0001
,  // measure 54
0001
0000
0001
0010
0001
0000
0200
0000
,  // measure 55
0010
0010
0310
0100
,  // measure 56
0100
0000
0100
0001
0100
0000
0020
0000
,  // measure 57
1000
1000
1030
1000
,  // measure 58
1000
0000
1000
0100
1000
0000
0002
0000
,  // measure 59
0100
0100
0103
0010
,  // measure 60
0010
0000
0010
1000
0010
0000
2000
0000
,  // measure 61
0001
0001
3001
0001
,  // measure 62
0000
0110
0000
0000
1000
0000
0010
0000
,  // measure 63
0000
1001
0000
0000
0100
0000
0001
0000
,  // measure 64
0000
1100
0000
0000
0001
0000
1000
0000
,  // measure 65
0000
0011
0000
0000
1000
0000
0010
0000
,  // measure 66
0000
1010
0000
0000
0010
0000
0100
0000
,  // measure 67
0000
0101
0000
0000
0100
0000
0010
0000
,  // measure 68
0000
1001
0000
0000
1000
0000
0001
0000
,  // measure 69
0000
0110
0000
0000
0100
0000
0002
0000
,  // measure 70
0010
0103
0000
2000
,  // measure 71
0100
3010
0000
0001
,  // measure 72
1000
0001
1000
0010
,  // measure 73
1010
0101
0000
0200
,  // measure 74
0010
0301
0000
0020
,  // measure 75
0100
1030
0000
0010
,  // measure 76
0100
0010
0100
0001
,  // measure 77
1100
0011
0000
1000
,  // measure 78
0000
0100
0000
0000
1100
0000
0010
0000
,  // measure 79
0000
0001
0000
0000
0011
0000
1000
0000
,  // measure 80
0000
0010
0000
0000
1010
0000
0100
0000
,  // measure 81
0000
0001
0000
0000
0101
0000
1000
0100
,  // measure 82
1000
0000
0001
0000
0000
0000
1000
0010
,  // measure 83
1000
0000
0001
0000
0000
0000
1000
0001
,  // measure 84
1000
0001
0000
1000
,  // measure 85
0001
0100
0010
0110
,  // measure 86
0000
0000
0001
0010
0001
0000
0010
0100
,  // measure 87
0010
0000
0100
1000
0100
0000
1000
0000
,  // measure 88
1001
0001
1001
0200
,  // measure 89
0310
0020
0230
0000
,  // measure 90
0300
0000
0000
0000
;

//---------------dance-single - ----------------
#NOTES:
     dance-single:
     :
     Hard:
     8:
     0.553,0.614,0.299,0.207,0.015: // measure 1
0000
0000
0000
0000
,  // measure 2
0000
0000
0000
0000
,  // measure 3
1000
0100
0001
0000
1000
0010
0001
0000
,  // measure 4
1000
0100
0010
0001
0100
0010
2000
0000
,  // measure 5
3001
0000
1000
0100
0010
0000
0010
0000
,  // measure 6
0010
0000
0001
0010
0100
0000
0100
0000
,  // measure 7
0100
0000
1000
0010
0100
0000
0001
0100
,  // measure 8
0010
1000
0001
1000
,  // measure 9
1001
0000
0001
0100
0010
0000
1000
0000
,  // measure 10
1000
0000
1000
0010
0100
0000
0001
0000
,  // measure 11
0001
0000
1000
0001
0010
0000
0100
1000
,  // measure 12
0001
0100
0010
0100
,  // measure 13
0110
0000
0000
0000
2002
0000
0000
0000
3003
0000
0000
0000
0010
0100
0010
0000
,  // measure 14
0100
0000
0110
1000
0001
0100
0010
0000
,  // measure 15
1001
0000
0000
0000
0110
0000
0000
0000
1000
0000
0000
0000
0001
1000
0001
0000
,  // measure 16
1000
0000
1001
0010
0100
0001
1000
0000
,  // measure 17
0110
0000
1001
0000
0001
0010
0001
0010
,  // measure 18
0001
0010
0001
0010
0001
0000
2000
0000
,  // measure 19
3001
0000
0000
0000
1000
0100
1000
0100
,  // measure 20
1000
0100
1000
0100
1000
0000
0002
0000
,  // measure 21
1003
0000
0000
0000
1000
0001
0100
0000
,  // measure 22
0100
0000
0001
0000
1000
0001
0010
0000
,  // measure 23
0010
0000
0001
0000
1000
0001
1000
0001
,  // measure 24
1000
0001
1000
0001
2000
0000
0100
0000
,  // measure 25
3001
0000
0000
0000
0001
0010
0100
0000
,  // measure 26
0100
0010
0001
0000
1000
0000
0100
0000
,  // measure 27
0001
0000
0100
0000
1000
0010
0100
0000
,  // measure 28
0100
0010
1000
0000
0001
0000
0010
0000
,  // measure 29
1000
0000
0010
0000
0001
0100
1000
0000
,  // measure 30
0001
0010
1000
0000
0001
0000
0010
0000
,  // measure 31
0100
0000
1000
0000
0001
0010
0100
1000
,  // measure 32
0001
0010
0100
1000
0001
0000
1000
0000
,  // measure 33
0010
0100
0220
0330
,  // measure 34
0001
0010
0001
1000
0100
0000
1010
0000
,  // measure 35
1000
0001
1000
0000
0101
0000
0000
0000
1001
0000
0000
0000
0100
0000
0000
0000
,  // measure 36
0010
1000
0010
0100
0001
0000
0011
0000
,  // measure 37
1000
0001
1000
0000
1100
0000
0000
0000
0001
0000
0000
0000
0010
0000
0000
0000
,  // measure 38
0001
0100
0010
0000
1000
0000
0010
0000
,  // measure 39
1000
0100
0010
0000
0001
0000
1000
0000
,  // measure 40
0001
1000
0010
0000
0100
0000
0001
0000
,  // measure 41
1000
0101
1000
0010
,  // measure 42
0100
0001
0010
0000
0001
0000
0010
0000
,  // measure 43
0100
1000
0001
0000
0100
0000
0010
0000
,  // measure 44
0100
0010
1000
0000
0010
0000
1000
0000
,  // measure 45
0001
0000
2020
0000
3030
0000
0001
0010
,  // measure 46
0100
0000
0010
0100
1000
0000
0001
0000
,  // measure 47
0010
0000
0001
0000
0011
0000
1000
0100
,  // measure 48
0010
0000
0100
0010
0001
0000
1000
0000
,  // measure 49
0100
1000
1100
0002
,  // measure 50
1000
0100
0010
0100
,  // measure 51
1000
0100
0013
2000
,  // measure 52
0001
0010
0100
0010
,  // measure 53
0001
0000
0010
0000
3100
0000
1000
0100
,  // measure 54
1000
0010
1000
0000
0011
0000
0001
0010
,  // measure 55
0001
0100
0001
0000
1100
0000
0001
0000
,  // measure 56
0100
0000
0010
0000
1001
0000
1000
0001
,  // measure 57
1000
0000
0010
0000
0110
0000
0100
0001
,  // measure 58
0100
0010
0100
0000
1010
0000
0010
1000
,  // measure 59
0010
0100
0010
0000
0101
0000
0100
0000
,  // measure 60
0001
0000
1000
0000
0110
0000
0010
0100
,  // measure 61
0010
0000
1000
0000
1001
0000
0001
0200
,  // measure 62
0000
0010
0000
0000
0310
0000
0010
2000
,  // measure 63
0000
0100
0000
0000
3100
0000
1000
0002
,  // measure 64
0000
0010
0000
0000
0103
0000
0100
0020
,  // measure 65
0000
0100
0000
0000
1030
0000
1000
0000
,  // measure 66
0000
1001
0000
0001
1000
0000
0010
0000
,  // measure 67
0000
0110
0000
0100
0010
0000
0100
0000
,  // measure 68
0000
0110
0000
0010
0100
0000
0001
0000
,  // measure 69
0000
1001
0000
1000
0001
0000
0200
0000
,  // measure 70
0001
0010
1000
0010
,  // measure 71
0001
0010
0001
0320
,  // measure 72
1000
0100
0001
0100
,  // measure 73
1000
0000
0100
0000
1000
0000
1030
0100
,  // measure 74
0010
0000
0200
0000
1300
0000
0001
0010
,  // measure 75
0100
0000
0020
0000
0031
0000
1000
0001
,  // measure 76
0010
0000
0100
1000
0001
0000
1000
0001
,  // measure 77
1000
0000
0110
0000
1001
0000
0001
1000
,  // measure 78
0000
0102
0000
0000
1003
0000
0100
0010
,  // measure 79
0000
2100
0000
0000
3001
0000
1000
0100
,  // measure 80
0001
0000
1000
0010
0001
0000
1000
0001
,  // measure 81
0100
0010
0100
0001
1000
0000
0001
0010
,  // measure 82
0000
0201
0000
0000
0310
0000
1000
0100
,  // measure 83
0000
1020
0000
0000
0130
0000
0100
0001
,  // measure 84
1000
0000
0001
1000
0010
0000
1000
0100
,  // measure 85
0010
0001
0010
0100
1000
0000
2002
0000
,  // measure 86
3003
0000
0001
0010
0001
1000
0001
0010
,  // measure 87
1000
0010
0001
1000
0001
0000
0110
0000
,  // measure 88
1000
0100
0010
0001
0100
0010
1000
0001
,  // measure 89
1000
0100
0001
0100
2000
0000
0000
0000
,  // measure 90
3000
0000
0000
0000
;

//---------------dance-single - ----------------
#NOTES:
     dance-single:
     :
     Challenge:
     9:
     0.689,0.819,0.253,0.222,0.107: // measure 1
0000
0000
0000
0000
,  // measure 2
0000
0000
0000
0000
,  // measure 3
1000
0100
1000
0000
0002
0000
0010
0000
0013
0001
0010
0000
0200
0000
1000
0000
,  // measure 4
1300
0100
0010
0000
0001
0010
0100
0000
1000
0000
0001
0000
0100
0000
0001
0000
,  // measure 5
2000
0001
3001
0010
0001
0000
0010
0001
,  // measure 6
0010
0000
0001
0010
0100
0010
0001
0000
,  // measure 7
1010
0000
1000
0100
1000
0000
0100
1000
,  // measure 8
0100
0000
1000
0010
0100
0010
1000
0000
,  // measure 9
0101
0000
1000
0100
1000
0100
1000
0000
,  // measure 10
0011
0000
0001
0010
0001
0010
0001
0000
,  // measure 11
1100
0000
0001
0100
0010
0000
1000
0010
,  // measure 12
0100
0000
0001
0010
0001
0100
0010
1000
,  // measure 13
0100
0000
0000
0000
2002
0000
0000
0000
0003
0000
0000
0000
3001
0010
0001
0010
,  // measure 14
0002
0000
0000
0000
1003
0100
0010
0001
0100
0010
2000
0000
0001
0000
0001
0000
,  // measure 15
3001
0000
0000
0000
1000
0010
1000
0010
2000
0000
0000
0000
3001
0100
0001
0100
,  // measure 16
0002
0000
0000
0000
1003
0010
0100
0001
0010
0100
2000
0000
0001
0000
0001
0000
,  // measure 17
3001
0000
0110
0000
0001
0010
1000
0010
,  // measure 18
0001
0010
1000
0010
0001
0000
1100
0000
,  // measure 19
0011
0000
1001
0000
1000
0100
0001
0100
,  // measure 20
1000
0100
0001
0100
1000
0000
0101
0000
,  // measure 21
1010
0000
0110
0000
1000
0100
0002
0000
,  // measure 22
1003
0010
0002
0000
1003
0100
0010
0001
,  // measure 23
0100
0010
2000
0000
3001
0010
0001
0100
,  // measure 24
0010
1000
0100
1000
0010
0000
1001
0000
,  // measure 25
0110
0000
1001
0000
0001
0010
0001
0010
,  // measure 26
0000
0010
0001
0000
1000
0100
1000
0100
,  // measure 27
0000
0100
1000
0000
0001
1000
0100
0010
,  // measure 28
0001
1000
0010
0100
0001
1000
0001
1000
,  // measure 29
0000
1000
0001
0000
1000
0100
1000
0000
,  // measure 30
0100
0010
0100
0000
0010
0001
0010
0000
,  // measure 31
0001
1000
0001
0000
1000
0100
1000
0010
,  // measure 32
0100
0001
0010
0001
0100
0001
0100
0010
,  // measure 33
1000
0010
0100
0000
2002
0000
3000
0000
,  // measure 34
1003
0100
1000
0000
0001
0000
0000
0000
0001
0010
0100
0000
0020
0000
0031
0000
,  // measure 35
1000
0100
0010
0000
0200
0000
1300
0000
0110
0000
0000
0000
1000
0000
0100
0000
,  // measure 36
0001
0000
0010
0000
1000
0000
0000
0000
0001
0100
0010
0000
1000
0000
0001
0000
,  // measure 37
1000
0010
0100
0000
0001
0000
1000
0000
0001
0000
0010
0000
0001
0000
0010
0000
,  // measure 38
0100
1000
0100
1000
0001
0100
1000
0100
,  // measure 39
0001
1000
0002
0000
1003
0010
1000
0010
,  // measure 40
0100
0001
0100
0001
1000
0100
0001
0100
,  // measure 41
1000
0001
2000
0000
3001
0010
0100
0010
,  // measure 42
0001
0000
0011
0000
1000
0100
0010
0100
,  // measure 43
1000
0000
1100
0000
0001
0010
0100
1000
,  // measure 44
0001
0100
0010
1000
0001
1000
0100
1000
,  // measure 45
0010
0200
0020
0000
0330
0000
0001
0010
,  // measure 46
1000
0010
0001
0000
1010
0000
1100
0000
,  // measure 47
1000
0100
0001
0100
1000
0000
0011
0000
,  // measure 48
0101
0000
1000
0100
0010
0001
0010
0100
,  // measure 49
1000
0001
0100
0001
1000
0001
2000
0000
,  // measure 50
0100
0000
0010
0010
0010
0000
0001
0000
,  // measure 51
0001
0010
0100
0001
,  // measure 52
0010
0000
0100
0100
0100
0000
0010
0000
,  // measure 53
0010
0000
0001
0000
3001
0000
0001
1000
,  // measure 54
0010
0000
0010
1000
0001
0000
0100
0001
,  // measure 55
1000
0000
1000
0001
0100
0000
0001
0010
,  // measure 56
1000
0001
0100
1000
0001
0010
0002
0000
,  // measure 57
1003
0010
0100
0010
2000
0000
3001
0010
,  // measure 58
0100
0000
0100
0010
0001
0000
1000
0010
,  // measure 59
0100
0000
0100
0010
1000
0000
0001
0010
,  // measure 60
0100
1000
0010
0100
0001
1000
0100
0010
,  // measure 61
0001
1000
0001
0000
1001
0000
0001
0100
,  // measure 62
0000
0011
0000
0100
0001
0000
1000
0100
,  // measure 63
0000
1010
0000
0100
1000
0000
0001
0010
,  // measure 64
0000
0101
0000
0010
0001
0000
1000
0010
,  // measure 65
0000
1100
0000
0010
1000
0000
0002
0000
,  // measure 66
0010
0000
0100
0100
0100
0000
1000
0000
,  // measure 67
0100
0010
0100
1000
,  // measure 68
0100
0000
0010
0010
0010
0000
0100
0000
,  // measure 69
1000
0000
1000
0000
0103
0000
0100
0001
,  // measure 70
1000
0000
0001
1000
0010
0000
1000
0100
,  // measure 71
0010
0100
1000
0000
0110
0000
0001
1000
,  // measure 72
0100
0000
0010
0001
1000
0000
0001
0010
,  // measure 73
0100
1000
0000
1000
0001
0000
1000
0100
,  // measure 74
0001
0000
0001
0100
1000
0000
1000
0001
,  // measure 75
0010
0001
1000
0000
1001
0000
0001
1000
,  // measure 76
0010
0000
0100
0001
1000
0000
0001
0010
,  // measure 77
0001
1000
0001
1000
0100
1000
0001
0000
,  // measure 78
0001
1000
0000
1000
0010
0100
0010
0000
,  // measure 79
0010
0100
0000
0100
0001
0010
0001
1000
,  // measure 80
0001
1000
0010
0100
0010
0100
0001
0010
,  // measure 81
0100
0010
0001
1000
0100
1000
0001
0000
,  // measure 82
0100
0001
0000
1000
0010
0000
0110
0000
,  // measure 83
1000
0100
0000
0010
0001
0000
1000
0100
,  // measure 84
0010
0100
1000
0001
0010
0001
1000
0100
,  // measure 85
0010
0001
1000
0010
0100
0001
2002
0000
,  // measure 86
3003
0000
0000
0000
1000
0000
0001
0010
0001
0000
0000
0000
1000
0001
1000
0000
,  // measure 87
0010
0100
0010
0000
1000
0000
0001
0000
1000
0000
0000
0000
1000
0100
0010
0000
,  // measure 88
0001
0000
0000
0000
0001
0000
0010
0100
1000
0000
0000
0000
0001
0100
0010
0000
,  // measure 89
1000
0000
0001
0000
1000
0010
0100
0000
2002
0000
0000
0000
0000
0000
0000
0000
,  // measure 90
3003
0000
0000
0000
;
