#TITLE:Monotune;
#SUBTITLE:-Respect-;
#ARTIST:DJ MRYM;
#TITLETRANSLIT:;
#SUBTITLETRANSLIT:;
#ARTISTTRANSLIT:;
#GENRE:;
#CREDIT:Telperion;
#BANNER:mr-bn.png;
#BACKGROUND:mr-bg.png;
#LYRICSPATH:;
#CDTITLE:;
#MUSIC:mr.ogg;
#OFFSET:-0.065306;
#SAMPLESTART:6.514000;
#SAMPLELENGTH:15.464999;
#SELECTABLE:YES;
#DISPLAYBPM:136.000000:186.000000;
#BPMS:0.000000=186.000000,16.000000=372.000000,18.833334=53.143002,19.000000=372.000000,20.000000=186.000000,49.000000=372.000000,51.500000=186.000000,52.000000=372.000000,52.833332=53.143002,53.000000=186.000000,70.000000=279.000000,70.500000=139.500000,71.000000=186.000000,79.000000=372.000000,79.416664=53.143002,79.500000=186.000000,83.000000=372.000000,84.000000=186.000000,96.000000=372.000000,96.416664=53.143002,96.500000=186.000000,106.500000=16.909000,107.000000=186.000000,114.750000=372.000000,116.250000=186.000000,126.000000=398.000000,130.000000=136.000000,147.000000=102.000000,147.500000=204.000000,148.000000=102.000000,148.500000=204.000000,149.000000=272.000000,152.000000=272.000000,153.833328=38.856998,154.000000=136.000000,155.250000=272.000000,156.000000=136.000000,156.250000=272.000000,161.000000=136.000000,165.000000=102.000000,165.500000=204.000000,166.000000=102.000000,166.500000=204.000000,167.000000=272.000000,171.000000=136.000000,177.000000=102.000000,177.500000=204.000000,178.000000=136.000000,179.000000=272.000000,185.000000=136.000000,193.000000=102.000000,193.500000=204.000000,194.000000=102.000000,194.500000=204.000000,195.000000=272.000000,195.500000=136.000000,199.000000=272.000000,203.000000=136.000000,211.000000=272.000000,217.000000=136.000000,222.000000=186.000000,252.000000=53.143002,252.166672=372.000000,253.000000=53.143002,253.166672=372.000000,254.000000=186.000000,270.000000=279.000000,270.375000=139.500000,270.750000=279.000000,271.125000=139.500000,271.500000=279.000000,271.875000=139.500000,272.250000=279.000000,272.625000=139.500000,273.000000=279.000000,273.375000=139.500000,273.750000=279.000000,274.125000=139.500000,274.500000=279.000000,274.875000=139.500000,275.250000=279.000000,275.625000=139.500000,276.000000=279.000000,276.375000=139.500000,276.750000=279.000000,277.125000=139.500000,277.500000=279.000000,277.875000=139.500000,278.250000=279.000000,278.625000=139.500000,279.000000=279.000000,279.375000=139.500000,279.750000=279.000000,280.125000=139.500000,280.500000=279.000000,280.875000=139.500000,281.250000=279.000000,281.625000=139.500000,282.000000=279.000000,282.375000=139.500000,282.750000=279.000000,283.125000=139.500000,283.500000=279.000000,283.875000=139.500000,284.250000=279.000000,284.625000=139.500000,285.000000=372.000000,285.500000=186.000000;
#STOPS:16.000000=0.161000
,17.000000=0.161000
,19.000000=0.162000
,49.000000=0.040000
,49.250000=0.081000
,49.750000=0.080000
,50.250000=0.081000
,50.750000=0.081000
,51.250000=0.040000
,83.000000=0.040000
,83.250000=0.040000
,83.500000=0.041000
,83.750000=0.040000
,116.250000=0.242000
,130.000000=0.162000
,149.000000=0.110000
,149.500000=0.110000
,150.000000=0.111000
,150.500000=0.110000
,151.000000=0.110000
,151.500000=0.110000
,152.000000=0.221000
,155.250000=0.165000
,156.250000=0.166000
,157.000000=0.110000
,157.500000=0.110000
,158.000000=0.111000
,158.500000=0.110000
,159.000000=0.110000
,159.500000=0.110000
,160.000000=0.221000
,167.000000=0.055000
,167.250000=0.110000
,167.750000=0.111000
,168.250000=0.110000
,168.500000=0.055000
,168.750000=0.055000
,169.000000=0.055000
,169.250000=0.166000
,170.000000=0.221000
,179.000000=0.055000
,179.250000=0.166000
,180.000000=0.110000
,180.500000=0.110000
,181.000000=0.166000
,181.750000=0.055000
,182.000000=0.055000
,182.250000=0.166000
,183.000000=0.221000
,184.000000=0.110000
,184.500000=0.110000
,195.000000=0.055000
,195.250000=0.055000
,199.000000=0.110000
,199.500000=0.110000
,200.000000=0.111000
,200.500000=0.110000
,201.000000=0.221000
,202.000000=0.220000
,211.000000=0.166000
,211.750000=0.055000
,212.000000=0.055000
,212.250000=0.110000
,212.750000=0.110000
,213.250000=0.111000
,213.750000=0.055000
,214.000000=0.055000
,214.250000=0.111000
,214.750000=0.055000
,215.000000=0.055000
,215.250000=0.055000
,215.500000=0.166000
,216.250000=0.110000
,216.750000=0.055000
,285.000000=0.081000
;
#DELAYS:;
#TIMESIGNATURES:0.000000=4=4
;
#BGCHANGES:;
#KEYSOUNDS:;
#ATTACKS:;

//---------------dance-single - Telperion----------------
#NOTES:
     dance-single:
     Telperion:
     Hard:
     10:
     0.725,0.744,0.208,0.350,0.526,477.000,22.000,37.000,0.000,0.000,0.000,0.000,0.725,0.744,0.208,0.350,0.526,477.000,22.000,37.000,0.000,0.000,0.000,0.000: // measure 1
0000
0000
0000
0000
,  // measure 2
0000
0000
0000
0000
,  // measure 3
1001
0000
0000
0000
0000
0000
0000
0100
,  // measure 4
0110
0000
0000
0000
,  // measure 5
1000
1000
0002
0013
,  // measure 6
1010
0010
0100
0010
1000
0200
0001
0000
,  // measure 7
0310
0001
0100
0001
1000
0020
0001
0000
,  // measure 8
0130
0000
0001
0000
1000
0000
0100
1000
0100
1000
0001
0000
0001
0000
0000
0100
,  // measure 9
0010
0000
0100
0000
1000
0000
0100
0000
0010
0000
0100
0000
1000
0100
1000
0100
,  // measure 10
0001
0000
0010
0000
0100
0000
0000
0010
0001
0010
0001
0000
1000
0000
0000
0000
,  // measure 11
0010
0000
1000
0000
0100
0000
0000
1000
0010
1000
0010
0000
0100
0000
0000
0000
,  // measure 12
0001
0000
0100
0000
0010
0000
0000
0100
0001
0100
0001
0000
1000
0000
0000
0000
,  // measure 13
0100
0000
0010
0000
0001
0010
0000
0001
0000
0010
0000
0100
0000
1000
0001
0000
,  // measure 14
0210
0000
0000
0000
0300
0000
0000
0001
0100
0001
0100
0000
0010
0000
0000
0000
,  // measure 15
1000
0000
0001
0000
0010
0000
0000
0100
1000
0100
1000
0000
0001
0000
0100
0000
,  // measure 16
0010
0000
0100
0000
0001
0000
0000
1000
0001
1000
0001
0000
0010
0000
0000
0000
,  // measure 17
0100
1000
1000
0001
0100
0010
0110
0000
,  // measure 18
1001
0001
0001
0000
0002
0000
0013
0100
,  // measure 19
0010
0010
0010
0010
0010
0010
0010
0000
,  // measure 20
0100
0000
0000
1000
0000
0000
0001
0000
0000
0000
0000
0000
1000
0000
0010
0000
0100
0000
0020
0000
0000
0030
0000
0000
,  // measure 21
0100
0000
0100
0000
0001
0000
0000
0000
0010
0100
0010
0000
0001
1000
0001
1000
,  // measure 22
0010
0000
1000
0001
0010
0010
0010
0000
,  // measure 23
0100
0020
1000
0000
0001
0000
0100
0030
,  // measure 24
0001
0000
0100
0010
0000
0000
0010
0000
1000
0000
0010
0000
0100
0000
0000
0000
,  // measure 25
0011
0000
0000
0000
0100
1000
0000
0000
1000
0000
1010
0000
0000
0000
0100
0000
,  // measure 26
0001
0010
0001
0100
0010
0010
0010
0010
,  // measure 27
1000
0000
0001
0010
0001
0200
0310
0000
,  // measure 28
0100
0000
0000
1000
0000
0000
0000
0000
0100
0010
0100
0001
1000
0000
0100
0000
,  // measure 29
0010
0000
0100
0000
1001
0000
0000
0000
0001
0100
0000
0020
0000
0000
0030
0000
,  // measure 30
0000
0000
0010
0000
0010
0000
0100
0001
,  // measure 31
0100
0000
0010
0000
1000
0001
0000
0001
0010
0100
0010
0100
1000
0000
0000
0000
,  // measure 32
0001
0010
0000
0010
0100
0000
0020
0000
0000
0000
0000
0000
0000
0000
0000
0000
,  // measure 33
0000
0000
0000
0000
0030
0000
0001
0100
,  // measure 34
1000
0000
0100
0001
1000
0000
0100
0100
,  // measure 35
0010
0000
0100
1000
0100
0000
0001
0100
,  // measure 36
1000
0000
0000
1000
0000
0000
0001
0000
1000
0000
0000
0000
0010
0000
0000
0000
,  // measure 37
0010
0000
0010
0000
0100
0010
1002
0000
,  // measure 38
0023
0000
0130
0100
0100
0100
1000
0100
,  // measure 39
0010
0000
0000
0000
0020
0000
0000
0000
0030
0000
0000
0000
0001
0100
0000
0000
,  // measure 40
0100
0010
0000
0000
0010
0000
0100
0000
0010
0000
0100
0000
0010
0000
0010
0000
,  // measure 41
0010
0000
0000
0000
0100
0001
0000
0000
0000
0000
0000
0000
0010
0001
0000
1000
,  // measure 42
0000
0100
1000
0000
0020
0000
0000
0000
0230
0000
0000
0000
0310
0001
0000
0010
,  // measure 43
0000
0001
0010
0100
0010
1000
0000
0000
1000
0000
0000
0000
0200
0000
0000
0000
,  // measure 44
0320
0000
0032
0000
0023
0000
0000
0200
0030
0000
0300
0000
0020
0000
0000
0000
,  // measure 45
0032
0000
1003
0010
0200
0000
0000
0000
0300
0000
0000
0000
0010
0100
0000
0000
,  // measure 46
0001
0000
0100
0000
0010
0000
0000
1000
0010
0100
0000
0000
0001
0000
0000
0000
,  // measure 47
0001
0001
2000
0000
0010
0000
3001
0010
,  // measure 48
0001
0000
1000
0010
0100
0000
0001
0010
,  // measure 49
0100
0000
1000
0000
0200
0000
0000
0000
0320
0000
0000
0000
0031
1000
0001
0000
,  // measure 50
0100
0000
0000
0010
0000
0000
0100
0000
0001
0000
0000
0000
0010
0000
0100
0000
,  // measure 51
0010
0000
0100
0000
0020
0000
0030
0000
0020
0000
0030
0000
0001
0000
0000
1000
,  // measure 52
0010
0100
0000
0010
0000
1000
0000
0100
0010
0100
0000
0000
1000
0000
0000
0001
,  // measure 53
0010
0001
0000
1000
0000
0010
0000
1000
0001
0010
0000
0000
0100
0000
0000
0001
,  // measure 54
0100
1000
0000
0010
0000
1000
0000
0100
0010
0100
0000
1000
0001
1000
0001
0000
,  // measure 55
0000
0100
0000
0100
0020
0000
0000
0000
0000
0000
0000
0000
0000
0000
0000
0000
,  // measure 56
0000
0000
0000
0000
0000
0000
0000
0000
0000
0000
0000
0000
0000
0000
0000
0000
0000
0000
0000
0000
0000
0000
0000
0030
0010
0000
0000
0000
0000
0000
0000
0000
0000
0000
0000
0000
0000
0000
0000
0000
0000
0000
0000
0000
0000
0000
0000
0000
0000
0000
0000
0000
0000
0000
0000
0000
0000
0000
0000
0000
0000
0000
0000
0000
0000
0000
0000
0000
0000
0000
0000
0000
0000
0000
0000
0000
0000
0000
0000
0000
0000
0000
0000
0000
0000
0000
0000
0000
0000
0000
0000
0000
0000
0000
0000
0000
1001
0000
0000
0000
0000
0000
0000
0000
0000
0000
0000
0000
0000
0000
0000
0000
0000
0000
0000
0000
0000
0000
0000
0000
0001
0000
0000
0000
0000
0000
0000
0000
0000
0000
0000
0000
0000
0000
0000
0000
0000
0000
0000
0000
0000
0000
0000
0000
0010
0000
0000
0000
0000
0000
0000
0000
0000
0000
0000
0000
0000
0000
0000
0000
0000
0000
0000
0000
0000
0000
0000
0000
0100
0000
0000
0000
0000
0000
0000
0000
0000
0000
0000
0000
0000
0000
0000
0000
0000
0000
0000
0000
0000
0000
0000
0000
,  // measure 57
0001
0100
1000
0100
0110
0010
0001
0100
,  // measure 58
0010
0001
0010
1000
1001
0010
0001
1000
,  // measure 59
0010
0001
0010
1000
1001
0010
1000
0100
,  // measure 60
0001
0000
1000
0000
0010
0000
0001
0000
1000
0010
1000
0000
0001
0000
0100
0000
,  // measure 61
0001
0010
0001
0000
1000
0000
0100
0000
1000
0001
1000
0000
0010
0000
0100
0000
,  // measure 62
0001
0100
0001
0000
0010
0000
0000
0000
0001
0100
0000
0000
0100
0010
0000
0000
,  // measure 63
1000
0100
0000
0000
0100
0010
0000
0000
0001
0100
0001
0000
0010
0100
0010
0000
,  // measure 64
0002
0000
2003
0000
3010
0100
0001
0100
,  // measure 65
0010
1000
0010
1000
0001
0000
0000
0000
0010
0000
0001
0000
1000
0000
0001
0000
,  // measure 66
0010
0100
0010
0100
1000
0000
0000
0000
0001
0000
0100
0000
1000
0000
0100
0010
,  // measure 67
0100
0010
0100
0010
1000
0000
0000
0000
1000
0000
0100
0000
0001
0000
0100
0010
,  // measure 68
0100
0000
0000
0000
0000
0000
0000
0000
0000
0000
0000
0000
0010
0000
0000
0000
0000
0000
0000
0000
0000
0000
0000
0000
0100
0000
0000
0000
0000
0000
0000
0000
0000
0000
0000
0000
1000
0000
0000
0000
0000
0000
0000
0000
0000
0000
0000
0000
0001
0000
0000
0000
0000
0000
0000
0000
0000
0000
0000
0000
0000
0000
0000
0000
0000
0000
0000
0000
0000
0000
0000
0000
0000
0000
0000
0000
0000
0000
0000
0000
0000
0000
0000
0000
0000
0000
0000
0000
0000
0000
0000
0000
0000
0000
0000
0000
0200
0000
0000
0000
0000
0000
0000
0000
0000
0000
0000
0000
0000
0000
0000
0000
0000
0000
0000
0000
0000
0000
0000
0000
0000
0000
0000
0000
0000
0000
0000
0000
0000
0000
0000
0300
1200
0000
0000
0000
0000
0000
0000
0000
0000
0000
0000
0000
0000
0000
0000
0000
0000
0000
0000
0000
0000
0000
0000
0000
0000
0000
0000
0000
0000
0000
0000
0000
0000
0000
0000
0300
0200
0000
0000
0000
0000
0000
0000
0000
0000
0000
0000
0000
0000
0000
0000
0000
0000
0000
0000
0000
0000
0000
0000
0000
,  // measure 69
0000
0000
0000
0000
0000
0000
0000
0000
0000
0000
0000
0000
0301
0000
0000
0000
0000
0000
0000
0000
0000
0000
0000
0000
0000
0000
0000
0000
0000
0000
0000
0000
0000
0000
0000
0000
0000
0000
0000
0000
0000
0000
0000
0000
0000
0000
0000
0000
0010
0000
0000
0000
0000
0000
0000
0000
0000
0000
0000
0000
0000
0000
0000
0000
0000
0000
0000
0000
0000
0000
0000
0000
0000
0000
0000
0000
0000
0000
0000
0000
0000
0000
0000
0000
0200
0000
0000
0000
0000
0000
0000
0000
0000
0000
0000
0000
0000
0000
0000
0000
0000
0000
0000
0000
0000
0000
0000
0000
0000
0000
0000
0000
0000
0000
0000
0000
0000
0000
0000
0300
0201
0000
0000
0000
0000
0000
0000
0000
0000
0000
0000
0000
0000
0000
0000
0000
0000
0000
0000
0000
0000
0000
0000
0000
0000
0000
0000
0000
0000
0000
0000
0000
0000
0000
0000
0300
0200
0000
0000
0000
0000
0000
0000
0000
0000
0000
0000
0000
0000
0000
0000
0000
0000
0000
0000
0000
0000
0000
0000
0000
0000
0000
0000
0000
0000
0000
0000
0000
0000
0000
0000
0000
,  // measure 70
1300
0000
0000
0010
0000
0000
0100
0000
0000
0101
0000
0000
1010
0000
0000
0101
,  // measure 71
0000
0000
1000
0000
0000
0100
0000
0000
0011
0000
0000
1100
0000
0000
0010
0000
,  // measure 72
0000
0010
0000
0000
0010
0000
1001
0000
0000
0000
0000
0000
0000
0000
0000
0000
;

//---------------dance-single - Telperion----------------
#NOTES:
     dance-single:
     Telperion:
     Medium:
     8:
     0.595,0.541,0.189,0.303,0.189,388.000,20.000,32.000,0.000,0.000,0.000,0.000,0.595,0.541,0.189,0.303,0.189,388.000,20.000,32.000,0.000,0.000,0.000,0.000:
0000
0000
0000
0000
,
0000
0000
0000
0000
,
1001
0000
0000
0000
,
0110
0000
0000
0000
,
1000
1000
0001
1000
,
0001
0010
0100
0000
1000
0100
0010
0001
,
0100
0010
1000
0000
1000
0010
0100
0001
,
1000
0001
0010
0000
0001
0010
1000
0010
,
0001
0100
0010
0000
1000
0010
0100
0000
,
0001
0010
0100
1000
0100
0010
0010
0000
,
0001
0100
0010
1000
0010
0100
0001
0000
,
0010
0010
0100
1000
0001
0010
0100
0000
,
1000
0000
0010
0000
0100
0000
0000
0010
0000
0100
0000
0010
0000
0100
0010
0000
,
2001
0000
3100
0010
0001
0010
0100
0000
,
1000
0010
0100
0001
0100
0010
0100
0000
,
0010
0010
1000
0100
0010
0001
0010
0000
,
0001
0100
0020
0000
0200
0000
0330
0000
,
0001
1000
0001
0000
0020
0000
0130
1000
,
0100
1000
0100
1000
0100
1000
0100
0000
,
0010
0001
0010
0000
0100
1000
0020
0030
,
0100
0000
1000
0000
0100
0000
0000
0000
0010
0000
0100
0000
0001
1000
0001
1000
,
0001
0011
0100
1010
,
0001
1000
0100
0000
0010
0000
0100
0000
,
1000
0000
0000
0001
0000
0000
0100
0000
0010
0000
0100
0000
0001
0000
0000
0000
,
0020
0030
0100
0000
1000
0010
1000
1000
,
0100
0010
0100
1000
0010
0100
0010
0100
,
0001
0000
0100
0000
0010
2000
3001
0000
,
0001
0000
0000
0010
0000
0000
0000
0000
0001
0010
0001
0010
0001
0000
1000
0000
,
0100
0000
1000
0000
1001
0000
0000
0000
0100
0010
0000
0020
0000
0000
0030
0000
,
0000
0010
0010
0200
,
0301
1000
0001
0000
1000
0100
0020
0000
,
0130
1000
0001
1000
0020
0000
0000
0000
,
0000
0000
0030
0200
,
0300
0000
2000
0000
3000
0000
0000
0002
,
0000
0003
0020
0000
0030
0000
2000
0000
,
3001
0000
0000
0001
0000
0000
0001
0000
0010
0000
0000
0000
0100
0000
0000
0000
,
0100
0100
0000
2000
,
3002
0000
0013
0100
0010
0100
0001
0100
,
0020
0000
0030
0100
,
0100
0000
0010
0100
0010
0100
1000
0001
,
1000
0000
0000
0000
1000
0000
0000
0000
0000
0000
0000
0000
0010
0000
0000
0010
,
0000
0000
0100
0000
2000
0000
0000
0000
3200
0000
0000
0000
0310
0000
0000
0100
,
0000
0001
0100
0000
0010
0000
0000
0000
0010
0000
0000
0000
2000
0000
0000
0000
,
3100
0000
0010
0000
0200
0000
0000
2000
0300
0000
0000
0000
3002
0000
0000
0000
,
1003
0010
0200
0000
0300
0000
0010
0000
,
0010
0000
0100
0000
0010
0000
0000
1000
0001
1000
0000
0000
0010
0000
0000
0000
,
0010
0100
0002
0000
1000
0000
0013
0010
,
0000
0000
0100
0000
0110
0000
1000
0001
,
0010
0100
2000
0000
3200
0000
0300
0000
,
1000
0010
0100
0000
0110
0000
0001
1000
,
0001
0000
1000
0000
0001
0000
0000
0000
0110
0000
0000
0000
1000
0000
0000
0001
,
0010
0000
0000
0100
0000
0010
0000
0000
0001
0000
0000
0000
1000
0000
0000
0001
,
0010
0000
0000
0100
0000
1000
0000
0000
0010
0000
0000
0000
1000
0000
0000
0010
,
0100
0000
0000
0001
0000
0100
0000
0000
0010
0000
0000
0000
1000
0001
1000
0000
,
0000
0100
0000
0000
0200
0000
0000
0000
0000
0000
0000
0000
0000
0000
0000
0000
,
0000
0000
0000
0000
0000
0000
0000
0000
0000
0000
0000
0000
0000
0000
0000
0000
0000
0000
0000
0000
0000
0000
0000
0300
0100
0000
0000
0000
0000
0000
0000
0000
0000
0000
0000
0000
0000
0000
0000
0000
0000
0000
0000
0000
0000
0000
0000
0000
0000
0000
0000
0000
0000
0000
0000
0000
0000
0000
0000
0000
0000
0000
0000
0000
0000
0000
0000
0000
0000
0000
0000
0000
0000
0000
0000
0000
0000
0000
0000
0000
0000
0000
0000
0000
0000
0000
0000
0000
0000
0000
0000
0000
0000
0000
0000
0000
1000
0000
0000
0000
0000
0000
0000
0000
0000
0000
0000
0000
0000
0000
0000
0000
0000
0000
0000
0000
0000
0000
0000
0000
0001
0000
0000
0000
0000
0000
0000
0000
0000
0000
0000
0000
0000
0000
0000
0000
0000
0000
0000
0000
0000
0000
0000
0000
0010
0000
0000
0000
0000
0000
0000
0000
0000
0000
0000
0000
0000
0000
0000
0000
0000
0000
0000
0000
0000
0000
0000
0000
0001
0000
0000
0000
0000
0000
0000
0000
0000
0000
0000
0000
0000
0000
0000
0000
0000
0000
0000
0000
0000
0000
0000
0000
,
1000
0001
0010
0000
0001
1000
0010
0100
,
0010
1000
0010
0000
1000
0100
0010
0100
,
1000
0001
0010
0000
0001
0100
0010
0100
,
0001
1000
0010
0000
1000
0100
0010
0001
,
1000
0100
0010
0000
0001
0100
0010
1000
,
0001
0100
0001
0000
1000
1000
0001
0001
,
0010
0001
1000
1000
0010
0010
0100
0100
,
0002
0000
2003
0000
3010
0100
0010
0100
,
1000
0100
0001
0000
0010
0100
0010
0100
,
0001
1000
0010
0000
0001
0100
0010
0100
,
0001
0010
0100
0000
1000
0010
0001
0010
,
1000
0000
0100
0000
0010
0000
0000
0000
0100
0000
0000
0100
0000
0000
0100
0000
,
0000
0100
0000
0000
0100
0000
0000
0010
0000
0000
0010
0000
0000
0010
0000
0000
,
0010
0000
0000
0010
0000
0000
0110
0000
0000
0110
0000
0000
0110
0000
0000
0110
,
0000
0000
0110
0000
0000
0110
0000
0000
0110
0000
0000
0110
0000
0000
0110
0000
,
0000
0110
0000
0000
0000
0000
1001
0000
0000
0000
0000
0000
0000
0000
0000
0000
;

//---------------dance-single - Telperion----------------
#NOTES:
     dance-single:
     Telperion:
     Easy:
     5:
     0.331,0.338,0.066,0.256,0.005,211.000,7.000,27.000,0.000,0.000,0.000,0.000,0.331,0.338,0.066,0.256,0.005,211.000,7.000,27.000,0.000,0.000,0.000,0.000:
0000
0000
0000
0000
,
0000
0000
0000
0000
,
0001
0000
0000
0000
,
1000
0000
0000
0000
,
0010
0010
0200
0300
,
1001
0010
0001
0100
,
1000
0010
1000
0100
,
0001
0010
0001
0100
,
1000
0001
1000
0000
,
0010
1000
0100
0100
,
0001
0010
0100
0100
,
1000
0010
0100
0100
,
0001
2000
0000
0000
,
3010
0100
0001
0010
,
1000
0100
0010
0100
,
0001
0100
0010
0100
,
1000
0100
0020
0030
,
0001
0001
0002
0003
,
1000
1000
1000
1000
,
0010
0000
0100
0000
0010
0000
0020
0030
,
0100
0001
0100
0001
,
0011
0100
0000
0100
,
0000
0100
0000
0100
,
1000
0100
0001
0100
,
2000
3000
0000
0000
0000
0101
0000
0000
,
0010
0100
1000
0100
,
1000
0001
0200
0300
,
0020
0000
0000
0030
0000
0000
0000
0000
0000
0000
0000
0000
0100
0000
0000
0000
,
0001
0000
1100
0000
0020
0000
0000
0030
,
0000
0010
0010
0100
,
0000
0001
0100
1000
,
0000
0001
0200
0000
,
0000
0000
0300
1000
,
0000
0000
1000
0000
0000
0000
0000
1000
,
0000
0000
0000
0001
,
0001
0000
0001
0010
,
0010
0010
0000
0200
,
0320
0031
0001
1000
,
0010
0220
0330
0100
,
0010
0100
0100
0100
,
0100
0010
0000
1000
,
0001
0020
0230
2300
,
0000
0000
3000
0001
,
0100
0010
1000
0100
,
0010
0002
0003
0100
,
0100
0100
0100
0010
,
0010
0100
0000
1002
,
0000
0000
0000
0013
,
0100
2000
3200
0300
,
0010
0001
0010
0100
,
0100
0010
0010
0001
,
0100
0010
0001
1000
,
0100
0010
1000
0001
,
0100
0000
0100
0010
,
0000
0020
0000
0000
,
0000
0030
0000
0000
1000
0000
0100
0000
,
0010
0100
1000
0100
,
0010
0000
0001
0100
,
0010
0100
0001
0100
,
0010
0000
1000
0100
,
0001
0010
1000
0010
,
0100
0000
0001
0100
,
1000
0010
0001
0100
,
0020
0230
0301
1000
,
0100
0010
1000
0001
,
0100
0010
0001
0100
,
1000
0100
0001
0100
,
1000
0100
0002
0000
,
0000
0000
0000
0000
0000
0000
0000
0000
0003
0000
0000
0200
0000
0000
0000
0000
,
0000
0000
0000
0000
0000
0000
0000
0000
0000
0000
0000
0300
0000
0000
0020
0000
,
0000
0000
0000
0000
0000
0000
0000
0030
,
0000
0000
0000
1001
0000
0000
0000
0000
;

//---------------dance-single - Telperion----------------
#NOTES:
     dance-single:
     Telperion:
     Beginner:
     2:
     0.099,0.101,0.047,0.000,0.000,68.000,5.000,0.000,0.000,0.000,0.000,0.000,0.099,0.101,0.047,0.000,0.000,68.000,5.000,0.000,0.000,0.000,0.000,0.000:
0000
0000
0000
0000
,
0000
0000
0000
0000
,
0001
0000
0000
0000
,
1000
0000
0000
0000
,
0010
0000
0000
0000
,
0010
0000
0000
0000
,
0100
0000
0000
0000
,
0001
0000
0000
0000
,
0100
0000
0000
0000
,
1000
0000
0000
0000
,
0100
0000
0000
0000
,
0010
0000
0000
0000
,
0100
0000
0000
0000
,
0010
0000
0000
0000
,
0001
0000
0000
0000
,
0100
0000
0000
0000
,
0010
0000
0000
0000
,
1000
0000
0000
0000
,
1000
0000
0000
0000
,
0001
0000
0000
0000
,
0001
0000
0000
0000
,
0010
0000
0000
0000
,
0010
0000
0000
0000
,
0100
0000
0000
0000
,
0100
0000
0000
0000
,
1000
0000
0000
0000
,
1000
0000
0000
0001
,
0000
0000
0000
0010
,
0000
0000
0000
0000
,
0000
0000
0000
0100
,
0000
0000
0000
1000
,
0000
0000
0000
0000
,
0000
0000
0000
0001
,
0000
0000
0000
0100
,
0000
0000
0000
0001
,
0000
0000
0000
0010
,
0000
0010
0000
0010
,
0000
0000
0000
0000
,
0000
0110
0000
0000
,
0000
0000
0000
0000
,
0000
0010
0000
0000
,
0000
1001
0000
0000
,
0000
0000
0000
0100
,
0000
0000
0000
0010
,
0000
0010
0000
0010
,
0000
0000
0000
0000
,
0000
0000
0000
0110
,
0000
0000
0000
0100
,
0000
0100
0000
0100
,
0000
0000
0000
0000
,
0000
0000
0000
1001
,
0000
0000
0000
0001
,
0000
0000
0000
1001
,
0000
0000
0000
1000
,
0000
0000
0000
0000
,
0000
0000
0010
0000
,
0000
0000
0010
0000
,
0000
0000
0010
0000
,
0000
0000
0100
0000
,
0000
0000
1000
0000
,
0000
0000
0001
0000
,
0000
0000
1000
0000
,
0000
0000
0010
0000
,
0010
0000
0010
0000
,
0000
0000
0100
0000
,
0000
0000
0010
0000
,
0000
0000
0100
0000
,
0000
0000
0001
0000
,
0000
0000
0010
0000
,
0000
0000
0100
0000
,
0000
0000
0000
1000
,
0000
0000
0000
0010
0000
0000
0000
0000
;
