#TITLE:炉心融解;
#SUBTITLE:;
#ARTIST:Iroha (sasaki);
#TITLETRANSLIT:Meltdown;
#SUBTITLETRANSLIT:;
#ARTISTTRANSLIT:;
#GENRE:Vocaloid;
#CREDIT:Frozen_Heat/Azn_Punk_07/GuardianFrozen;
#MENUCOLOR:#fcff39;
#METERTYPE:DDR;
#BANNER:Meltdown-bn.png;
#BACKGROUND:Meltdown-bg.png;
#LYRICSPATH:;
#CDTITLE:cdtitle.png;
#MUSIC:Meltdown.mp3;
#OFFSET:-0.765;
#SAMPLESTART:50.920;
#SAMPLELENGTH:23.380;
#SELECTABLE:YES;
#LISTSORT:;
#BPMS:0.000=165.000,136.000=330.000,140.000=165.000;
#STOPS:;
#BGCHANGES:;
#ATTACKS:;

//---------------dance-single - ----------------
#NOTES:
     dance-single:
     :
     Hard:
     7:
     0.523,0.534,0.185,0.329,0.015: // measure 1
0000
0000
0000
0000
,  // measure 2
0000
0000
0000
0000
,  // measure 3
0000
0000
0000
0000
,  // measure 4
0000
0000
0000
0000
,  // measure 5
0000
0000
0000
0000
,  // measure 6
1000
0100
0000
1000
0000
0001
0000
0100
,  // measure 7
0000
0100
0000
0010
1000
0000
0100
0000
,  // measure 8
0010
0001
0000
1000
0000
1010
0000
1001
,  // measure 9
0000
0101
0000
0100
0010
0000
0000
0000
,  // measure 10
1000
0000
1000
0100
0010
0000
0010
0001
,  // measure 11
0100
0010
0001
0010
1000
0100
0010
0000
,  // measure 12
0100
0000
0100
1000
0001
0000
1000
0001
,  // measure 13
0000
0100
0001
0000
0010
0001
1000
0000
,  // measure 14
0001
0000
0001
0010
0100
0000
0100
1000
,  // measure 15
0010
0001
0010
0100
0001
1000
0001
1000
,  // measure 16
0010
0000
0100
0001
0010
0000
0010
0100
,  // measure 17
0000
0010
0001
0000
0001
0100
0001
0100
,  // measure 18
0020
0000
1000
0000
0130
0000
0002
1000
,  // measure 19
0000
0013
0100
0000
2000
0000
0010
0000
,  // measure 20
3001
0000
1000
0000
0010
0000
0200
0001
,  // measure 21
0000
0310
1000
0100
0000
0010
0001
0000
,  // measure 22
2000
0000
0100
0000
3010
0000
0200
0001
,  // measure 23
0000
0010
0301
1000
,  // measure 24
0020
0000
0100
0000
1030
0000
0002
0100
,  // measure 25
0000
0013
0100
2000
0000
3001
0100
0001
,  // measure 26
0010
0000
0100
1000
0100
0000
0010
0001
,  // measure 27
0010
0000
0011
0000
1001
0000
0100
0001
,  // measure 28
0010
0000
1100
0000
1000
0100
0010
0000
,  // measure 29
0010
0100
1000
0000
1000
0001
0100
0001
,  // measure 30
1000
0000
1010
0000
0001
1000
0100
0000
,  // measure 31
1000
0010
0100
0001
0000
0100
0001
0000
,  // measure 32
0011
0000
1001
0000
1010
0000
0100
0010
,  // measure 33
0000
1000
0001
2000
0000
0000
0000
0000
,  // measure 34
0000
3000
0000
0000
,  // measure 35
2002
0000
0000
3003
,  // measure 36
0020
2030
3200
0320
,  // measure 37
0032
0000
0203
0010
0000
0001
0000
0310
,  // measure 38
1000
0010
0000
0100
0000
0001
1000
0001
,  // measure 39
1000
0000
1000
0100
0000
0100
0000
0100
,  // measure 40
0010
0000
0011
0000
0100
1000
0100
0010
,  // measure 41
0100
0000
0100
1000
0000
1000
0001
1000
,  // measure 42
0010
0000
0010
0001
0010
0100
0010
0000
,  // measure 43
0100
0100
0001
1000
0001
0010
0100
0000
,  // measure 44
0020
0032
2003
3020
,  // measure 45
0230
0000
0320
1000
0000
0100
0000
1030
,  // measure 46
0001
1000
0000
1000
0000
0100
0010
0100
,  // measure 47
0010
0000
0010
0001
0000
0001
0000
0001
,  // measure 48
1000
0000
0010
0000
0100
0001
0010
0001
,  // measure 49
0100
0000
0010
0010
0000
1000
0100
0010
,  // measure 50
0100
0000
1000
0001
1000
0010
0100
0100
,  // measure 51
0001
0010
0100
0010
0001
0000
0101
0000
,  // measure 52
0010
0000
1000
0100
0000
0010
0100
1000
,  // measure 53
0001
1000
0000
0010
0100
0000
0101
0000
,  // measure 54
1010
0000
0001
1000
0000
0001
0000
1000
,  // measure 55
0100
0000
1000
0000
0100
0000
0000
0100
0010
0000
0000
0010
0001
0000
0000
0001
,  // measure 56
1000
0000
0010
0100
0000
0010
1000
0001
,  // measure 57
0010
0100
0000
0010
0100
0000
1000
0001
,  // measure 58
0100
0000
0000
0010
0000
1000
0000
0001
,  // measure 59
1000
0001
0000
0000
1100
0000
0011
0000
,  // measure 60
0002
0000
0103
0010
2000
0000
3010
0100
,  // measure 61
0020
0000
1030
0001
0200
0000
0310
1000
,  // measure 62
0002
0000
0013
0100
1000
0001
0010
0000
,  // measure 63
0200
0000
1300
0010
0100
0000
0001
0000
,  // measure 64
2002
0000
0000
0000
,  // measure 65
0000
0000
0000
0000
,  // measure 66
3003
0000
0000
0000
;

//---------------dance-single - ----------------
#NOTES:
     dance-single:
     :
     Medium:
     5:
     0.332,0.421,0.103,0.216,0.000:
0000
0000
0000
0000
,
0000
0000
0000
0000
,
0000
0000
0000
0000
,
0000
0000
0000
0000
,
0000
0000
0000
0000
,
1000
0000
0000
0100
0000
0100
0000
0010
,
0000
0001
1000
0001
,
0100
0000
0000
0010
0000
0010
0000
1000
,
0000
0001
1001
0000
,
1000
0000
0100
0000
,
0010
0001
0100
0010
,
1000
0000
0010
0000
,
0100
0001
1000
0001
,
0010
0000
0100
0000
,
0010
0001
1000
0010
,
0100
0000
0010
0000
,
1000
0001
0010
0100
,
1100
0011
1000
0001
,
0200
0000
0010
0000
0010
0300
0000
0000
,
0001
0010
0100
0010
,
0001
1000
0001
0000
0100
0000
0010
0000
,
1000
1010
0101
1001
,
0020
0100
0130
0000
,
0001
0000
0100
0000
0010
0000
1000
0100
,
0000
1000
0000
0001
0000
0100
0010
0000
,
1000
0100
0010
0010
,
0100
0000
1000
0100
0000
0000
0010
0000
,
0001
0100
0010
0010
,
1000
0000
0010
0000
0100
0001
0100
0000
,
0010
1000
0001
0010
,
0100
0000
1000
0100
0000
0010
0100
0000
,
0010
0000
0001
0000
1000
0000
0001
0100
,
0000
0010
0000
1000
0000
0000
0000
0000
,
0000
0000
0000
0000
,
0020
0000
0030
0000
,
0010
1000
0200
0310
,
0002
0000
0000
1003
0000
0010
0000
0100
,
0000
0000
0000
0010
,
2000
0000
0000
3100
0000
0010
0000
0200
,
0000
0000
0300
0010
,
0001
0000
0000
1000
0000
0000
0010
0000
,
0100
0001
1000
0001
,
0010
0000
0100
1000
0100
0010
0001
0000
,
0100
0001
0020
0130
,
2000
0000
0000
3001
0000
0100
0000
0010
,
0000
0000
0000
1000
0000
0001
0100
0000
,
0002
0000
0000
0013
0000
0100
0000
0020
,
0001
0000
0130
1000
,
0001
0000
0001
0100
0000
0000
0100
0000
,
0010
0000
1000
0000
0001
1000
0100
0000
,
0010
0000
0001
1000
0001
0000
0100
0000
,
0110
0000
1000
0000
0100
0000
0010
0001
,
1000
0010
0100
0001
,
1000
0000
0100
0000
,
0010
0100
1000
0001
,
0200
0010
1000
0010
,
0001
0000
0000
0000
0000
0310
0001
0020
,
0000
0000
0000
0000
,
1030
0000
0001
1000
,
0002
0003
0020
0030
,
0200
0300
2000
3000
,
2002
0000
0000
3003
,
0220
0000
0000
0330
,
1001
0000
0000
0000
;

//---------------dance-single - ----------------
#NOTES:
     dance-single:
     :
     Easy:
     3:
     0.245,0.291,0.021,0.051,0.000:
0000
0000
0000
0000
,
0000
0000
0000
0000
,
0000
0000
0000
0000
,
0000
0000
0000
0000
,
0000
0000
0000
0000
,
0001
0000
0100
0000
,
0010
1000
0100
0010
,
0100
0000
1000
0000
,
0001
1000
1001
0000
,
1000
0000
0010
0000
,
0100
0010
1000
0000
,
0100
0000
0010
0000
,
0001
0100
0001
0000
,
1000
0000
0010
0000
,
0100
0001
1000
0100
,
0010
0000
0100
0000
,
1000
0001
0100
0000
,
0010
0010
1000
0100
,
0010
0000
0001
0000
,
1000
0001
0100
0000
,
0010
1000
0001
0000
,
0010
0010
0100
1000
,
0100
0000
0010
0000
,
0001
1000
0010
0000
,
0100
0100
0100
0000
,
0010
1000
0100
1000
,
0010
1000
0100
0010
,
0001
0100
0001
0010
,
0001
0001
1000
1000
,
0010
0100
0010
1000
,
0010
0100
0001
1000
,
0100
0010
0100
1000
,
0000
0000
0000
0000
,
0000
0000
0000
0000
,
0020
0030
0000
0000
,
0010
0100
1000
0100
,
0010
0000
0001
1000
,
0001
0000
0100
0000
,
0010
1000
0010
0100
,
0001
0000
1000
0100
,
0010
0000
0100
0000
,
1000
1000
0001
0000
,
0100
0100
0010
0010
,
1000
0000
0001
0000
,
0010
0100
0010
0001
,
0100
0000
0010
0000
,
1000
0100
0010
0001
,
1000
0000
0010
1000
,
0001
0000
0100
0000
,
0010
0010
1000
0000
,
0001
0001
0010
0100
,
0010
0000
0100
1000
,
0001
0000
0100
0010
,
1000
0000
0001
0000
,
0010
0100
0010
0001
,
1000
0000
0010
0000
,
0100
0000
0010
1000
,
0100
0000
0000
0000
,
0010
0000
0001
1000
,
0002
0000
0003
0000
,
2000
0000
3000
0000
,
0020
0000
0000
0000
,
0200
0000
0000
0330
,
1001
0000
0000
0000
;

//---------------dance-single - ----------------
#NOTES:
     dance-single:
     :
     Beginner:
     1:
     0.079,0.129,0.000,0.000,0.000:
0000
0000
0000
0000
,
0000
0000
0000
0000
,
0000
0000
0000
0000
,
0000
0000
0000
0000
,
0000
0000
0000
0000
,
1000
0000
0000
0000
,
0001
0000
0000
0000
,
0010
0000
0000
0000
,
0100
0000
0000
0000
,
0010
0000
0000
0000
,
0000
0000
0000
0000
,
0001
0000
0000
0000
,
0000
0000
0000
0000
,
0100
0000
0000
0000
,
0000
0000
0000
0000
,
0010
0000
0000
0000
,
1000
0000
0000
0000
,
0100
0000
0000
0000
,
0000
0000
0000
0000
,
0010
0000
0000
0000
,
0000
0000
0000
0000
,
0001
0000
0000
0000
,
0000
0000
0000
0000
,
1000
0000
0000
0000
,
0010
0000
0000
0000
,
0100
0000
0100
0000
,
0000
0000
0000
0000
,
0001
0000
0001
0000
,
0000
0000
0000
0000
,
1000
0000
1000
0000
,
0000
0000
0000
0000
,
0010
0000
0000
0000
,
0010
0000
0000
0000
,
0000
0000
0000
0000
,
0000
0000
0000
0000
,
1000
0000
0000
0000
,
0100
0000
0000
0000
,
0010
0000
0000
0000
,
0001
0000
0000
0000
,
0100
0000
0000
0000
,
0010
0000
0000
0000
,
1000
0000
0000
0000
,
0001
0000
0000
0000
,
0010
0000
0000
0000
,
0100
0000
0000
0000
,
0010
0000
0000
0000
,
0001
0000
0000
0000
,
1000
0000
0000
0000
,
0010
0000
0000
0000
,
0100
0000
0000
0000
,
0010
0000
0000
0000
,
1000
0000
0000
0001
,
0001
0000
0000
0000
,
0100
0000
0000
0010
,
0010
0000
0000
0000
,
1000
0000
0000
0100
,
0100
0000
0000
0000
,
0010
0000
0000
0000
,
0001
0000
0000
0000
,
1000
0000
0000
0000
,
0010
0000
0000
0000
,
0100
0000
0000
0000
,
0001
0000
0000
0000
,
0010
0000
0000
0000
;
