#TITLE:MAKE LOVE;
#SUBTITLE:;
#ARTIST:N.R.G;
#TITLETRANSLIT:;
#SUBTITLETRANSLIT:;
#ARTISTTRANSLIT:;
#CREDIT:;
#BANNER:;
#BACKGROUND:;
#LYRICSPATH:;
#CDTITLE:;
#MUSIC:MAKE LOVE.mp3;
#OFFSET:-6.560;
#SAMPLESTART:12.600;
#SAMPLELENGTH:13.060;
#SELECTABLE:YES;
#BPMS:0.000=147.000;
#STOPS:;
#BGCHANGES:;

//---------------dance-single - ----------------
#NOTES:
     dance-single:
     :
     Hard:
     8:
     0.563,0.530,0.333,0.216,0.198: // measure 1
0010
0000
0001
0000
0010
0000
0000
0001
0000
0000
1000
0000
0001
0000
0000
0000
,  // measure 2
0100
0001
0010
0000
0100
1000
0010
0000
,  // measure 3
1000
0000
0001
0000
1000
0000
0000
0001
0000
0000
0010
0000
0001
0000
0100
0000
,  // measure 4
0120
0000
0000
1000
2000
0000
3030
0000
,  // measure 5
1001
0000
0000
0001
0010
0000
0000
0100
1000
0000
0001
0000
0100
0000
0010
0000
,  // measure 6
1000
0000
0000
1000
0010
0000
0000
0100
0001
0000
1000
0000
0100
0000
0000
0000
,  // measure 7
0010
0000
0001
0000
0100
0000
0000
0001
0000
0000
0100
0000
0010
0000
1000
0000
,  // measure 8
0100
0000
0001
0000
0100
0000
0010
0200
0000
0000
0000
0000
1300
0000
0000
0000
,  // measure 9
1010
0000
1000
0001
0010
0000
0001
0010
,  // measure 10
0001
0000
0000
1000
0000
0000
0001
0000
0200
0000
0000
0000
0300
0000
0000
0000
,  // measure 11
0010
0000
1000
0000
0100
0000
0010
0001
0000
0000
0010
0000
0001
0000
0100
0000
,  // measure 12
0010
0000
1000
0000
0010
0000
0000
0110
0000
0000
0000
0000
1000
0000
0001
0000
,  // measure 13
1001
0000
0000
1000
0010
0000
0000
0010
1000
0000
0001
0000
0010
0000
0100
0000
,  // measure 14
0010
0000
0000
0001
0010
0000
0000
0010
0001
0000
1000
0000
1001
0000
0000
0000
,  // measure 15
1000
0000
0010
0000
0100
0000
0001
0100
0000
0000
0100
0000
0100
0000
0001
0000
,  // measure 16
1000
0000
0100
0000
0010
0000
0100
2000
0000
0000
0001
0000
3001
0000
0000
0000
,  // measure 17
1010
0000
0010
0100
0001
0010
0100
0010
,  // measure 18
0001
0000
0000
1000
0000
0000
0001
0000
0200
0000
0000
0000
0300
0000
0000
0000
,  // measure 19
0010
0000
1000
0000
0001
0000
1000
0100
0000
0000
1000
0000
0100
0000
0010
0000
,  // measure 20
0001
0000
0011
0000
0001
1000
0001
0000
,  // measure 21
0220
0000
0000
0330
,  // measure 22
1001
0000
0000
1001
0000
0000
0000
0000
1000
0000
0001
0000
1000
0000
0000
0000
,  // measure 23
0001
0010
0001
0000
0010
0000
0000
0000
0100
1000
0100
0000
1000
0000
0000
0000
,  // measure 24
0110
0000
0000
0110
0000
0000
0000
0000
0010
0000
0001
0000
1000
0000
0000
0000
,  // measure 25
0001
0100
1000
0100
0001
0010
0011
0000
,  // measure 26
0101
0000
0000
0101
0000
0000
0100
0000
0010
0000
1000
0000
0100
0000
0000
0000
,  // measure 27
0010
0100
1000
0100
0020
0001
0031
0000
,  // measure 28
1100
0000
0000
1100
0000
0000
0010
0000
0001
0000
0000
1001
0000
0000
1000
0000
,  // measure 29
1010
0000
0001
0100
0220
0000
0330
0000
,  // measure 30
1001
0000
1000
0100
0010
0001
0100
0000
,  // measure 31
0001
0000
1000
0010
0000
0010
0100
0001
,  // measure 32
0010
0000
0100
0000
0010
0001
1000
0001
,  // measure 33
0000
1000
0010
0001
0010
1000
0001
0010
,  // measure 34
0100
0000
0010
0000
0001
0100
0001
0010
,  // measure 35
1000
0000
1000
0010
0000
0010
0001
0100
,  // measure 36
0010
0100
0010
1000
0001
0100
0010
2000
,  // measure 37
0000
0000
0010
0000
3001
0000
0100
0100
,  // measure 38
0220
0000
0330
0000
1000
0100
0010
0001
,  // measure 39
0000
0001
1000
0000
0010
1000
0100
0010
,  // measure 40
0100
0000
0010
0000
0001
0000
1000
0001
,  // measure 41
0000
0001
0100
0010
1000
0000
0001
0010
,  // measure 42
0002
0000
0013
0000
0001
0000
1000
0010
,  // measure 43
2000
0000
3010
0000
0100
0000
0010
1000
,  // measure 44
0200
0000
0310
0100
0010
0001
1000
1001
,  // measure 45
0000
0110
1001
0110
,  // measure 46
2002
0000
0000
0000
3003
0000
1000
0100
,  // measure 47
1100
0000
0000
1000
0100
0000
0000
0100
0010
0000
0000
0010
0001
0000
0100
0000
,  // measure 48
0001
0000
0000
0001
0100
0000
0000
0100
0010
0000
1000
0000
0001
0000
0000
0000
,  // measure 49
1000
0000
0001
0000
0010
0000
0000
0100
0000
0000
0010
0000
0001
0000
1000
0000
,  // measure 50
0100
0000
0010
0000
0001
0000
0000
2002
0000
0000
0000
0000
3003
0000
0000
0000
,  // measure 51
1000
0010
0100
0000
0010
0100
0001
1000
,  // measure 52
0100
0000
0000
0010
0000
0000
0001
0000
2002
0000
0000
0000
3003
0000
0000
0000
,  // measure 53
1000
0000
0100
0000
1000
0000
0100
0010
0000
0000
0001
0000
1000
0000
0002
0000
,  // measure 54
0000
0010
1000
0013
,  // measure 55
0001
0000
1001
0000
1000
0100
1000
0000
,  // measure 56
0001
0000
0010
0001
0000
0000
0001
0000
1000
0000
0010
1000
0000
0000
1000
0000
,  // measure 57
0010
0100
0001
0000
1000
0000
1100
0000
,  // measure 58
0100
0000
0010
0100
0010
0000
0001
0000
1000
0000
1000
0000
0001
0000
0001
0000
,  // measure 59
0101
0000
0100
0010
1000
0000
1001
0000
,  // measure 60
1000
0000
0100
1000
0000
1000
0100
0000
0010
0000
0001
0010
0000
0010
0001
0000
,  // measure 61
1000
0000
0001
0100
1000
0000
0110
0000
,  // measure 62
0010
0000
1000
0000
0100
0000
0010
0000
0001
0010
0001
0000
1000
0100
1000
0000
,  // measure 63
1001
0000
0000
0000
;

//---------------dance-single - ----------------
#NOTES:
     dance-single:
     :
     Medium:
     5:
     0.421,0.474,0.288,0.126,0.000: // measure 1
1000
0000
0001
0000
0100
0001
0100
0000
,  // measure 2
0010
0100
0110
1001
,  // measure 3
1000
0000
0100
0000
0010
0001
1000
0000
,  // measure 4
1001
0000
0000
2000
0002
0000
3003
0000
,  // measure 5
1000
0000
0001
0000
0101
0000
0100
0001
,  // measure 6
1000
0100
0010
0100
,  // measure 7
0010
0001
1000
0000
0001
1000
0001
0000
,  // measure 8
1000
0000
0010
0100
0010
0000
0000
0000
,  // measure 9
0100
0000
0010
1000
0010
0000
1000
0000
,  // measure 10
0001
1000
0100
1000
,  // measure 11
0001
0000
0010
0001
1000
0000
0001
0000
,  // measure 12
1000
0000
0010
1000
0001
0000
0100
0000
,  // measure 13
0010
0000
0100
0000
0001
0000
1000
0001
,  // measure 14
1000
0100
0010
0001
,  // measure 15
1000
0000
0001
0010
0100
0000
0010
0000
,  // measure 16
0001
0000
1000
0001
1000
0000
0000
0000
,  // measure 17
0110
0000
0100
0010
1000
0000
0001
0000
,  // measure 18
1000
0000
0100
0010
0100
0000
0000
0000
,  // measure 19
0010
0001
1000
0000
0001
0000
1000
0001
,  // measure 20
0200
0010
1000
0301
,  // measure 21
2002
0000
0000
3003
,  // measure 22
1001
0000
1001
0000
1000
0100
1000
0000
,  // measure 23
0001
0000
0010
0000
0100
0010
0100
0000
,  // measure 24
0110
0000
0110
0000
0010
0001
1000
0000
,  // measure 25
0001
0100
0010
0000
0100
0000
0100
0000
,  // measure 26
0101
0000
0101
0000
0001
1000
0100
0000
,  // measure 27
0010
0100
1000
0001
,  // measure 28
0011
0000
0011
0000
0010
0001
0100
0000
,  // measure 29
0010
1000
0100
0000
0220
0000
0330
0000
,  // measure 30
0001
0000
0001
0000
1000
0001
0100
0000
,  // measure 31
0010
0000
0100
0010
0000
0010
1000
0000
,  // measure 32
0001
0000
1000
0000
0100
0000
0010
0001
,  // measure 33
0000
0001
1000
0000
0001
0100
0001
0000
,  // measure 34
1000
0000
0010
0000
0100
0000
0010
0100
,  // measure 35
0010
0000
0100
0001
0000
0001
0100
0000
,  // measure 36
0001
0000
1000
0000
0100
0010
0001
0010
,  // measure 37
0100
0010
0001
0100
,  // measure 38
0110
0000
0000
0000
0010
1000
0010
0000
,  // measure 39
0100
0001
1000
0100
,  // measure 40
0010
0000
0000
0000
0100
0010
0100
0000
,  // measure 41
0010
0000
0001
0000
1000
0000
0001
1000
,  // measure 42
0001
0000
0100
0000
0010
0000
1000
0100
,  // measure 43
0000
0100
1000
0000
0001
0000
0010
0100
,  // measure 44
0000
0100
0010
0000
0001
1000
0001
2000
,  // measure 45
0000
0001
0001
3001
,  // measure 46
0220
0000
0000
0330
,  // measure 47
1010
0000
1010
0000
1010
0000
0001
1000
,  // measure 48
0001
0010
0100
0000
,  // measure 49
0010
0001
0100
0000
0010
1000
0100
0000
,  // measure 50
1000
0000
0001
0010
0001
0000
0000
0000
,  // measure 51
1000
0001
0010
0100
,  // measure 52
0010
0000
0001
1000
0010
0000
0100
0000
,  // measure 53
0010
0000
1000
0000
0100
0010
0100
0020
,  // measure 54
0000
0002
0000
0033
,  // measure 55
1001
0000
1001
0000
1000
0100
1000
0000
,  // measure 56
0001
0000
0010
0000
0100
0010
0100
0000
,  // measure 57
0110
0000
0110
0000
0010
0001
0010
0000
,  // measure 58
0001
0000
1000
0000
0001
0100
0001
0000
,  // measure 59
0101
0000
0101
0000
0010
1000
0100
0000
,  // measure 60
1000
0000
0100
0000
0010
0100
1000
0000
,  // measure 61
1100
0000
1100
0000
0010
0001
0100
0000
,  // measure 62
0220
0330
0110
1001
,  // measure 63
0110
0000
0000
0000
;

//---------------dance-single - ----------------
#NOTES:
     dance-single:
     :
     Easy:
     3:
     0.262,0.279,0.162,0.063,0.000: // measure 1
1000
0100
1000
0001
,  // measure 2
0100
0000
0100
0000
,  // measure 3
0010
0100
0001
1000
,  // measure 4
2002
0000
3003
0000
,  // measure 5
0110
0000
0100
0010
,  // measure 6
0100
0010
1000
0000
,  // measure 7
0001
1000
0100
0000
,  // measure 8
0010
0010
0010
0000
,  // measure 9
0001
0000
1000
0000
,  // measure 10
0001
0100
0001
0000
,  // measure 11
1000
0010
0100
0001
,  // measure 12
0100
0010
1000
0000
,  // measure 13
1001
0000
0001
0000
,  // measure 14
0010
0001
0100
0000
,  // measure 15
0010
0000
0100
0000
,  // measure 16
0010
0100
0001
0000
,  // measure 17
1000
0100
0010
0001
,  // measure 18
0100
0000
0010
0000
,  // measure 19
0100
0010
1000
0010
,  // measure 20
1000
0000
0001
0000
,  // measure 21
2002
0000
0000
3003
,  // measure 22
0110
0110
0000
0000
,  // measure 23
0100
0010
1000
0001
,  // measure 24
1001
1001
0000
0000
,  // measure 25
1000
0100
0010
0001
,  // measure 26
1001
1001
0000
0000
,  // measure 27
0001
1000
0010
0100
,  // measure 28
0110
0110
0000
0000
,  // measure 29
0100
0010
2002
3003
,  // measure 30
1001
0000
1000
0000
,  // measure 31
0001
0010
0001
0010
,  // measure 32
0100
0000
0010
0000
,  // measure 33
0001
1000
0001
1000
,  // measure 34
0010
0000
0100
0000
,  // measure 35
0010
0100
0010
0000
,  // measure 36
1000
0010
1000
0001
,  // measure 37
0100
0000
0010
0100
,  // measure 38
0110
0000
0010
1000
,  // measure 39
0001
1000
0100
0000
,  // measure 40
0010
0000
0100
0010
,  // measure 41
0100
0000
0010
0001
,  // measure 42
1000
0000
0001
1000
,  // measure 43
0010
0000
0100
0010
,  // measure 44
0100
0001
1000
0100
,  // measure 45
0020
0000
0000
0000
,  // measure 46
0030
0000
0000
0000
,  // measure 47
1001
0000
1000
0000
,  // measure 48
0100
0010
0100
0000
,  // measure 49
0010
0001
1000
0001
,  // measure 50
0100
0100
0100
0000
,  // measure 51
0010
0000
0100
0000
,  // measure 52
0010
1000
0001
0000
,  // measure 53
1000
0100
0010
0001
,  // measure 54
0100
0000
0010
0000
,  // measure 55
1001
0000
1000
0100
,  // measure 56
0010
0001
0100
0010
,  // measure 57
0100
0000
0010
0100
,  // measure 58
0010
1000
0001
1000
,  // measure 59
0001
0000
1000
0100
,  // measure 60
0010
0001
0010
0100
,  // measure 61
1000
0000
0001
0100
,  // measure 62
0010
0000
0100
0010
,  // measure 63
1001
0000
0000
0000
;

//---------------dance-single - ----------------
#NOTES:
     dance-single:
     :
     Beginner:
     1:
     0.140,0.167,0.063,0.000,0.000: // measure 1
1000
0000
0100
0000
,  // measure 2
1000
0000
0000
0000
,  // measure 3
0001
0000
0100
0000
,  // measure 4
0001
0000
0000
0000
,  // measure 5
1000
0000
1000
0000
,  // measure 6
0001
0000
0001
0000
,  // measure 7
0100
0000
0100
0000
,  // measure 8
0010
0000
0000
0000
,  // measure 9
0100
0000
0010
0000
,  // measure 10
1000
0000
0001
0000
,  // measure 11
1000
0000
0100
0000
,  // measure 12
0010
0000
0000
0000
,  // measure 13
0100
0000
0100
0000
,  // measure 14
0010
0000
0010
0000
,  // measure 15
0001
0000
0001
0000
,  // measure 16
1000
0000
0000
0000
,  // measure 17
0001
0000
1000
0000
,  // measure 18
0010
0000
0100
0000
,  // measure 19
0010
0000
0010
0000
,  // measure 20
1000
0000
0001
0000
,  // measure 21
1001
0000
0000
0000
,  // measure 22
1001
0000
0000
0000
,  // measure 23
1000
0000
0100
0000
,  // measure 24
1000
0000
0000
0000
,  // measure 25
0001
0000
1000
0000
,  // measure 26
0001
0000
0000
0000
,  // measure 27
0100
0000
0001
0000
,  // measure 28
0100
0000
0000
0000
,  // measure 29
0010
0000
0000
0000
,  // measure 30
0110
0000
0000
0000
,  // measure 31
0100
0000
0010
0000
,  // measure 32
1000
0000
0000
0000
,  // measure 33
0001
0000
0001
0000
,  // measure 34
0001
0000
0000
0000
,  // measure 35
1000
0000
0100
0000
,  // measure 36
0010
0000
0001
0000
,  // measure 37
0100
0000
0000
0000
,  // measure 38
0110
0000
0000
0000
,  // measure 39
0010
0000
1000
0000
,  // measure 40
0001
0000
1000
0000
,  // measure 41
0100
0000
0010
0000
,  // measure 42
0100
0000
0000
0000
,  // measure 43
0010
0000
0000
0000
,  // measure 44
0001
0000
0000
0000
,  // measure 45
1001
0000
0000
0000
,  // measure 46
0000
0000
0000
0000
,  // measure 47
1001
0000
0001
0000
,  // measure 48
1000
0000
0010
0000
,  // measure 49
0100
0000
0100
0000
,  // measure 50
0001
0000
0000
0000
,  // measure 51
1000
0000
1000
0000
,  // measure 52
0100
0000
0100
0000
,  // measure 53
0010
0000
0001
0000
,  // measure 54
1000
0000
0000
0000
,  // measure 55
1001
0000
1000
0000
,  // measure 56
0001
0000
0100
0000
,  // measure 57
0010
0000
0100
0000
,  // measure 58
0010
0000
1000
0000
,  // measure 59
0001
0000
1000
0000
,  // measure 60
0100
0000
0010
0000
,  // measure 61
0001
0000
0100
0000
,  // measure 62
0010
0000
0100
0100
,  // measure 63
0100
0000
0000
0000
;
