#TITLE:Enemy Storm;
#SUBTITLE:;
#ARTIST:Croove;
#TITLETRANSLIT:;
#SUBTITLETRANSLIT:;
#ARTISTTRANSLIT:;
#CREDIT:348;
#BANNER:Enemy Storm Banner.png;
#BACKGROUND:Enemy Storm Background.png;
#LYRICSPATH:;
#CDTITLE:;
#MUSIC:Enemy Storm.mp3;
#OFFSET:-0.109;
#SAMPLESTART:15.010;
#SAMPLELENGTH:15.000;
#SELECTABLE:YES;
#BPMS:0.000=128.960;
#STOPS:;
#BGCHANGES:;

//---------------dance-single - ----------------
#NOTES:
     dance-single:
     :
     Beginner:
     1:
     0.083,0.104,0.000,0.000,0.000: // measure 1
0000
0000
0000
0000
,  // measure 2
0000
0000
0000
0000
,  // measure 3
0000
0000
0000
0000
,  // measure 4
0000
0000
0000
0000
,  // measure 5
0001
0000
0000
0000
,  // measure 6
0100
0000
0000
0000
,  // measure 7
0010
0000
0000
0000
,  // measure 8
1000
0000
0000
0000
,  // measure 9
0001
0000
0000
0000
,  // measure 10
1000
0000
0000
0000
,  // measure 11
0001
0000
0000
0000
,  // measure 12
1000
0000
0000
0000
,  // measure 13
0010
0000
0000
0000
,  // measure 14
0100
0000
0000
0000
,  // measure 15
0010
0000
0000
0000
,  // measure 16
0100
0000
0000
0000
,  // measure 17
0001
0000
0010
0000
,  // measure 18
0000
0000
0010
0000
,  // measure 19
0100
0000
1000
0000
,  // measure 20
0000
0000
1000
0000
,  // measure 21
0001
0000
1000
0000
,  // measure 22
0000
0000
1000
0000
,  // measure 23
0010
0000
0100
0000
,  // measure 24
0000
0000
0100
0000
,  // measure 25
0001
0000
0000
0000
,  // measure 26
0000
0000
0000
0000
,  // measure 27
1000
0000
0000
0000
,  // measure 28
0000
0000
0000
0000
,  // measure 29
0010
0000
0000
0000
,  // measure 30
0000
0000
0000
0000
,  // measure 31
0100
0000
0000
0000
,  // measure 32
0000
0000
0000
0000
,  // measure 33
0010
0000
0000
0000
,  // measure 34
1000
0000
0010
0000
,  // measure 35
1000
0000
0000
0000
,  // measure 36
0001
0000
0100
0000
,  // measure 37
0001
0000
0000
0000
,  // measure 38
0010
0000
0000
0000
,  // measure 39
0100
0000
0000
0000
,  // measure 40
1000
0000
0000
0000
,  // measure 41
0010
0000
0000
0000
,  // measure 42
0100
0000
0000
0000
,  // measure 43
0001
0000
0000
0000
,  // measure 44
1000
0000
0000
0000
,  // measure 45
0001
0000
0000
0000
,  // measure 46
1000
0000
0000
0000
,  // measure 47
0100
0000
0000
0000
,  // measure 48
0010
0000
0000
0000
,  // measure 49
0001
0000
0100
0000
,  // measure 50
0000
0000
0100
0000
,  // measure 51
0010
0000
1000
0000
,  // measure 52
0000
0000
1000
0000
,  // measure 53
0010
0000
0100
0000
,  // measure 54
0000
0000
0100
0000
,  // measure 55
0001
0000
1000
0000
,  // measure 56
0000
0000
1000
0000
,  // measure 57
0010
0000
0100
0000
,  // measure 58
0010
0000
0000
0000
,  // measure 59
1000
0000
0001
0000
,  // measure 60
1000
0000
0000
0000
,  // measure 61
0001
0000
0010
0000
,  // measure 62
0100
0000
0000
0000
,  // measure 63
1000
0000
0100
0000
,  // measure 64
0010
0000
0001
0000
;

//---------------dance-single - ----------------
#NOTES:
     dance-single:
     :
     Easy:
     3:
     0.220,0.235,0.115,0.131,0.000: // measure 1
0000
0000
0000
0000
,  // measure 2
0000
0000
0000
0000
,  // measure 3
0000
0000
0000
0000
,  // measure 4
0000
0000
0000
0000
,  // measure 5
1000
0000
0001
0100
,  // measure 6
0001
0000
1000
0010
,  // measure 7
1000
0000
0001
1000
,  // measure 8
0002
0000
0000
0003
,  // measure 9
1000
0000
0100
0000
,  // measure 10
1000
0000
0010
0000
,  // measure 11
0100
0000
0001
0000
,  // measure 12
0010
0000
0001
0000
,  // measure 13
1000
0000
0100
0000
,  // measure 14
0010
0000
0001
0000
,  // measure 15
0100
0000
0010
0000
,  // measure 16
1000
0000
0001
0000
,  // measure 17
1000
0001
0000
0001
,  // measure 18
0100
0010
0000
0010
,  // measure 19
1000
0100
0000
0100
,  // measure 20
0010
0001
0000
1000
,  // measure 21
0001
0100
0000
0100
,  // measure 22
0001
1000
0000
1000
,  // measure 23
0010
0100
0000
0100
,  // measure 24
0001
0000
1001
0000
,  // measure 25
2000
0000
3100
0000
,  // measure 26
0200
0000
0310
0000
,  // measure 27
0020
0000
0031
0000
,  // measure 28
0002
0000
1003
0000
,  // measure 29
0002
0000
0103
0000
,  // measure 30
0200
0000
0310
0000
,  // measure 31
0020
0000
1030
0000
,  // measure 32
2000
0000
3001
0000
,  // measure 33
0001
0000
0001
0000
,  // measure 34
1000
0100
0010
1100
,  // measure 35
0010
0000
0010
0000
,  // measure 36
0100
0001
1000
0101
,  // measure 37
1000
0000
1000
0000
,  // measure 38
0001
0010
0100
0011
,  // measure 39
0100
0000
0100
0000
,  // measure 40
0010
1000
0001
1010
,  // measure 41
0001
0000
1000
0000
,  // measure 42
1001
0000
0001
1000
,  // measure 43
0010
0000
0100
0000
,  // measure 44
0110
0000
0100
0010
,  // measure 45
1000
0100
2000
0000
,  // measure 46
3001
0010
0002
0000
,  // measure 47
1003
0100
0010
0001
,  // measure 48
2000
0000
0000
3000
,  // measure 49
0001
0000
1000
0100
,  // measure 50
0010
0000
0010
0100
,  // measure 51
1000
0000
0001
1000
,  // measure 52
1001
0000
0110
0010
,  // measure 53
0100
0000
0001
1000
,  // measure 54
0010
0000
0100
0001
,  // measure 55
1000
0000
0001
1000
,  // measure 56
0001
0100
0010
1000
,  // measure 57
0001
0010
0011
0000
,  // measure 58
0100
1000
1100
0000
,  // measure 59
0001
1000
0110
0000
,  // measure 60
0002
0000
2003
0000
,  // measure 61
3001
0100
0101
0000
,  // measure 62
0010
1000
1010
0000
,  // measure 63
1000
0001
0100
0010
,  // measure 64
2000
0000
3002
0003
;

//---------------dance-single - ----------------
#NOTES:
     dance-single:
     :
     Medium:
     6:
     0.396,0.442,0.213,0.221,0.000: // measure 1
0000
0000
0000
0000
,  // measure 2
0000
0000
0000
0000
,  // measure 3
0000
0000
0000
0000
,  // measure 4
0000
0000
0000
0000
,  // measure 5
1000
1000
0100
0001
,  // measure 6
1000
0010
0001
0001
,  // measure 7
1000
0100
0010
0001
,  // measure 8
0220
0330
1001
0110
,  // measure 9
1000
0000
0100
0000
0010
0001
0010
0000
,  // measure 10
0001
0000
1000
0000
0010
1000
0010
1000
,  // measure 11
0010
0000
0100
0000
0001
0010
0001
0000
,  // measure 12
0100
0000
0010
0000
1000
0100
1000
0100
,  // measure 13
0000
0100
1000
0000
0001
0000
0010
0000
,  // measure 14
0001
0000
1000
0000
0100
1000
0100
0000
,  // measure 15
1000
0010
1000
0000
0001
1000
0001
0000
,  // measure 16
1000
0100
1000
0100
1000
0000
0110
0000
,  // measure 17
1001
0000
0200
0000
0000
0000
0010
0310
,  // measure 18
0000
0000
0011
0000
2000
0000
0010
3010
,  // measure 19
0000
0000
1100
0000
0002
0000
0100
0103
,  // measure 20
0000
0000
0100
0010
0100
0010
0100
0000
,  // measure 21
0110
0000
0002
0000
0000
0000
1000
1003
,  // measure 22
0000
0000
1010
0000
0200
0000
0001
0301
,  // measure 23
0000
0000
0101
0000
0020
0000
1000
1030
,  // measure 24
1000
0000
0110
0000
,  // measure 25
2000
0100
0001
3010
,  // measure 26
0020
0001
1000
0130
,  // measure 27
0200
0010
1000
0301
,  // measure 28
0002
0010
1000
0103
,  // measure 29
0001
0000
1000
0100
1000
0000
0001
0000
,  // measure 30
0100
0000
0001
1000
0001
0000
0100
0000
,  // measure 31
0010
0000
1000
0001
1000
0000
0010
0000
,  // measure 32
1000
0000
0001
0010
0001
0000
1000
0000
,  // measure 33
0001
0010
0001
0000
0001
0100
0001
0000
,  // measure 34
1000
0100
1000
0011
,  // measure 35
1000
0001
1000
0000
0010
1000
0010
0000
,  // measure 36
0100
0010
0100
1001
,  // measure 37
0001
0010
0100
0000
0100
0010
0001
0000
,  // measure 38
0001
0010
0001
1100
,  // measure 39
0010
1000
0001
0000
1000
0001
0100
0000
,  // measure 40
0001
1000
0001
0110
,  // measure 41
1000
2000
0000
0000
3100
0200
0000
0000
,  // measure 42
0310
0020
0000
0000
0031
1000
0001
0000
,  // measure 43
0001
0002
0000
0000
0103
0200
0000
0000
,  // measure 44
0310
0020
0000
0000
1030
0001
1000
0000
,  // measure 45
0001
0002
0000
0000
1003
2000
0000
0000
,  // measure 46
3010
0020
0000
0000
0130
0010
0100
0000
,  // measure 47
0010
1000
0001
1000
0010
0000
0110
0000
,  // measure 48
2002
3003
0110
1001
,  // measure 49
0110
0000
0001
0010
0001
0000
0010
0001
,  // measure 50
0000
0001
1000
0100
1000
0000
0100
1000
,  // measure 51
0000
1000
0010
0100
0010
0000
0100
0010
,  // measure 52
0100
0000
0110
0000
0001
0010
0001
0010
,  // measure 53
0001
0000
1000
0010
1000
0000
0001
0100
,  // measure 54
0000
0100
0001
0100
0001
0000
1000
0010
,  // measure 55
0000
0010
1000
0001
1000
0000
0001
1000
,  // measure 56
0001
0000
0110
0000
1000
0001
1000
0000
,  // measure 57
0002
0000
0010
0000
0010
0000
0013
0010
,  // measure 58
0020
0000
0100
0000
0100
0000
0100
0100
,  // measure 59
0230
0000
1000
0000
1000
0000
1000
1000
,  // measure 60
2300
0000
0001
0000
0001
0000
0001
0001
,  // measure 61
3001
1000
0011
1100
,  // measure 62
0010
0100
0101
1010
,  // measure 63
0001
0000
1000
0000
0010
0100
0010
0000
,  // measure 64
1000
0001
1000
0001
1000
0000
0000
0000
;

//---------------dance-single - ----------------
#NOTES:
     dance-single:
     :
     Hard:
     7:
     0.476,0.441,0.319,0.139,0.033: // measure 1
0000
0000
0000
0000
,  // measure 2
0000
0000
0000
0000
,  // measure 3
0000
0000
0000
0000
,  // measure 4
0000
0000
0000
0000
,  // measure 5
1000
0000
0100
0000
0001
0100
1000
0000
,  // measure 6
0001
0000
0010
0000
1000
0010
0001
0000
,  // measure 7
1000
0100
1000
0100
0010
0001
0010
0001
,  // measure 8
2000
3001
0110
1001
,  // measure 9
1100
0000
0001
0010
0100
0010
0001
0000
,  // measure 10
1001
0000
0100
0001
0010
0001
0100
0000
,  // measure 11
0011
0000
1000
0100
0010
0100
1000
0000
,  // measure 12
0110
0000
0001
0010
0100
1000
0010
0100
,  // measure 13
0101
0000
1000
0001
0100
0001
1000
0000
,  // measure 14
0110
0000
0010
0100
0001
0100
0010
0000
,  // measure 15
1010
0000
1000
0100
0001
0100
1000
0100
,  // measure 16
0010
0001
0100
0010
1000
0000
1001
0000
,  // measure 17
0001
0010
1000
0020
0000
0031
1000
0100
,  // measure 18
1000
0010
0001
0200
0000
1300
0001
0100
,  // measure 19
0010
1000
0001
2000
0000
3010
0100
0001
,  // measure 20
0100
0001
0010
0002
0000
1003
0100
1000
,  // measure 21
0100
0001
0100
2000
0000
3001
0100
0001
,  // measure 22
0100
0010
1000
0002
0000
1003
0100
0001
,  // measure 23
0010
1000
0100
0020
0000
0031
1000
0001
,  // measure 24
1000
0101
1010
1001
,  // measure 25
1000
0000
1000
0100
0000
0100
1000
0001
,  // measure 26
0010
0000
0010
0001
0000
0001
0100
0010
,  // measure 27
0100
0000
0100
0010
0000
1000
0001
0010
,  // measure 28
0001
0000
0001
1000
0000
0010
0100
0010
,  // measure 29
1000
0100
0010
0100
2000
0000
3001
0000
,  // measure 30
0001
0100
0010
0100
0002
0000
1003
0000
,  // measure 31
0010
1000
0001
1000
0020
0000
0130
0000
,  // measure 32
0100
0001
1000
0001
0200
0000
0310
0000
,  // measure 33
0010
0010
0110
0000
0000
0100
0100
0001
,  // measure 34
1000
0100
0010
0001
0000
0001
1000
0000
,  // measure 35
0001
0001
1001
0000
0000
1000
1000
0010
,  // measure 36
0100
0001
1000
0010
0000
0010
0100
0000
,  // measure 37
0001
1000
1001
0000
0000
0001
1000
0010
,  // measure 38
0100
0001
0010
0001
0100
0000
0110
0000
,  // measure 39
0100
0010
0110
0000
0000
0100
0010
1000
,  // measure 40
0001
0010
0100
0010
0001
0000
1001
0000
,  // measure 41
1000
1100
0000
0000
0001
0011
0000
0000
,  // measure 42
0100
0110
0000
0000
0001
0010
1000
0010
,  // measure 43
0001
0101
0000
0000
1000
1010
0000
0000
,  // measure 44
1000
1001
0000
0000
1000
0100
0010
0001
,  // measure 45
0001
0101
0000
0000
1000
1100
0000
0000
,  // measure 46
0010
0110
0000
0000
1000
0100
1000
0010
,  // measure 47
0100
0001
1000
0010
1000
0001
0100
0001
,  // measure 48
0200
0310
1001
0110
,  // measure 49
2000
0000
3001
0010
0001
0010
0001
0000
,  // measure 50
0200
0000
0310
1000
0001
1000
0010
0000
,  // measure 51
0020
0000
1030
0100
1000
0100
1000
0000
,  // measure 52
0002
0000
1003
0010
0100
0010
1000
0000
,  // measure 53
0011
0000
1000
0100
0010
0000
0010
0100
,  // measure 54
1000
0000
1000
0100
0001
0000
0001
0100
,  // measure 55
1000
0000
1000
0001
0010
0000
0010
0001
,  // measure 56
1000
0000
1000
0010
0001
0000
0001
0010
,  // measure 57
1000
0000
0000
0100
0000
0000
1100
0000
0000
0000
1000
0000
0100
0000
0000
0000
,  // measure 58
0010
0000
0000
0001
0000
0000
0011
0000
0000
0000
0010
0000
0001
0000
0000
0000
,  // measure 59
1000
0000
0000
0001
0000
0000
1001
0000
0000
0000
1000
0000
0001
0000
0000
0000
,  // measure 60
0100
0000
0000
0010
0000
0000
0100
0000
0001
0000
0010
0000
0100
0000
1000
0000
,  // measure 61
0001
0000
0000
0100
0000
0000
0101
0000
0000
0000
0001
0000
0100
0000
0000
0000
,  // measure 62
0010
0000
0000
1000
0000
0000
1010
0000
0000
0000
0010
0000
1000
0000
0000
0000
,  // measure 63
0010
0000
0000
0100
0000
0000
0110
0000
0000
0000
0010
0000
0100
0000
0000
0000
,  // measure 64
0001
0000
0000
1001
0000
0000
0110
0000
0000
0000
0000
0000
0000
0000
0000
0000
;

//---------------dance-single - ----------------
#NOTES:
     dance-single:
     :
     Challenge:
     9:
     0.689,0.700,0.417,0.278,0.544: // measure 1
0000
0000
0000
0000
,  // measure 2
0000
0000
0000
0000
,  // measure 3
0000
0000
0000
0000
,  // measure 4
0000
0000
0000
0000
,  // measure 5
1000
0100
1000
0100
1000
0100
0010
0100
,  // measure 6
1000
0100
0001
0100
1000
0100
0010
0001
,  // measure 7
0100
0010
1000
0001
1000
0010
0100
0001
,  // measure 8
0210
0000
0000
0000
0301
0010
0001
0000
1001
0000
0000
0000
0110
0000
0000
0000
,  // measure 9
0001
0000
0010
0001
0000
0001
0010
0000
0001
0000
1000
0000
0100
0000
0010
0000
,  // measure 10
0100
0000
1000
0100
0000
0100
1000
0000
0001
0000
0010
0000
0100
0000
0010
0001
,  // measure 11
1000
0000
1000
0100
0000
0010
0001
0000
1000
0000
0100
0000
1000
0000
0001
0000
,  // measure 12
0001
0000
0001
0010
0000
0100
1000
0000
0001
1000
0002
0000
0000
0000
0103
0010
,  // measure 13
0100
0000
0001
1000
0000
1000
0001
0000
1000
0000
0100
0000
1000
0000
0010
0000
,  // measure 14
0100
0000
0010
0100
0000
0100
0010
0000
2000
0100
0000
0010
0000
0001
3000
0010
,  // measure 15
1000
0000
0001
0100
0000
0010
1000
0000
0001
0000
0010
0000
1000
0000
0010
0000
,  // measure 16
0001
0010
0001
0000
1000
0100
1000
0000
0110
0000
0000
0000
1001
0000
0000
0000
,  // measure 17
1000
0000
0001
0010
0000
0010
0001
0000
1000
0100
0000
0100
1000
0000
0001
0000
,  // measure 18
0010
0000
0001
0100
0000
0100
0001
0000
1000
0010
0000
0010
1000
0000
0010
0000
,  // measure 19
1000
0000
0010
1000
0000
0001
0100
0000
0100
0001
0000
1000
0010
0000
1000
0000
,  // measure 20
0001
0000
1000
0100
1000
0000
0001
0000
0100
0000
0001
0010
0001
0000
0100
0000
,  // measure 21
0001
0000
1000
0010
0000
0100
0010
0000
0100
0010
0000
0100
0001
0000
1000
0000
,  // measure 22
0001
0000
0001
0010
0000
0100
0010
0000
0100
0010
0000
0100
1000
0000
0001
0000
,  // measure 23
1000
0000
0001
0010
0000
0100
1000
0000
1000
0010
0000
0100
0001
0000
0000
0000
,  // measure 24
1001
0000
0000
0000
0001
1000
0001
1000
0001
0000
0000
0000
0110
0000
0000
0000
,  // measure 25
1000
0100
1000
0000
0001
0010
0000
0002
0000
0000
1003
0000
0100
0000
1100
0000
,  // measure 26
0001
0010
0001
0000
1000
0100
0000
2000
0000
0000
3001
0000
0010
0000
0011
0000
,  // measure 27
1000
0100
0010
0000
0100
2000
0000
0001
0000
0000
3001
0000
0011
0000
0101
0000
,  // measure 28
0001
0100
0010
0000
0100
0002
0000
1003
0000
0101
0000
1010
0000
1001
0000
0001
,  // measure 29
1000
0010
1000
0000
0002
0100
0000
0100
0000
0000
1003
0000
1000
0000
1100
0000
,  // measure 30
0001
0100
0001
0000
2000
0010
0000
0010
0000
0000
3001
0000
0001
0000
0011
0000
,  // measure 31
1000
0001
0100
0000
0200
0010
0000
0010
0000
0000
0301
0000
1000
0000
1010
0000
,  // measure 32
0001
1000
0010
0000
0020
0100
0000
0100
0000
0000
1030
0000
0001
0000
0101
0000
,  // measure 33
0001
0011
0101
0000
1000
0100
0010
1001
,  // measure 34
1000
0010
0001
0010
1000
0100
0001
0100
,  // measure 35
1000
1100
1010
0000
0001
0100
0010
1001
,  // measure 36
0001
0010
1000
0010
0001
0100
1000
0100
,  // measure 37
0001
1010
0101
0000
1000
0001
0100
0110
,  // measure 38
0010
1000
0001
0100
0001
1000
0010
0100
,  // measure 39
0010
1100
0011
0000
0001
1000
0010
0110
,  // measure 40
0010
1000
0100
0010
0001
0100
0001
1000
,  // measure 41
0011
0022
0000
0033
1100
2200
0000
3300
,  // measure 42
0101
0202
0000
0303
1010
2020
0000
3030
,  // measure 43
0001
0010
0001
0200
0000
0000
0000
0000
0310
1000
0001
2000
0000
0000
0000
0000
,  // measure 44
3100
1000
0001
0020
0000
0000
0000
0000
0031
0010
0100
2000
0000
0000
0000
0000
,  // measure 45
3011
0000
0202
0000
0000
0000
0303
0000
1000
0100
1000
0002
0000
0000
0003
0000
,  // measure 46
1010
0000
2200
0000
0000
0000
3300
0000
0001
0100
0001
0020
0000
0000
0030
0000
,  // measure 47
1001
0000
0001
0010
0100
0000
0100
0010
0001
0000
1000
0010
0100
0000
0100
0010
,  // measure 48
2000
0000
0000
0000
3001
0100
0001
0000
1001
0000
0000
0000
0110
0000
0000
0000
,  // measure 49
1000
0000
0001
0010
0000
1000
0010
0000
0001
0000
2000
0000
0100
0000
0010
0000
,  // measure 50
3001
0000
1000
0100
0000
0001
0100
0000
1000
0000
0020
0000
0100
0000
0100
0000
,  // measure 51
1030
0000
0001
0100
0000
0010
0100
0000
0001
0000
0200
0000
0001
0000
0010
0000
,  // measure 52
0301
0000
1000
0010
0000
0100
0010
0000
1000
0000
0002
0000
1000
0000
1003
0100
,  // measure 53
1000
0000
0001
0010
0000
0010
0001
0000
1000
0100
1000
0000
0001
0000
0100
0000
,  // measure 54
0001
0000
1000
0100
0000
0100
1000
0000
0001
0010
0001
0000
0100
0000
0001
0000
,  // measure 55
1000
0000
0001
0100
0000
0100
0001
0000
1000
0010
0100
0000
0001
0000
0010
0000
,  // measure 56
0001
0000
1000
0000
0001
0010
0100
1000
0010
0000
0100
0000
0001
0000
1000
0000
,  // measure 57
1001
0000
0000
1100
0000
0000
0001
0000
0000
1000
0100
0000
0100
0000
1000
0000
,  // measure 58
0010
0000
0000
0101
0000
0000
0010
0000
0000
1000
0001
0000
1000
0000
1000
0000
,  // measure 59
0110
0000
0000
1010
0000
0000
0100
0000
0000
0010
0001
0000
0001
0000
1000
0000
,  // measure 60
1000
0000
0000
0011
0000
0000
1000
0000
0000
0001
0010
0000
0001
0000
0001
0000
,  // measure 61
0100
0000
0001
1000
0000
0001
1000
0000
0010
0000
1000
0000
0100
0000
1000
0000
,  // measure 62
0001
0000
0100
0010
0000
0100
0010
0000
1000
0000
0100
0000
0001
0000
0100
0000
,  // measure 63
1000
0000
0001
0010
0000
0100
1000
0000
0001
0000
1000
0000
0010
0000
0100
0000
,  // measure 64
0001
0000
1000
0100
0000
0010
0001
0000
0000
0000
0000
0000
0000
0000
0000
0000
;
