#TITLE:cry;
#SUBTITLE:;
#ARTIST:yuyoyuppe feat. Vin & neko;
#TITLETRANSLIT:;
#SUBTITLETRANSLIT:;
#ARTISTTRANSLIT:;
#GENRE:Vocaloid Cover;
#CREDIT:AznPunk07/Frozen_Heat/GuardianFrozen;
#MENUCOLOR:#163687;
#METERTYPE:DDR;
#BANNER:cry-bn.avi;
#BACKGROUND:cry-bg.png;
#LYRICSPATH:cry.lrc;
#CDTITLE:!cdtitle.png;
#MUSIC:cry.mp3;
#OFFSET:-0.402;
#SAMPLESTART:50.885;
#SAMPLELENGTH:19.900;
#SELECTABLE:YES;
#LISTSORT:;
#BPMS:0.000=190.000,296.000=189.980;
#STOPS:;
#BGCHANGES:0.000=cry-bg.jpg=1.000=0=1=0,
99999=-nosongbg-=1.000=0=0=0 // don't automatically add -songbackground-
;
#ATTACKS:;

//---------------dance-single - ----------------
#NOTES:
     dance-single:
     :
     Hard:
     9:
     0.605,0.731,0.403,0.129,0.004:
0000
0000
0000
0000
,
0000
0000
0000
0000
,
0000
0000
0000
0000
,
0000
0000
0000
0000
,
0000
0000
0000
0000
,
0000
0000
0000
0000
,
0000
0000
0000
0000
,
0000
0000
0000
1000
,
1100
0000
0010
0001
0000
1000
0100
0000
,
0010
0001
0000
0001
0101
0000
1010
0000
,
0001
0000
0001
0100
0000
0010
1000
0000
,
1000
0100
0000
0010
0001
1000
0010
0100
,
0001
0000
0001
0010
0000
0001
1000
0000
,
0000
0001
0100
0001
0100
0100
0010
0000
,
1000
0100
1000
0001
0000
0001
1000
0000
,
0000
1010
1001
1010
,
0011
0000
0100
1000
0000
0001
0010
0000
,
0100
1000
0000
1000
1010
0000
0101
0000
,
1000
0000
1000
0100
0000
1000
0001
0000
,
0001
0010
0000
0001
0100
0001
0010
0100
,
1000
0000
0000
1100
0000
0000
1001
0000
,
0000
0010
1000
0010
0100
0100
0001
0000
,
0010
0100
1000
0100
0000
0010
0001
0000
,
0000
0101
1001
0101
,
1010
0000
0000
0000
0000
0000
0000
0010
,
0110
0000
1000
1100
0000
0001
0011
0000
,
1000
0001
0101
0000
1010
0000
0101
0000
,
0001
0010
0100
1000
0000
1000
0010
0000
,
1000
0100
0011
0000
1001
0000
0101
0000
,
1000
0010
0001
0010
0000
0100
0001
0001
,
1000
0100
0110
0000
1100
0000
1001
0000
,
0001
0100
0001
0100
0000
0010
0100
0001
,
1000
0100
1000
0001
0100
0001
0010
0100
,
0100
1000
0001
1000
1000
0010
0100
0001
,
1000
0100
0001
0100
1000
0100
0000
0000
,
0001
0100
1000
0100
0001
0010
1000
0000
,
1000
0010
0001
0010
0100
1000
0000
0000
,
0001
0100
1000
0100
1010
0000
0101
0000
,
0001
0010
1000
0010
0001
0010
0000
0000
,
1000
0100
0001
0100
1000
0010
0001
0010
,
0100
0001
0010
1000
0010
0100
0000
0000
,
0010
0001
0100
0000
0010
1000
0100
0000
,
1100
0000
0011
0000
1000
0001
0100
0000
,
1000
0001
0010
0000
1000
0001
1000
0000
,
0010
0000
0100
0000
0001
1000
0010
0000
,
0001
1000
0100
0000
0001
1000
0001
1000
,
0100
0000
0100
0010
0100
0000
0010
0001
,
1000
0000
0010
1000
0010
0000
0100
0001
,
1000
0000
1000
0100
0000
0000
0110
0000
,
0000
0010
0001
0000
0001
1000
0001
0100
,
0010
0000
1000
0010
0001
0000
0001
0010
,
0100
0000
0100
0001
0010
0100
1000
0001
,
1000
0000
0001
0010
1000
0000
1000
0010
,
0100
0000
0100
1000
0001
0100
1000
0100
,
0010
0000
1000
0001
0010
0000
0010
0001
,
1000
0000
0001
0100
1000
0000
1000
0100
,
0010
0000
1000
0100
0000
0001
0100
0000
,
1000
0100
0010
0001
1001
0000
1001
0000
,
1000
0100
0011
0000
0001
0100
1010
0000
,
1000
0001
0110
0000
0001
1000
0110
0000
,
0001
0010
1100
0000
1000
0010
0101
0000
,
1000
0000
0010
0000
0001
0000
0010
0000
1001
0000
0010
0000
0100
0010
0100
0000
,
1000
1000
0001
0100
0100
0001
0010
0010
,
0100
0010
0001
1000
0001
0100
0101
0000
,
0001
0001
0010
0100
0100
1000
0010
0010
,
0100
1000
1000
0100
0001
0001
0001
0000
,
1100
0010
0001
0000
0011
0100
1000
0000
,
1001
0010
0100
0000
1001
0100
0010
0000
,
0101
0010
1000
0000
1100
0010
0001
0000
,
0110
0001
1000
0001
0110
1000
0001
0010
,
1000
1000
0000
0010
0100
0000
0010
0001
,
0000
0001
1000
0001
0100
0000
0100
0010
,
0100
0000
0010
1000
0000
0001
0010
0000
,
0000
0100
1000
0000
0001
0010
0100
1000
,
0020
0000
0000
0130
0001
0100
0000
0010
,
0000
1000
0000
0001
1000
0001
0000
0000
,
0200
0000
0000
0310
1000
0100
0010
0000
,
0100
0000
1000
0100
0000
0010
0001
1000
,
0002
0000
0000
0103
0010
0000
0000
1000
,
0000
0001
0000
0010
0001
0100
0010
0000
,
2000
0000
0000
3100
0010
0100
0000
1000
,
0000
0010
0000
0100
0001
1000
0100
0000
,
0020
0000
0000
0230
0000
0000
2300
0000
,
0000
3000
0001
0000
0100
0000
0010
0000
,
0200
0000
0000
0302
0000
0000
0023
0000
,
0000
0030
0100
0000
1000
0000
0001
0000
,
1000
0000
0000
0001
1000
0100
0000
0100
,
0000
1000
0000
0001
0100
0001
0010
0000
,
0200
0000
0000
0320
0000
0000
0032
0000
,
0000
2003
0000
3020
,
0200
0000
0000
0000
,
0000
0000
0000
0000
,
0000
0000
0000
0000
,
0000
0000
0000
0000
,
0000
0000
0000
0000
,
0000
0000
0330
0000
;

//---------------dance-single - ----------------
#NOTES:
     dance-single:
     :
     Challenge:
     10:
     0.901,1.000,0.508,0.169,0.665:
0000
0000
0000
0000
,
0000
0000
0000
0000
,
0000
0000
0000
0000
,
0000
0000
0000
0000
,
0000
0000
0000
0000
,
0000
0000
0000
0000
,
0000
0000
0000
0000
,
0000
0000
0000
0000
,
0001
0010
1100
0000
1000
0010
0101
0000
,
1000
0100
0011
0000
0001
0100
1010
0001
,
1000
0001
1010
0000
0001
1000
0011
0000
,
1000
0000
0001
0000
1100
0000
0010
0001
1000
0000
0010
0100
0010
0100
0010
0100
,
0010
0010
1100
0001
0001
0001
0110
1000
,
1000
1000
0101
0010
0010
0010
1001
0100
,
0001
1000
0001
1000
0001
0000
0000
0000
0100
0010
0000
0000
0000
0000
1000
0000
,
0000
0000
0100
0010
0001
0000
0100
0010
0001
0000
0010
0000
1000
0100
0010
0001
,
1000
0100
0011
1000
0001
0100
1010
0001
,
0100
0010
1100
0010
1000
0001
0110
1000
,
0001
0010
0101
1000
0010
0100
0011
1000
,
0100
0000
1000
0000
0110
0000
0001
0010
0100
0000
1000
0000
0001
1000
0001
1000
,
0001
0000
0100
0000
0000
0000
0010
1000
0010
0000
0000
0000
0000
0000
0100
0000
,
0001
0000
1000
0000
0000
0000
0100
0010
0100
0000
0010
0001
0010
0000
0100
1000
,
0100
0010
0001
1000
0001
0000
1000
0100
1000
0100
0010
0000
0100
0000
1000
0000
,
0010
0100
1000
0000
0100
0001
0010
0000
1000
0010
0001
0010
1000
0010
0100
0000
,
0020
0000
0000
0000
0100
0000
0000
0001
,
0031
1000
0010
0100
0000
0100
0010
1000
0001
0010
0000
0000
0100
0010
0001
0010
,
0100
0000
0000
0100
1000
0000
0000
1000
0010
0000
0000
0010
0001
0000
0000
0001
,
0020
0000
0000
0000
1030
0000
1200
0000
0000
0000
0310
0000
0001
1000
0001
0000
,
0100
0000
0000
0100
0001
0000
0000
0001
1000
0000
0000
1000
0100
0000
0000
0100
,
0020
0000
0000
0000
0031
0000
0201
0000
0000
0000
0310
0000
1000
0001
1000
0001
,
1000
0000
0000
1000
0001
0000
0000
0001
0010
0000
0000
0010
0100
0000
0000
0100
,
2000
0000
3010
0102
0000
0013
1100
0010
,
0001
0100
0001
0100
0000
0000
0010
1000
0010
1000
0100
0000
0010
0100
0010
0100
,
0010
0001
0010
0000
0100
1000
0001
0000
0100
0001
0100
0000
0001
1000
0001
0000
,
1000
0010
1000
0010
1000
0010
1000
0010
0100
0000
0010
0000
0000
0000
0000
0000
,
0001
0010
0001
0010
0001
0010
0001
0010
0001
0000
0100
0000
1000
0000
0100
0000
,
0010
1000
0010
1000
0010
1000
0010
1000
0100
0000
0001
0000
0000
0000
0000
0000
,
0010
0001
0010
0001
0010
0001
0010
0001
0100
0000
0000
0000
1010
0000
0000
0000
,
0001
1000
0010
1000
0001
1000
0010
1000
0001
0000
0100
0000
0000
0000
0000
0000
,
1000
0001
1000
0010
1000
0001
1000
0010
1000
0000
0100
0000
0010
0000
0001
0000
,
1000
0001
0100
0001
1000
0001
0100
0001
1000
0000
0010
0000
0000
0000
0000
0000
,
0001
1000
0001
0100
0001
1000
0001
0100
0002
0000
0000
0000
0013
0100
0010
0100
,
0010
0000
0000
0010
0100
0000
0000
0100
1000
0000
0000
0000
1000
0000
0001
0000
,
0101
0000
0000
0000
0001
0000
1000
0000
1100
0000
0000
0100
0010
0000
0000
0010
,
0001
0000
0010
0100
1010
0000
0010
0100
,
0011
0000
0000
0000
0010
0000
0100
0000
1000
0010
0001
1000
0100
0001
1000
0010
,
0001
0000
0010
1000
0001
0000
0011
0100
,
1000
0000
0010
1000
0001
0001
0010
0001
,
1000
1000
1000
0010
0010
0010
0100
0001
,
0100
0100
0001
0001
1000
1000
0010
1000
,
0100
0000
0000
0100
0010
0000
0000
0010
0001
0000
0000
0000
0001
0000
1000
0000
,
1010
0000
0000
0000
1000
0000
0001
0000
0011
0000
0000
0010
0100
0000
0000
0100
,
1000
0000
0100
0010
0101
0000
0100
0010
,
1100
0000
0000
0000
0100
0000
0010
0000
0001
0100
1000
0001
0010
1000
0001
0100
,
1000
0000
0100
0001
1000
0000
1100
0010
,
0001
0000
0100
0001
0101
0010
1010
0001
,
1000
1000
1000
0100
0100
0010
0110
0001
,
0100
0001
0010
0000
0100
1000
0010
0000
0110
0000
0000
0000
1001
0000
0000
0000
,
1000
0100
0011
0100
1000
0001
0110
1000
,
0010
0100
0101
0010
1000
0010
0101
0000
,
0001
0010
1100
0010
0001
1000
0110
0001
,
1000
0000
0001
0000
0101
0000
0010
0000
1000
0000
0100
0000
0010
0001
0010
0100
,
0010
0001
0001
0100
0010
0010
1000
0100
,
0100
0000
0010
0000
0100
0000
0100
0000
1000
0000
0001
0000
0100
0010
0100
0000
,
0001
0100
0010
1000
0010
0100
0001
0000
1000
0000
0100
0000
0000
0000
0110
0000
,
0000
0000
0001
1000
0001
0000
1000
0100
1000
0100
0000
0100
0010
0001
0010
0100
,
1000
1000
0110
1000
0001
0001
1010
0001
,
0100
0100
0011
1000
0010
0010
1100
0001
,
1000
1000
0101
0010
0100
0100
1001
0100
,
0001
0000
0001
0000
0110
0000
1000
0000
0110
0000
0000
0000
0001
0100
1000
0100
,
0001
0000
0010
0000
0000
0000
0100
0010
0001
0000
1000
0000
0000
0000
0010
1000
,
0100
0000
0010
0000
0000
0000
0001
0010
0100
0000
1000
0000
0001
0000
0100
0000
,
0010
1000
0010
1000
0100
0000
0010
0001
0010
0001
0100
0000
0010
1000
0001
0000
,
0010
0001
0010
0100
1000
0100
0010
0001
1000
0001
0100
0001
1000
0001
0010
0100
,
2000
0000
0100
0000
0000
0000
3001
0010
1000
0000
0020
0000
0000
0000
0001
0000
,
0000
0000
0130
1000
0002
0000
0000
0000
1003
0000
1000
0000
0100
0000
0110
0000
,
0020
0000
0000
0000
0000
0000
0130
1000
0200
0000
0010
0000
0000
0000
1000
0000
,
0000
0000
0310
0001
2000
0000
0000
0000
3100
0000
0010
0000
0001
0100
0001
0010
,
0002
0000
0000
0000
0000
0000
1003
0010
0200
0000
0010
0000
0000
0000
1000
0000
,
0000
0000
0310
1000
0020
0000
0000
0000
0001
0000
0000
0000
0130
0000
0100
0000
,
0002
0000
0000
0000
0003
0000
1000
0100
2000
0000
0000
0000
0000
0000
3010
0000
,
0000
0000
0100
0001
1000
0000
0000
0000
0100
0010
0001
0010
0100
0000
0000
0000
,
1100
0000
0000
0000
0100
0000
0010
0001
1000
0000
0010
0000
0000
0000
0101
0000
,
0000
0000
0010
1000
0100
0000
0000
0000
0010
0000
1100
0000
0010
0000
0011
0000
,
0100
0000
0000
0000
0000
0000
1000
0001
0100
0000
0010
0000
0000
0000
0010
0000
,
0000
0000
0010
1000
0001
0000
0000
0000
0001
0000
0001
0000
1000
0010
1000
0010
,
0100
0000
0000
0000
0000
0000
0001
0010
0100
0000
1000
0000
0000
0000
0100
0000
,
0000
0000
0010
0100
1000
0000
0000
0000
0001
0000
0101
0000
0110
0000
1000
0000
,
0001
0100
0001
0000
0000
0000
1000
0100
1000
0000
0000
0000
0001
0010
0001
0000
,
0000
0000
1000
0010
1000
0000
0000
0000
1001
0000
0100
0000
0010
0000
0100
0000
,
2002
0000
0000
0000
,
0000
0000
0000
0000
,
0000
0000
0000
0000
,
0000
0000
0000
0000
,
0000
0000
0000
0000
,
0000
0000
3003
0000
;

//---------------dance-single - ----------------
#NOTES:
     dance-single:
     :
     Medium:
     7:
     0.426,0.539,0.298,0.016,0.000:
0000
0000
0000
0000
,
0000
0000
0000
0000
,
0000
0000
0000
0000
,
0000
0000
0000
0000
,
0000
0000
0000
0000
,
0000
0000
0000
0000
,
0000
0000
0000
0000
,
0000
0000
0000
0001
,
0101
0010
1000
0001
,
0010
0100
0010
0000
,
1000
0010
0100
0001
,
1000
0100
0010
0100
,
1100
0000
0000
1000
0000
0000
0001
0000
,
0000
0100
0001
0101
,
1001
0000
0000
0010
0000
0000
0100
0000
,
0000
0110
0110
0000
,
0001
0010
1000
0010
,
0001
1000
0001
1001
,
1000
0100
0001
0100
,
1000
0001
1000
1001
,
0010
0000
0000
0100
0000
0000
0110
0000
,
0000
1000
0001
1001
,
0010
0000
0000
0100
0000
0000
0010
0000
,
0000
0110
0110
0000
,
1001
0000
0000
0000
,
1100
0000
0000
0101
0000
0000
1001
0000
,
0000
0010
1000
0100
,
0010
0000
0001
0100
0000
0000
0001
0000
,
0010
0001
0100
0010
,
1000
0000
0100
1000
0000
0000
0010
0000
,
0100
0001
1000
0100
,
0010
0000
0100
1000
0000
0001
0100
0000
,
0010
0000
0000
0100
0000
0000
1001
0000
,
0001
1000
0001
1000
0001
1000
0001
0000
,
1000
0100
1000
0100
1000
0100
0000
0000
,
1000
0001
1000
0000
0010
1000
0010
0000
,
0100
0001
0100
0001
0100
0001
0000
0000
,
0001
1000
0001
0000
0100
0000
0100
0000
,
0001
0010
0001
0010
0001
0010
0000
0000
,
0001
1000
0001
0000
0100
0001
0100
0000
,
0010
1000
0010
1000
0010
1000
0000
0000
,
1000
0001
1000
0000
0010
0000
0010
0000
,
0100
0100
0001
0001
,
1000
1000
0001
0010
,
0100
0100
0010
0010
,
0001
1000
1010
1001
,
0011
0000
0100
1000
,
0001
0001
1000
1000
,
0010
0000
0000
0100
0000
0000
0010
0000
,
0000
0000
1000
0000
0001
1000
0001
0000
,
0100
0100
0001
0001
,
1000
1000
0100
0010
,
0100
0100
1000
1000
,
0010
0010
0100
0001
,
1000
1000
0001
0001
,
0010
0010
0100
0100
,
0010
0000
0000
0001
0000
0000
1000
0000
,
0010
0000
1000
0000
0001
1000
0000
0000
,
0001
0101
0010
1010
,
0001
0101
1010
0001
,
1000
1100
0001
0011
,
1000
1100
0011
1001
,
0100
0000
0010
1000
0100
0000
0010
0000
,
0001
1000
0001
0000
,
0100
0000
0001
0010
0100
0000
0010
0000
,
0001
1000
0001
0000
0100
0000
0110
0000
,
0010
0000
0010
1000
0100
0000
0010
0000
,
0001
0000
1000
0001
0100
0000
0010
0000
,
1000
0000
0001
0010
0001
0000
1000
0000
,
0100
0000
0010
0100
1000
0000
0001
0000
,
0100
0000
0010
0000
0100
0001
0000
1000
,
0000
0100
0000
1000
0001
0000
0100
0000
,
0010
1000
0000
0010
0100
0000
0010
0001
,
0000
0010
1000
0000
0010
0100
0010
0100
,
0001
0000
0000
1000
0100
0000
0000
1000
,
0000
0001
0000
0000
0100
0000
0010
0000
,
1000
0000
0000
0001
0010
0001
0000
0100
,
0000
0001
0000
1000
0100
0000
1000
0000
,
0010
0000
0000
0000
0100
0000
0000
0010
,
0000
1000
0000
0010
0100
0000
0001
0000
,
1000
0000
0000
0001
1000
0001
0000
1000
,
0000
0100
0000
0010
0100
0000
1000
0000
,
0001
0000
0000
0101
0000
0000
1001
0000
,
0000
0010
0100
0000
,
1000
0000
0000
1100
0000
0000
1001
0000
,
0000
0010
0100
0001
,
1000
0000
0000
1000
0001
1000
0000
0100
,
0000
0010
0000
0100
0010
0000
0001
0000
,
1000
0000
0000
1100
0000
0000
0001
0000
,
0000
0101
0000
2002
,
0000
0000
0000
0000
,
0000
0000
0000
0000
,
0000
0000
0000
0000
,
0000
0000
0000
0000
,
0000
0000
0000
0000
,
0000
0000
3003
0000
;

//---------------dance-single - ----------------
#NOTES:
     dance-single:
     :
     Beginner:
     2:
     0.092,0.218,0.000,0.024,0.000: // measure 1
0000
0000
0000
0000
,  // measure 2
0000
0000
0000
0000
,  // measure 3
0000
0000
0000
0000
,  // measure 4
0000
0000
0000
0000
,  // measure 5
0000
0000
0000
0000
,  // measure 6
0000
0000
0000
0000
,  // measure 7
0000
0000
0000
0000
,  // measure 8
0000
0000
0000
0000
,  // measure 9
0001
0000
0000
0000
,  // measure 10
0000
0000
0000
0000
,  // measure 11
1000
0000
0000
0000
,  // measure 12
0000
0000
0000
0000
,  // measure 13
0100
0000
0000
0000
,  // measure 14
0000
0000
0000
0000
,  // measure 15
0010
0000
0000
0000
,  // measure 16
0010
0000
0010
0000
,  // measure 17
0001
0000
0000
0000
,  // measure 18
0000
0000
0000
0000
,  // measure 19
0100
0000
0000
0000
,  // measure 20
0000
0000
0000
0000
,  // measure 21
0010
0000
0000
0000
,  // measure 22
0000
0000
0000
0000
,  // measure 23
1000
0000
0000
0000
,  // measure 24
0100
0000
0100
0000
,  // measure 25
0100
0000
0000
0000
,  // measure 26
0000
0000
0000
0000
,  // measure 27
0000
0001
0001
0000
,  // measure 28
0000
0000
0000
0000
,  // measure 29
0000
1000
1000
0000
,  // measure 30
0000
0000
0000
0000
,  // measure 31
0000
0010
0010
0000
,  // measure 32
0000
0000
0000
0000
,  // measure 33
0100
0000
0100
0000
,  // measure 34
0100
0000
0000
0000
,  // measure 35
0001
0001
0001
0000
,  // measure 36
0000
0000
0000
0000
,  // measure 37
1000
1000
1000
0000
,  // measure 38
0000
0000
0000
0000
,  // measure 39
0100
0100
0100
0000
,  // measure 40
0000
0000
0000
0000
,  // measure 41
0010
0010
0010
0000
,  // measure 42
0010
0000
0010
0000
,  // measure 43
0010
0000
0000
0000
,  // measure 44
0000
0000
0000
0000
,  // measure 45
0100
0000
0000
0000
,  // measure 46
0000
0000
0000
0000
,  // measure 47
1000
0000
0000
0000
,  // measure 48
0000
0000
0000
0000
,  // measure 49
0001
0000
0000
0000
,  // measure 50
1000
0000
0000
0000
,  // measure 51
0010
0000
0000
0000
,  // measure 52
0000
0000
0000
0000
,  // measure 53
0100
0000
0000
0000
,  // measure 54
0000
0000
0000
0000
,  // measure 55
0001
0000
0000
0000
,  // measure 56
0000
0000
0000
0000
,  // measure 57
1000
0000
0000
0000
,  // measure 58
0100
0100
0100
0000
,  // measure 59
1000
0000
0000
0000
,  // measure 60
0000
0000
0000
0000
,  // measure 61
0010
0000
0000
0000
,  // measure 62
0000
0000
0000
0000
,  // measure 63
0100
0000
0100
0000
,  // measure 64
0000
0000
0000
0000
,  // measure 65
0001
0000
0000
0000
,  // measure 66
1000
0000
0000
0000
,  // measure 67
0001
0001
0000
0000
,  // measure 68
0000
0000
0000
0000
,  // measure 69
0010
0010
0000
0000
,  // measure 70
0000
0000
0000
0000
,  // measure 71
0100
0000
0000
0000
,  // measure 72
1000
0000
0000
0000
,  // measure 73
0001
0000
0000
0000
,  // measure 74
0010
0000
0000
0000
,  // measure 75
0002
0000
0003
0000
,  // measure 76
0000
0000
0000
0000
,  // measure 77
0000
0000
0000
0000
,  // measure 78
1000
0000
0000
0000
,  // measure 79
2000
0000
3000
0000
,  // measure 80
0000
0000
0000
0000
,  // measure 81
0200
0000
0300
0000
,  // measure 82
0000
0000
0000
0000
,  // measure 83
0010
0000
0010
0000
,  // measure 84
0000
0000
0000
0000
,  // measure 85
0100
0000
0100
0000
,  // measure 86
0000
0000
0000
0000
,  // measure 87
1000
0000
0000
0000
,  // measure 88
0001
0000
0000
0000
,  // measure 89
1000
0000
0001
0000
,  // measure 90
1000
0000
0001
0000
,  // measure 91
1000
0000
0000
0000
;

//---------------dance-single - ----------------
#NOTES:
     dance-single:
     :
     Easy:
     4:
     0.251,0.327,0.250,0.032,0.000:
0000
0000
0000
0000
,
0000
0000
0000
0000
,
0000
0000
0000
0000
,
0000
0000
0000
0000
,
0000
0000
0000
0000
,
0000
0000
0000
0000
,
0000
0000
0000
0000
,
0000
0000
0000
0000
,
0001
0000
0100
0000
,
0010
1000
0100
0000
,
0010
0000
0001
0000
,
1000
0001
0100
0000
,
0010
0000
1000
0000
,
0001
0000
0010
0000
,
0100
0000
0100
0000
,
0010
0001
1001
0000
,
0001
0000
0100
0000
,
0010
1000
0001
0000
,
0010
0000
0100
0000
,
0010
0001
1000
0000
,
1000
0000
1010
0000
,
0001
0000
0011
0000
,
1000
0000
0001
0000
,
1000
0001
1000
0001
,
1001
0000
0000
0000
,
0000
0000
0000
0000
,
0000
1000
1000
0000
,
0100
0000
0010
0000
,
0000
0001
0001
0000
,
0100
0000
0010
0000
,
0000
0100
0010
0000
,
1000
0000
0001
0010
,
0001
0000
0100
0000
,
0010
0010
0010
0010
,
1000
0100
0100
0000
,
0010
0010
0100
0100
,
0001
0001
0100
0000
,
1000
1000
0100
0100
,
0010
0010
0100
0000
,
1000
1000
0100
0100
,
0001
0001
0100
0000
,
0001
0000
0100
0000
,
1100
0000
0110
0000
,
0001
0000
1000
0000
,
0101
0000
0110
0000
,
1000
0000
0001
0000
,
1000
0000
1100
0000
,
0001
0000
0101
0000
,
1000
0000
0100
0000
,
0010
0000
0001
0000
,
1000
0000
1010
0000
,
0001
0000
0101
0000
,
0001
0000
0011
0000
,
1000
0000
1100
0000
,
0001
0000
1001
0000
,
0100
0000
0110
0000
,
1000
0000
0001
0000
,
1001
1001
1001
0000
,
0001
0101
0000
1001
,
0000
1100
0000
0010
,
0100
1100
0000
1001
,
0000
1010
0000
0010
,
0100
0100
0001
0001
,
1000
0100
0010
0000
,
0100
0000
1000
0000
,
0001
0100
0101
0000
,
1000
1000
0010
0100
,
0001
1000
0001
0000
,
0001
0001
0010
0001
,
1000
0010
0100
0000
,
0010
0000
0110
0000
,
0100
0000
0110
0000
,
1000
0000
0001
0000
,
1000
0001
1000
0001
,
2000
0000
3000
0000
,
0000
0000
0000
0000
,
0002
0000
0003
0000
,
0000
0000
0000
0000
,
0200
0000
0300
0000
,
0000
0000
0000
0000
,
0020
0000
0030
0000
,
0000
0000
0000
0000
,
1000
0000
0100
0000
,
1100
0000
0000
0000
,
0001
0000
0100
0000
,
0101
0000
0000
0000
,
1000
0000
0001
0000
,
0010
0000
0100
0000
,
0010
0000
0001
0000
,
1000
0000
0010
0000
,
0110
0000
0000
0000
;
