#TITLE:Within Attraction;
#SUBTITLE:;
#ARTIST:Yanni;
#TITLETRANSLIT:;
#SUBTITLETRANSLIT:;
#ARTISTTRANSLIT:;
#CREDIT:348;
#BANNER:Within Attraction Banner.png;
#BACKGROUND:Within Attraction Background.png;
#LYRICSPATH:;
#CDTITLE:;
#MUSIC:Within Attraction.mp3;
#OFFSET:-1.345;
#SAMPLESTART:61.900;
#SAMPLELENGTH:15.000;
#SELECTABLE:YES;
#BPMS:0.000=168.622;
#STOPS:;
#BGCHANGES:;

//---------------dance-single - ----------------
#NOTES:
     dance-single:
     :
     Beginner:
     2:
     0.111,0.133,0.000,0.000,0.000:
0000
0000
0000
0000
,
1000
0000
0000
0000
0000
0000
0000
0001
,
0000
0000
0000
1000
,
0000
0000
0000
0000
0000
0001
0000
0000
,
0000
0000
0100
0000
,
0000
0000
0000
0010
0000
0000
0000
0000
,
0000
0100
0000
0000
,
0000
0010
0000
0000
0000
0000
0000
0000
,
1000
0000
0000
0000
,
0000
0000
0000
0100
,
0000
0000
0000
0000
,
0000
0000
0010
0000
,
0000
0000
0000
0000
,
0000
0001
0000
0000
,
0000
0000
0000
0000
,
1000
0000
1000
0000
0000
0000
0000
0001
,
0000
0000
0000
0010
,
0010
0000
0000
0000
0000
0001
0000
0000
,
0000
0000
0001
0001
,
0000
0000
0000
1000
0000
0000
0000
0000
,
0000
0010
0010
0000
,
0000
1000
0000
0000
0000
0000
0000
0000
,
0001
0000
0000
0000
0100
0000
0000
0001
,
0000
0000
0000
1000
,
0000
0000
0010
0000
0000
1000
0000
0000
,
0000
0000
0001
0000
,
0000
0000
0000
1000
0000
0000
0000
0000
,
0000
0000
0000
0000
,
0000
0010
0000
0000
0000
0000
0000
0000
,
0000
0000
0000
0000
,
0000
0000
0000
1000
,
0000
0000
0100
0000
0000
0010
0000
0000
,
0000
0000
0001
0000
,
0010
0000
0000
0100
0000
0000
0000
0000
,
0000
1000
0000
0000
,
0000
0001
0000
0000
0000
0000
0000
0000
,
0100
0000
0000
0000
,
0000
0000
0000
0010
,
0000
0000
0000
0000
,
0000
0000
0000
0010
0000
0000
0010
0000
,
0000
0000
0000
0000
0000
0000
0000
0100
,
0000
0000
0100
0000
,
0000
0000
0000
0000
,
0001
0000
0000
0000
0000
0000
0000
0100
,
0000
0000
0000
0010
,
0000
0000
0000
0000
0000
1000
0000
0000
,
0000
0000
0001
0000
,
0000
0000
0000
0010
0000
0000
0000
0000
,
0000
0100
0000
0000
,
0000
1000
0000
0000
0000
0000
0000
0000
,
0010
0000
0000
0000
0000
0000
0000
1000
,
0000
0000
0000
0001
,
0000
0000
0000
0000
0000
0100
0000
0000
,
0000
0000
0010
0000
,
0000
0000
0000
0100
0000
0000
0000
0000
,
0000
0001
0000
0000
,
0000
1000
0000
0000
0000
0000
0000
0000
,
0010
0000
0000
0000
0000
0000
0000
0100
,
0000
0000
0000
0100
0000
0000
0100
0000
,
0000
0000
0000
0000
0000
0001
0000
0000
,
0000
0001
0000
0000
0001
0000
0000
0000
,
0000
0000
0000
1000
0000
0000
0000
0000
,
0000
0000
0000
0000
,
0000
1000
0000
0000
0000
0000
0000
0000
,
1000
0000
0000
0000
0000
0000
0000
0010
,
0000
0000
0000
0000
,
0000
0000
0000
0000
0000
0010
0000
0000
,
0000
0000
0010
0000
,
0000
0000
0000
1000
0000
0000
0000
0000
,
0000
0100
0000
0000
,
0000
0010
0000
0000
0000
0000
0000
0000
,
0001
0000
0000
0000
0000
0000
0000
1000
,
0000
0000
0000
0001
,
0000
0000
0010
0000
0000
0001
0000
0000
,
0000
0000
1000
0000
,
0000
0000
0000
0001
0000
0000
0000
0000
,
0000
1000
0000
0100
,
0000
1000
0000
0000
0000
0000
0000
0000
,
0001
0000
0000
0000
0000
0000
0000
0010
,
0000
0000
0000
0001
,
0000
0000
0000
0000
0000
1000
0000
0000
,
0000
0000
0100
0000
,
0000
0000
0000
1000
0000
0000
0000
1000
,
0000
1000
0000
0000
,
0000
0001
0000
0000
0000
0001
0000
0000
,
0001
0000
0000
0000
0000
0000
0000
1000
,
0000
0000
0000
0010
,
0000
0000
0000
0000
0000
0100
0000
0000
,
0000
0000
0001
0000
,
0000
0000
0000
0100
0000
0000
0000
0000
,
0000
0010
0000
0000
,
0000
0100
0000
0000
0000
0000
0000
0000
,
0010
0000
0000
0000
0000
0000
0000
1000
;

//---------------dance-single - ----------------
#NOTES:
     dance-single:
     :
     Easy:
     4:
     0.250,0.268,0.107,0.171,0.000:
0000
0000
0000
0000
,
1000
0000
1000
0000
1000
0000
0000
0010
,
0000
0010
0000
0010
0000
0000
0100
0000
,
0100
0000
0100
0000
0000
0002
0000
0000
,
0000
0003
0000
0000
0001
0000
0001
0000
,
0001
0000
0000
0100
0000
0100
0000
0100
,
0000
0010
0010
0010
,
0000
2000
0000
0000
0000
3000
0000
0000
,
0002
0000
0000
0000
0000
0000
0003
2000
,
0000
0000
0000
0000
0000
3000
0020
0000
,
0000
0000
0000
0000
0030
0200
0000
0000
,
0000
0000
0000
0300
0020
0000
0000
0000
,
0000
0000
0030
2000
0000
0000
0000
0000
,
0000
3000
0002
0000
0000
0000
0000
0000
,
0003
0200
0000
0000
0000
0000
0000
0300
,
0001
0000
0000
0000
1000
0000
0000
1001
,
0000
0000
0000
0010
,
0010
0000
0000
0100
0000
0100
0000
0000
,
0000
0011
0000
0000
1000
0000
1000
0000
,
0000
0001
0000
0001
0000
0000
0000
1100
,
0000
0001
0000
0110
,
0000
1000
0000
0000
0000
1001
0000
0000
,
0001
0000
0010
0000
0001
0000
0000
1000
,
0000
0100
0000
1000
0000
0000
0010
0000
,
0100
0000
0010
0000
0000
2000
0000
0000
,
0000
0000
0000
3000
0002
0000
0000
0000
,
0000
0000
0003
1000
0000
0000
0000
0100
,
0000
0010
0000
0001
,
0000
0001
0000
0000
0000
0010
0000
0000
,
0100
0000
1000
0000
,
0000
0000
0000
0001
0000
0000
1000
0000
,
0001
0000
0100
0000
0000
0001
0000
1000
,
0000
0010
0000
0000
1000
0000
0001
0000
,
1000
0000
0000
0020
0000
0000
0000
0000
,
0000
0030
0200
0000
0000
0000
0000
0000
,
0300
0001
0000
0000
0000
1000
0000
0000
,
0011
0000
0000
0000
0000
0000
0000
1100
,
0000
0000
0000
1001
,
0000
0000
0000
0000
,
0000
0000
0000
0110
0000
0000
0110
0000
,
0000
0000
0000
0000
0000
0000
0000
1001
,
0000
0000
1001
0000
,
0000
0000
0000
0000
,
1000
0000
0000
0000
0100
0000
0000
1000
,
0000
0000
0000
0001
,
0000
0000
0010
0000
0000
0001
0000
0000
,
0000
0000
0100
0000
,
0001
0000
0000
0100
0000
0000
0000
0000
,
0000
0010
0000
1000
,
0000
0010
0000
0000
0000
0000
0000
0000
,
1000
0000
1000
0000
1000
0000
0000
0001
,
0000
0000
0000
0100
,
0100
0000
0100
0000
0000
0010
0000
0000
,
0000
0000
0010
0010
,
0010
0000
0000
0100
0000
0000
0000
0000
,
0000
0001
0001
0001
,
0000
1000
0000
0000
0000
0000
0000
0000
,
0001
0000
0000
0000
1000
0000
0000
1001
,
0000
0000
0000
0100
0000
0000
0001
0000
,
0010
0000
0001
0000
0000
0110
0000
0000
,
0000
0001
0000
0000
1000
0000
0010
0000
,
1000
0000
0000
0002
0000
0000
0000
0010
,
0000
0013
0000
0000
,
0000
2000
0000
0000
0000
0100
0000
0000
,
3100
0000
0000
0000
0000
0000
0000
0020
,
0000
0000
0000
1000
0000
0000
1030
0000
,
0000
0000
0000
0000
0000
0200
0000
0000
,
0000
0001
0000
0000
0301
0000
0000
0000
,
0000
0000
0000
0001
0000
0001
0000
0001
,
0000
0010
0010
0010
,
0000
0100
0000
0100
0000
0100
0000
0000
,
1000
0000
1000
0000
1000
0000
0000
0001
,
0000
0000
0000
0100
0000
0000
0100
0000
,
0000
0000
0001
0000
0000
1000
0000
0000
,
0000
0010
0000
0000
0010
0000
0000
0000
,
1000
0000
0000
0010
0000
0000
0000
1000
,
0000
0001
0000
0100
,
0000
0100
0000
0000
0000
0001
0000
0000
,
1000
0000
0000
0000
0010
0000
0000
1000
,
0000
1000
0000
1000
0000
0000
0100
0000
,
0100
0000
0100
0000
0000
0010
0000
0010
,
0000
0010
0000
0000
0001
0000
0001
0000
,
0001
0000
0000
1000
0000
0000
0000
0100
,
0000
0000
0010
0001
,
0000
0001
0000
0000
0000
0010
0000
0000
,
0000
0000
0100
0000
1000
0000
0000
0002
,
0000
0000
0000
0013
0000
0000
0001
0000
,
0100
0000
0001
0000
0000
2000
0000
0000
,
0000
3100
0000
0000
1000
0000
0010
0000
,
1000
0000
0000
0020
0000
0000
0000
1030
,
0000
0100
0001
0100
,
0000
0200
0000
0000
0000
0301
0000
0000
,
0010
0000
1000
0000
0010
0000
0000
2002
,
0000
0000
0000
0000
,
3003
0000
0000
0000
;

//---------------dance-single - ----------------
#NOTES:
     dance-single:
     :
     Medium:
     6:
     0.359,0.369,0.307,0.207,0.000:
0000
0000
0000
0000
,
1000
0000
0100
0000
1000
0000
0001
0100
,
0000
0010
0000
0100
0000
0000
0001
0000
,
0010
0000
0001
0000
1000
0020
0000
0000
,
0000
1030
0001
0010
,
0001
0000
1000
0010
0000
0100
0000
0010
,
0000
1000
0100
1000
,
0001
0200
0000
0000
0000
0301
0000
0000
,
0002
0000
0000
0000
1000
0000
1000
1003
,
0000
0000
0000
0110
0000
0000
2000
0000
,
0000
0000
0001
0000
0001
3001
0000
0000
,
0000
0110
0000
0000
0020
0000
0000
0000
,
0100
0000
0100
0130
0000
0000
0000
1001
,
0000
0200
0000
0010
,
0010
0310
0000
0000
0000
0000
1001
0000
,
1001
0000
0000
0000
0110
0000
0000
1001
,
0000
0000
0000
0100
,
0101
0000
0000
0010
0000
1010
0000
1000
,
0000
1001
0000
0000
1000
0000
0110
0000
,
0001
0000
1000
0001
0000
1000
0000
1001
,
0000
0000
0100
0000
0010
0000
0000
1000
,
0000
0001
0000
0000
0000
0110
0000
0000
,
1000
0000
1000
0000
1000
0000
1000
0001
,
0000
0001
0000
0001
0000
0001
1000
0000
,
0001
0000
1000
0000
0001
0200
0000
0000
,
0000
0010
0000
0000
0310
0000
0000
0000
,
0000
0000
0000
0020
0000
0000
0000
1030
,
0000
1000
1010
0000
,
0000
0200
0000
0000
0000
0301
0000
0000
,
0001
0000
0101
0000
0000
0000
0000
1001
,
0000
0000
0000
0100
0000
0000
0010
0000
,
0010
0000
0010
0000
0010
0100
0000
0100
,
0000
0100
0000
0100
0010
0000
0100
0000
,
0010
0000
0100
0002
0000
0000
0000
0000
,
0000
0003
2000
0000
0000
0000
0001
0000
,
0000
3001
0000
0000
0000
1100
0000
0000
,
0001
0000
0011
0000
0000
0000
0000
1001
,
0000
0000
0001
0110
,
1000
0000
0000
0000
0000
0010
0000
0000
,
0000
0100
0000
0010
0000
0000
0110
0000
,
0000
0000
0000
0000
0001
0000
0000
1000
,
0000
0001
0000
0000
1001
0000
0000
0000
,
0000
1000
0000
0001
,
1001
0000
0000
0000
1000
0000
0000
0001
,
0000
0001
0000
0001
0000
0000
0110
0000
,
0000
0000
0010
0000
0000
0100
0000
0100
,
0000
0100
0000
0000
1001
0000
0000
0000
,
0001
0000
0000
1000
0000
1000
0000
1000
,
0000
0110
0000
0100
,
0000
0010
0000
0010
0000
0010
0000
0000
,
1000
0000
0100
0000
0001
0000
0000
0200
,
0000
0000
0000
1300
0000
0000
0001
0000
,
0010
0000
1000
0000
0000
0020
0000
0000
,
0000
0031
0000
0000
1000
0000
0001
0000
,
0100
0000
0000
0002
0000
0000
0000
1003
,
0000
0001
1000
0010
,
0000
2000
0000
0000
0000
3001
0000
0000
,
1010
0000
0000
0000
0101
0000
0000
1001
,
0000
0000
0000
0100
0000
0000
0001
0000
,
0010
0000
0001
0000
0000
0110
0000
0000
,
0000
1000
0000
0000
0100
0000
1000
0000
,
0100
0000
0000
1000
0000
0100
0000
1000
,
0000
0001
0010
0001
,
0000
0100
0000
0010
0000
0100
0000
0000
,
0020
0000
0000
0000
0130
0000
0000
0100
,
0000
0001
0000
0100
0000
0000
0010
0000
,
1000
0000
0010
0000
0000
1000
0000
0001
,
0000
1000
0000
0000
0002
0000
0000
0000
,
1003
0000
0000
1000
0000
1000
0000
1000
,
0000
1000
0100
0000
0100
0000
0100
0000
,
0100
0010
0000
0010
0000
0010
0000
0010
,
0001
0000
0001
0000
0001
0000
0001
0010
,
0000
0000
0000
1001
0000
0000
1000
0000
,
0100
0000
1100
0000
0000
0100
0000
0000
,
0000
1001
0000
0000
0001
0000
0010
0000
,
0011
0000
0000
1000
0000
0000
0000
0110
,
0000
0001
0100
0101
,
0000
0001
0000
0000
0000
0110
0000
0000
,
1000
0000
0010
0000
1010
0000
0000
0001
,
0000
0001
0000
0001
0000
0001
0100
0000
,
0100
0000
0100
0000
0100
0010
0000
0010
,
0000
0010
0000
0010
1000
0000
1000
0000
,
1000
0000
1000
0001
0000
0000
0000
0011
,
0000
1000
2200
3300
,
0000
0010
0000
0000
0000
1010
0000
0000
,
0100
0000
0202
0000
0303
0000
0000
2000
,
0000
0000
0000
3001
0000
0001
0200
0000
,
0000
0000
0300
0000
0000
0020
0000
0000
,
0000
1030
0000
1000
0002
0000
0000
0000
,
0003
0000
0000
1000
0000
0010
0000
1000
,
0000
0002
0100
0103
,
0000
0001
0000
0100
0000
0001
0000
0000
,
2000
0000
0010
0000
3010
0000
0000
2002
,
0000
0000
0000
0000
,
3003
0000
0000
0000
;

//---------------dance-single - ----------------
#NOTES:
     dance-single:
     :
     Hard:
     8:
     0.562,0.503,0.550,0.393,0.000:
0000
0000
0000
0000
,
1000
0000
0100
0000
0100
0000
1000
0001
,
0000
0010
0000
0010
0000
0001
0100
0000
,
0010
0000
0100
0000
0010
0220
0000
0000
,
0330
0000
0001
1000
0001
0000
0100
0000
,
0100
0000
0001
1000
0000
0010
0000
0010
,
0000
1000
0001
0000
1000
0000
0001
0000
,
1000
0001
0010
0001
0000
1000
0100
1000
,
0002
0000
0010
0000
0010
0000
0013
0020
,
0000
0100
0000
0100
0000
0130
0200
0000
,
1000
0000
1000
0000
1300
2000
0000
0001
,
0000
0001
0000
3001
0200
0000
0010
0000
,
0010
0000
0310
2000
0000
0001
0000
0001
,
0000
3001
0002
0000
1000
0000
1000
0000
,
1003
0020
0000
0100
0000
0130
0001
1000
,
0010
1000
0001
0000
1100
0000
0001
0010
,
0000
0001
0000
0011
0000
1000
0010
0000
,
1010
0000
0000
0101
0000
0101
0000
1001
,
0000
1001
0000
0000
0001
0010
0100
0000
,
1000
0100
0010
0001
0000
0110
0000
0110
,
0000
0001
0010
0100
1000
0000
1000
0000
,
0001
0200
0000
0010
0000
0010
0000
0310
,
1000
0000
1100
0000
0011
0000
0001
0100
,
0000
0101
0000
1010
0000
0010
1000
0000
,
0001
0000
1000
0100
0010
0002
0000
0000
,
0000
0100
0000
0000
2000
0000
0000
0000
,
0000
3003
0000
2020
0000
0000
3030
0000
,
0001
0100
0010
0100
0002
0000
0100
0003
,
0000
0202
0000
0303
0000
1000
0100
0010
,
0100
1000
0020
0000
0100
0000
0000
0200
,
0000
0330
0000
1000
0010
0100
0001
0000
,
0011
0000
1010
0000
1000
0010
0000
1100
,
0000
0101
0000
0100
0010
0000
0100
0000
,
0010
1000
0001
0200
0000
0000
0000
0300
,
0010
1000
0010
0000
0000
0000
1001
0000
,
0000
1010
0000
0000
0000
0101
0000
0000
,
1000
0100
0020
0000
0000
0000
0000
0002
,
0000
0030
0000
1003
0010
0100
0020
0000
,
0000
0000
0130
0000
0000
1001
0000
0000
,
0000
1000
0001
1001
0000
0000
0022
0000
,
0033
0000
2200
0000
3300
0000
0000
0010
,
0100
0110
0000
0000
1010
0000
0000
0000
,
0101
0000
0000
0220
0000
0000
0330
0000
,
1000
0000
0100
0000
1000
0100
0001
0100
,
0000
1100
0000
0101
0000
0001
0010
0000
,
0001
0000
0100
0001
0100
0010
0000
1010
,
0000
0011
0000
1000
0010
0000
0100
0000
,
0001
0010
1000
0010
0000
0011
0000
0101
,
0000
1000
0100
0000
1000
0000
0010
1000
,
0010
0100
0000
1010
0000
1100
0000
0001
,
1000
0100
0001
0000
0001
0100
1000
0001
,
0000
1000
0000
1001
0000
1000
0001
0010
,
1000
0000
1000
0010
0001
0100
0000
0010
,
0000
0110
0000
0100
0010
1000
0010
0000
,
0100
0001
0100
0010
0000
0100
0000
0110
,
0000
0001
0100
1000
0100
0000
0010
0001
,
0010
1000
0000
0001
0000
1001
0000
0100
,
0020
0000
0000
0000
0130
0000
0000
0110
,
0000
0101
0000
1010
0000
0001
0001
0000
,
1100
0000
0011
0000
1000
1000
0000
0101
,
0000
1100
0000
0010
0010
0000
1010
0000
,
0011
0000
0100
0100
0010
0100
0000
0001
,
0000
1000
1100
0000
0110
0000
0011
0000
,
0001
0001
1000
0001
0000
0100
0000
0010
,
1010
0000
1001
0000
0101
0000
1000
1000
,
0001
2000
0000
0100
0000
0010
0010
0000
,
3001
0000
1001
0000
0010
0010
0100
0020
,
0000
0001
0000
1000
1000
0000
0130
0000
,
0110
0000
1000
0001
0000
1100
0000
0001
,
0010
0100
1000
0000
0011
0000
1000
0010
,
0100
0001
0000
1010
0000
0100
0001
1000
,
0010
0000
0101
0000
0010
1000
0001
0200
,
0000
0010
0000
0010
0000
0001
0001
0000
,
0001
0000
0001
0000
0301
0002
0000
1000
,
0000
1000
0000
0100
0100
0000
0100
0000
,
0100
0000
0103
0100
0001
1000
0000
0220
,
0000
0330
0001
0000
1000
0000
0010
0000
,
1000
1000
0100
0010
0000
2002
0000
3003
,
0001
0000
0010
0000
0100
0000
1000
0001
,
0000
1100
0000
0001
0010
1000
0010
0000
,
0011
0000
1000
0100
0001
0100
0000
1100
,
0000
0001
0100
1000
0100
0000
0101
0000
,
1000
0010
0001
0020
0000
0000
0000
2000
,
0000
3030
0202
0000
0000
0000
0000
0000
,
0303
2000
0000
0000
0000
0002
0000
3003
,
0220
0000
0000
0000
0000
0000
0330
1000
,
0000
0101
0000
1000
0000
0001
0022
0000
,
0033
0000
1000
0001
0010
0001
0000
1010
,
0000
0001
0000
1000
2200
0000
3300
0000
,
0001
1000
0100
1000
0001
1000
0000
0001
,
0010
0100
0020
0000
0000
0000
0031
1000
,
0010
0100
0010
0100
0000
0010
1000
0001
,
2000
0000
0000
0000
3100
0000
0000
2002
,
0000
0000
0000
0000
,
3003
0000
0000
0000
;

//---------------dance-single - ----------------
#NOTES:
     dance-single:
     :
     Challenge:
     9:
     0.702,0.604,0.535,0.535,0.000: // measure 1
0000
0000
0000
0000
,  // measure 2
1001
0000
0011
0000
0001
0100
1000
0100
,  // measure 3
0000
0101
0000
1000
0100
0001
0100
0000
,  // measure 4
1000
0001
0100
0000
0010
0200
0000
0001
,  // measure 5
0000
0301
0010
0001
0010
0000
1100
0000
,  // measure 6
1000
0010
0001
0010
0000
1010
0000
0001
,  // measure 7
0010
1000
0010
0000
0001
1000
0010
0000
,  // measure 8
1000
0001
0100
0001
1000
0010
1000
0001
,  // measure 9
2000
0000
3001
0010
0100
0010
0001
0200
,  // measure 10
0000
0301
1000
0100
0010
0001
0020
0000
,  // measure 11
0031
1000
0100
1000
0001
2000
0000
0010
,  // measure 12
0000
0001
3001
0010
0002
0000
1003
0010
,  // measure 13
0100
0010
1000
0020
0000
1030
0001
0100
,  // measure 14
0010
1000
0200
0000
1300
0001
0010
0001
,  // measure 15
1000
0002
0000
0100
0000
1003
1000
0001
,  // measure 16
0100
0010
0100
0000
0001
0010
0100
2000
,  // measure 17
0000
3010
0000
0101
0000
1000
0001
0010
,  // measure 18
0002
0000
0000
1003
0100
2000
0000
3001
,  // measure 19
0100
0001
1000
0010
1000
0100
0010
0001
,  // measure 20
0100
0010
1000
0001
0010
0001
1000
0100
,  // measure 21
1000
0001
0100
0001
0020
0000
0031
1000
,  // measure 22
0001
1001
0000
1000
0010
0100
0001
0010
,  // measure 23
0011
0000
1100
0000
1001
0000
1000
1010
,  // measure 24
0000
0101
0000
1001
0000
0001
1001
0000
,  // measure 25
0110
0000
1000
0001
1000
0002
0000
0010
,  // measure 26
0000
2000
0000
3000
0200
0000
0000
0000
,  // measure 27
0300
1003
0100
2000
0000
0001
0000
0010
,  // measure 28
3010
1000
0001
2000
0020
0000
0030
3001
,  // measure 29
0010
0002
0000
0100
0000
1003
0100
0010
,  // measure 30
0001
0100
0002
0000
0020
0000
0030
1000
,  // measure 31
1003
0100
0010
0100
0010
0001
0101
0000
,  // measure 32
0011
0000
0110
0000
0100
1100
0000
1010
,  // measure 33
0000
0110
0000
0010
0110
0000
1001
0000
,  // measure 34
0100
0010
0100
0020
0000
0100
0000
1030
,  // measure 35
1000
0100
0010
0000
0001
1000
0100
1000
,  // measure 36
0001
0200
0000
0010
0000
0301
0000
0001
,  // measure 37
1000
0010
0100
0000
0001
0010
1000
0010
,  // measure 38
0000
0011
0000
1000
0100
0001
0100
0000
,  // measure 39
1000
0001
0100
0001
1000
0010
0000
1100
,  // measure 40
0000
0001
0011
0102
0000
0000
0203
0000
,  // measure 41
0301
0000
0001
0100
0010
1000
0000
1000
,  // measure 42
1100
2010
0000
0000
3020
0000
1030
0000
,  // measure 43
1000
0010
0100
0001
0010
0100
1000
0001
,  // measure 44
2000
0000
0010
0000
3001
0010
0001
0100
,  // measure 45
0000
0110
0000
0010
0100
0001
0200
0000
,  // measure 46
0010
0000
0301
0010
0100
1000
0000
1001
,  // measure 47
0000
1000
0001
1000
0002
0000
0100
0000
,  // measure 48
1003
0100
1000
0010
0000
0110
0000
0100
,  // measure 49
0010
1000
0020
0000
0100
0000
1030
0100
,  // measure 50
0010
0001
0000
1001
0000
0001
1000
0001
,  // measure 51
1000
0100
0010
0001
0100
0010
1000
0002
,  // measure 52
0000
0010
0000
0103
0001
1000
0010
1000
,  // measure 53
0001
0100
0010
1000
0100
2000
0000
0100
,  // measure 54
0000
3010
1000
0010
1020
0000
0130
0001
,  // measure 55
1000
0001
0100
0010
0000
2100
0000
3001
,  // measure 56
0100
0001
0201
0000
0310
1000
0001
1000
,  // measure 57
0010
0100
0000
0012
0000
1003
0100
0010
,  // measure 58
2002
0000
0000
3003
0220
0000
0330
1000
,  // measure 59
0100
1100
0000
0001
0010
0100
0010
0001
,  // measure 60
0011
0000
1000
0001
0100
0001
1000
1001
,  // measure 61
0000
0001
0010
0100
1000
0010
0100
0001
,  // measure 62
1000
0001
0100
0010
1000
1010
0000
0001
,  // measure 63
0010
0100
1002
0000
0100
0000
1003
0100
,  // measure 64
0010
0001
0100
0101
0000
1000
0100
0010
,  // measure 65
2001
0000
0010
0000
3001
0100
0010
1000
,  // measure 66
0001
1001
0000
0110
0000
1000
0100
0000
,  // measure 67
0012
0000
1003
0010
1000
0010
0100
0110
,  // measure 68
0000
1001
0000
0001
0010
0000
2100
0000
,  // measure 69
3001
0010
0001
2000
0000
3100
0001
0100
,  // measure 70
1000
0010
0002
0000
0013
1000
0010
0100
,  // measure 71
0001
0200
0000
0310
0100
0010
1000
0001
,  // measure 72
0020
0000
0130
1000
0010
1000
0001
1000
,  // measure 73
0001
1000
0000
1100
0000
0001
1000
0000
,  // measure 74
0011
0000
0100
0001
1000
0010
0100
0010
,  // measure 75
0000
1010
0000
0010
0100
0000
0101
0000
,  // measure 76
0100
0010
1000
0100
0010
0001
0000
1020
,  // measure 77
0000
0130
0202
0000
0000
0300
0000
0013
,  // measure 78
0100
1000
0001
1000
0000
0201
0000
0310
,  // measure 79
2020
0000
0030
0000
0000
3010
1000
0002
,  // measure 80
0000
0013
1000
0010
0001
0100
2000
0000
,  // measure 81
3100
0001
1000
0001
1000
0200
0000
0310
,  // measure 82
0001
1000
0001
0100
0020
0000
0130
0001
,  // measure 83
1000
0001
1000
1001
0000
1100
0000
0011
,  // measure 84
0000
1001
2002
0000
0000
0000
0000
3003
,  // measure 85
0000
0110
0000
0101
0000
1010
0000
0110
,  // measure 86
0220
0000
0000
0000
0330
1000
0100
2000
,  // measure 87
0000
0010
0000
3001
0100
0010
0200
0000
,  // measure 88
0010
0000
0301
0001
0010
0002
0000
0100
,  // measure 89
0000
1003
0010
0100
0020
0000
0100
0000
,  // measure 90
1030
1000
0010
0020
0000
0100
0000
0230
,  // measure 91
0000
0001
0301
0000
1010
0000
0101
0010
,  // measure 92
0100
2000
0000
0001
0000
3002
0000
0100
,  // measure 93
0103
0000
0011
0000
2100
0000
3001
2002
,  // measure 94
0000
0000
0000
0000
,  // measure 95
3003
0000
0000
0000
;
