#TITLE:Pokestar;
#SUBTITLE:;
#ARTIST:TITUS JONES;
#TITLETRANSLIT:;
#SUBTITLETRANSLIT:;
#ARTISTTRANSLIT:;
#CREDIT:Tyma vs Pie featuring Liam Curry and also TaroNuke sorta kinda yeah no;
#BANNER:[ONLY ONE SUMMER] - Pokestar.png;
#BACKGROUND:[ONLY ONE SUMMER] - Pokestar-BG.png;
#LYRICSPATH:;
#CDTITLE:cultureSHOCK.png;
#MUSIC:[ONLY ONE SUMMER] - Pokestar.ogg;
#OFFSET:-0.032;
#SAMPLESTART:82.328;
#SAMPLELENGTH:12.000;
#SELECTABLE:YES;
#BPMS:0.000=145;
#STOPS:;
#BGCHANGES:0.000=[ONLY ONE SUMMER] - Pokestar.avi=1.000=0=0=1,
273.000=[ONLY ONE SUMMER] - Pokestar-BG.png=1.000=0=0=1,
99999=-nosongbg-=1.000=0=0=0 // don't automatically add -songbackground
;

//---------------dance-single - Tyma vs. Pie----------------
#NOTES:
     dance-single:
     Tyma vs. Pie:
     Easy:
     3:
     0.000,0.000,0.000,0.000,0.000:
0000
0000
0000
0000
,
0000
0000
0000
0000
,
0000
0000
0000
0000
,
0000
0000
0000
0000
,
0000
0000
0000
0000
,
0000
0000
0000
1000
,
0000
0000
0000
0001
,
0000
0000
0000
0100
,
0000
0000
0000
0010
,
0000
0000
0000
1001
,
0000
0000
0000
0110
,
0000
0000
0000
1000
,
0001
1000
0002
0003
,
1000
0100
1000
0000
,
0001
0100
0001
0000
,
1100
0000
0101
0000
,
1001
0000
0000
0000
,
0002
0000
0103
0000
,
0010
0100
0010
0000
,
1100
0000
0101
0000
,
1001
0000
0000
0000
,
0001
0000
0100
0000
,
1000
0000
0000
0000
,
0001
0000
0100
0000
,
1000
0000
0000
0000
,
1000
1000
0000
0000
,
0001
0001
0000
0000
,
1001
0000
0000
0000
,
0000
0000
0001
1000
,
0000
0001
0100
1000
,
0000
0001
0100
1000
,
0000
0001
0100
1000
,
0000
0001
0100
1000
,
0000
0001
0100
1000
,
0100
0010
1000
0100
,
0010
0001
2000
0000
,
3001
0100
0010
1000
,
0100
1000
0001
0000
,
1000
0010
1000
0001
,
1000
0100
0010
0000
,
0001
0010
0001
0100
,
0100
0100
0100
0100
,
0001
0101
0000
0000
,
1000
1100
0000
0000
,
0001
0011
0000
0000
,
2000
0000
3100
0000
,
0010
0110
0000
0000
,
0001
0011
0000
0000
,
1000
1100
0000
0000
,
0002
0000
0013
0000
,
0001
0000
0100
0000
,
1000
0000
0000
0000
,
0001
0000
0100
0000
,
1000
0000
0000
0000
,
1000
1000
0000
0000
,
0001
0001
0000
0000
,
0110
0000
0000
0000
,
1001
0000
0000
0000
,
0001
0000
0100
0000
,
1000
0000
0000
0000
,
0001
0000
0100
0000
,
1000
0000
0000
0000
,
0100
0100
0000
0000
,
0010
0010
0000
0000
,
0100
0100
0000
0000
,
1000
1000
0000
0000
,
1001
0000
0001
0001
,
0000
0000
0100
0100
0100
0000
0000
0000
,
0000
0000
0000
0000
;

//---------------dance-single - Tyma vs. Pie----------------
#NOTES:
     dance-single:
     Tyma vs. Pie:
     Medium:
     6:
     0.000,0.000,0.000,0.000,0.000:
0000
0000
0000
0000
,
0000
0000
0000
0000
,
0000
0000
0000
0000
,
0000
0000
0000
0000
,
0000
0000
0000
0000
,
1000
0100
1000
0000
0001
0000
2000
3000
,
0001
0010
0001
0000
0100
0000
0020
0030
,
1000
0001
1000
0000
0001
0000
2000
3000
,
0100
0010
0100
0000
1000
0000
0002
0003
,
0010
0100
0010
0000
0001
0000
1000
0000
,
0100
0010
0100
0000
1000
0000
0001
0000
,
0010
0000
0000
0100
0000
0000
1000
0000
,
0001
0000
1100
0101
,
1000
0100
0010
0001
,
0100
0001
1000
0100
,
2000
3010
0200
0301
,
1000
0100
1000
0000
0001
0000
0100
0000
,
0010
0100
0010
0000
0100
0000
0001
0000
,
1000
0100
1000
0000
0001
0000
0100
0000
,
0010
0000
0000
0110
0000
0000
0001
0000
,
1000
0000
1001
1001
,
0020
0130
1000
0001
,
0010
0000
0001
0100
0001
0000
1000
0000
,
0001
0010
0100
1000
,
0001
0000
1000
0001
1000
0000
0100
0000
,
0010
0010
0000
0000
,
0100
0100
0000
0000
,
1000
1000
0000
0000
,
0001
0000
0001
0000
0100
0010
1000
0000
,
0010
0000
0100
0000
0010
1000
0100
0000
,
0000
0000
0010
0000
0001
0100
0001
0000
,
0000
0000
0001
0000
0100
0010
0100
0000
,
0000
0000
0100
0000
0001
0010
0001
0000
,
0000
0000
0001
0000
1000
0100
1000
0000
,
0010
1000
0001
1000
,
0100
1000
0010
1001
,
0010
0001
0100
0001
,
1000
0100
1000
0000
0001
0000
0000
0000
,
0100
0010
1000
0001
,
0010
0000
0100
0000
1000
0001
1000
0000
,
0010
0000
0000
0100
0000
0000
0001
0000
,
1000
0001
0101
0101
,
1000
0001
0010
0100
,
1000
1100
0000
1000
,
1001
0001
0010
0100
,
2000
0000
3001
0000
,
0200
0000
0310
0000
0000
1000
0100
0000
,
1000
0001
1000
0000
0000
0100
0010
0000
,
0001
0010
0001
0000
0000
0000
1000
0000
,
0002
0000
0000
0000
0103
0000
0010
1000
,
0010
0000
0100
0000
0001
0000
0010
0100
,
0010
0001
1000
0010
,
1000
0000
0001
0000
1001
0000
1000
0100
,
1000
0001
1000
0010
,
1000
1000
0001
0001
,
0100
0100
0010
0010
,
1001
0100
0001
1000
,
1001
0000
1001
0000
0010
1000
0100
0000
,
1000
0000
0001
0000
0100
0001
0100
0000
,
0010
1000
0001
0100
,
0010
0000
0010
0000
1000
0001
1000
0000
,
0010
0100
0001
0001
,
2000
3100
0020
0031
,
0200
0310
2000
3100
,
1000
1000
0001
0001
,
2000
0000
3100
0000
0010
0100
0010
0000
,
0001
0000
1000
0000
0001
0100
0000
0100
,
0000
0001
2002
0000
,
3003
0000
0000
0000
;

//---------------dance-single - Tyma vs. Pie----------------
#NOTES:
     dance-single:
     Tyma vs. Pie:
     Hard:
     8:
     0.544,0.537,0.722,0.176,0.000: // measure 1
0000
0000
0000
0000
,  // measure 2
0000
0000
0000
0000
,  // measure 3
0000
0000
0000
0000
,  // measure 4
0000
0000
0000
0000
,  // measure 5
0000
0000
0000
0000
,  // measure 6
1000
0100
0010
1002
,  // measure 7
0013
0100
0001
0102
,  // measure 8
0103
0010
1000
2010
,  // measure 9
3010
0100
0001
1002
,  // measure 10
0013
0001
0100
0000
0010
0000
0101
0000
,  // measure 11
1000
0100
0010
0000
0001
0000
0101
0000
,  // measure 12
1010
0000
0110
0000
2000
0000
3001
0010
,  // measure 13
0100
1000
0010
0100
0001
0001
1000
1000
,  // measure 14
0010
0000
0100
0000
0001
0100
0001
0000
,  // measure 15
2000
0000
3010
0000
0100
0001
0100
0000
,  // measure 16
1100
0011
0101
1010
,  // measure 17
1000
0100
0010
0001
0010
0100
2000
0000
,  // measure 18
0001
0001
3001
0010
0200
0000
0001
0000
,  // measure 19
1000
1000
1300
0000
0101
0000
0110
0000
,  // measure 20
1001
0001
0101
1000
,  // measure 21
1100
0000
2001
0000
0001
0001
3001
0000
,  // measure 22
0010
0000
0001
0000
1000
0100
0001
0000
,  // measure 23
0100
0000
1000
0010
0000
0010
1000
0000
,  // measure 24
0100
0000
1001
0000
0001
0010
1000
0000
,  // measure 25
0010
0000
0001
0100
0000
0100
0001
0000
,  // measure 26
0101
1010
1100
1001
,  // measure 27
1100
0110
1010
0101
,  // measure 28
1001
0110
0011
0101
,  // measure 29
1001
0000
0101
0000
1000
0010
0100
0001
,  // measure 30
1000
0000
0200
0000
0310
0001
0100
0010
,  // measure 31
1000
0000
0002
0000
0013
0100
1000
0010
,  // measure 32
1000
0000
0020
0000
1030
0100
1000
0010
,  // measure 33
0100
0000
0020
0000
0130
0010
0100
0001
,  // measure 34
0100
0000
0002
0000
1003
0100
1000
0001
,  // measure 35
1000
0100
0001
0100
1000
0010
0100
0001
,  // measure 36
0010
0100
1000
0001
2000
0100
3100
0000
,  // measure 37
0100
1000
0010
0001
0010
1000
0100
0010
,  // measure 38
0001
0100
0001
1000
0200
1000
1300
1000
,  // measure 39
0001
0100
1000
0100
0001
0010
1000
0010
,  // measure 40
0001
0100
0010
1000
0001
0000
1001
1000
,  // measure 41
0001
0010
0001
0100
0001
0100
0010
0010
,  // measure 42
0010
1000
0001
1000
0001
0000
1001
0000
,  // measure 43
1100
0201
0301
0100
,  // measure 44
1010
1100
1000
0100
,  // measure 45
0011
0000
0101
0000
0001
0000
0100
0001
,  // measure 46
0200
0010
0301
0101
,  // measure 47
1001
1001
0010
0001
,  // measure 48
0011
1010
1000
0100
,  // measure 49
1010
0000
1001
0000
0001
0000
0010
0001
,  // measure 50
0200
0001
0310
1001
,  // measure 51
1100
0000
1000
0000
0001
0100
1000
0100
,  // measure 52
0001
0000
1000
0010
0000
0010
1000
0000
,  // measure 53
0001
0000
0101
0000
0001
0010
1000
0010
,  // measure 54
0001
0000
1000
0100
0000
0100
1000
0000
,  // measure 55
1100
0110
1001
0101
,  // measure 56
1001
0110
0110
1010
,  // measure 57
0101
1100
0011
0101
,  // measure 58
1001
0110
1001
0101
,  // measure 59
1000
0000
0001
0000
1000
0100
0001
0100
,  // measure 60
1000
0000
0010
0100
0000
0100
0010
0000
,  // measure 61
1000
0000
0100
0000
1000
0010
0001
0010
,  // measure 62
1000
0000
0001
0100
0000
0100
0001
0000
,  // measure 63
1001
0110
0101
1010
,  // measure 64
0101
1010
0110
1010
,  // measure 65
0011
0101
1010
1100
,  // measure 66
1010
0000
1001
0000
0001
0100
0010
1000
,  // measure 67
0100
0000
1000
0000
0100
0010
0001
1000
,  // measure 68
2000
0000
3001
0010
0100
0000
1001
0000
;
