#TITLE:Penolong Sejati;
#SUBTITLE:;
#ARTIST:SNADA;
#TITLETRANSLIT:;
#SUBTITLETRANSLIT:;
#ARTISTTRANSLIT:;
#CREDIT:348;
#BANNER:Penolong Sejati Banner.png;
#BACKGROUND:Penolong Sejati Background.png;
#LYRICSPATH:Penolong Sejati.lrc;
#CDTITLE:;
#MUSIC:Penolong Sejati Cut 1.mp3;
#OFFSET:-0.476;
#SAMPLESTART:14.023;
#SAMPLELENGTH:15.000;
#SELECTABLE:YES;
#BPMS:0.000=155.000;
#STOPS:;
#BGCHANGES:;

//---------------dance-single - ----------------
#NOTES:
     dance-single:
     :
     Beginner:
     1:
     0.089,0.127,0.000,0.000,0.000: // measure 1
0000
0000
0000
0000
,  // measure 2
0000
0000
0000
0000
,  // measure 3
0000
0000
0000
0000
,  // measure 4
0000
0000
0000
0000
,  // measure 5
1000
0000
0000
0000
,  // measure 6
0001
0000
0000
0000
,  // measure 7
0100
0000
0000
0000
,  // measure 8
0010
0000
0000
0000
,  // measure 9
0000
0000
0000
0000
,  // measure 10
1000
0000
0000
0000
,  // measure 11
1000
0000
0000
0000
,  // measure 12
0001
0000
0000
0000
,  // measure 13
0001
0000
0000
0000
,  // measure 14
0100
0000
0000
0000
,  // measure 15
0100
0000
0000
0000
,  // measure 16
0010
0000
0000
0000
,  // measure 17
0010
0000
0000
0000
,  // measure 18
0100
0000
0000
0000
,  // measure 19
0100
0000
0000
0000
,  // measure 20
0001
0000
0000
0000
,  // measure 21
0001
0000
0000
0000
,  // measure 22
1000
0000
0000
0000
,  // measure 23
1000
0000
0000
0000
,  // measure 24
0010
0000
0000
0000
,  // measure 25
0010
0000
0000
0000
,  // measure 26
1000
0000
0000
0000
,  // measure 27
1000
0000
0000
0000
,  // measure 28
0001
0000
0100
0000
,  // measure 29
0001
0000
0000
0000
,  // measure 30
0001
0000
0000
0000
,  // measure 31
0001
0000
0000
0000
,  // measure 32
1000
0000
0100
0000
,  // measure 33
1000
0000
0000
0000
,  // measure 34
0010
0000
0000
0000
,  // measure 35
0010
0000
0000
0000
,  // measure 36
0100
0000
0001
0000
,  // measure 37
0100
0000
0000
0000
,  // measure 38
0100
0000
0000
0000
,  // measure 39
0100
0000
0000
0000
,  // measure 40
0010
0000
1000
0000
,  // measure 41
0010
0000
0000
0000
,  // measure 42
1000
0000
0000
0000
,  // measure 43
0000
0000
0000
0000
,  // measure 44
0001
0000
0000
0000
,  // measure 45
0000
0000
0000
0000
,  // measure 46
1000
0000
0000
0000
,  // measure 47
0001
0000
0000
0000
,  // measure 48
1000
0000
0001
0000
,  // measure 49
1000
0000
0000
0000
,  // measure 50
0010
0000
0000
0000
,  // measure 51
0000
0000
0000
0000
,  // measure 52
0100
0000
0000
0000
,  // measure 53
0000
0000
0000
0000
,  // measure 54
0010
0000
0000
0000
,  // measure 55
0100
0000
0000
0000
,  // measure 56
0010
0000
0100
0000
,  // measure 57
0010
0000
0000
0000
,  // measure 58
1000
0000
0000
0000
,  // measure 59
0100
0000
0000
0000
,  // measure 60
0010
0000
0000
0000
,  // measure 61
0001
0000
0000
0000
,  // measure 62
1000
0000
0000
0000
,  // measure 63
0010
0000
0000
0000
,  // measure 64
0100
0000
0000
0000
,  // measure 65
0001
0000
0000
0000
,  // measure 66
0100
0000
0000
0000
,  // measure 67
0010
0000
0000
0000
,  // measure 68
1000
0000
0001
0000
;

//---------------dance-single - ----------------
#NOTES:
     dance-single:
     :
     Easy:
     3:
     0.228,0.254,0.085,0.113,0.000: // measure 1
0000
0000
0000
0000
,  // measure 2
0000
0000
0000
0000
,  // measure 3
0000
0000
0000
0000
,  // measure 4
0000
0000
0000
0000
,  // measure 5
1000
0000
0001
0000
,  // measure 6
1000
0010
1000
0000
,  // measure 7
0001
0000
1000
0000
,  // measure 8
0020
0000
0000
0030
,  // measure 9
0200
0000
0000
0300
,  // measure 10
0001
0000
0010
0000
,  // measure 11
0001
0000
1000
1000
,  // measure 12
1000
0000
0100
0000
,  // measure 13
1000
0000
0001
0001
,  // measure 14
0001
0000
1000
0000
,  // measure 15
0001
0000
0100
0100
,  // measure 16
0100
0000
0010
0000
,  // measure 17
0100
0000
0001
0001
,  // measure 18
1000
0000
0100
0000
,  // measure 19
0010
0000
0001
0000
,  // measure 20
1000
0000
0010
0000
,  // measure 21
0100
0000
0001
0000
,  // measure 22
1000
0000
0001
0000
,  // measure 23
0100
0000
0010
0000
,  // measure 24
1000
0000
0001
0000
,  // measure 25
1001
0000
0110
0000
,  // measure 26
1000
0000
0001
0010
,  // measure 27
0001
0000
1000
0000
,  // measure 28
0001
0000
1000
0100
,  // measure 29
1000
0000
0001
0000
,  // measure 30
0100
0000
0010
1000
,  // measure 31
0010
0000
0100
0000
,  // measure 32
0010
0000
0100
0001
,  // measure 33
0100
0000
0010
0000
,  // measure 34
2000
0000
3010
0000
,  // measure 35
0020
0000
0130
0000
,  // measure 36
0200
0000
0301
0000
,  // measure 37
0002
0000
1003
0000
,  // measure 38
2000
0000
3010
0000
,  // measure 39
0002
0000
0103
0000
,  // measure 40
0100
0000
0010
0000
,  // measure 41
0110
0000
1001
0000
,  // measure 42
1000
0000
1000
0100
,  // measure 43
0001
0000
0001
0100
,  // measure 44
1000
0000
1000
0001
,  // measure 45
1000
0000
1000
0000
,  // measure 46
0001
0000
0001
0010
,  // measure 47
1000
0000
1000
0010
,  // measure 48
0001
0000
0001
1000
,  // measure 49
0001
0000
0001
0000
,  // measure 50
2000
0000
3010
0000
,  // measure 51
1000
0010
1000
0000
,  // measure 52
0001
0100
0001
0000
,  // measure 53
0002
0000
0103
0000
,  // measure 54
0020
0000
0031
0000
,  // measure 55
0010
0001
0010
0000
,  // measure 56
0100
1000
0100
0000
,  // measure 57
0200
0000
1300
0000
,  // measure 58
0011
0000
1000
0000
,  // measure 59
1100
0000
0001
0000
,  // measure 60
1000
0100
0010
0001
,  // measure 61
1000
0000
0001
0000
,  // measure 62
1010
0000
0010
0000
,  // measure 63
0101
0000
0100
0000
,  // measure 64
0001
0100
0010
1000
,  // measure 65
0010
0000
0010
0000
,  // measure 66
0100
0000
0100
0000
,  // measure 67
0001
0000
0001
0000
,  // measure 68
1000
0000
1001
0000
;

//---------------dance-single - ----------------
#NOTES:
     dance-single:
     :
     Medium:
     5:
     0.326,0.381,0.244,0.160,0.000: // measure 1
0000
0000
0000
0000
,  // measure 2
0000
0000
0000
0000
,  // measure 3
0000
0000
0000
0000
,  // measure 4
0000
0000
0000
0000
,  // measure 5
1000
0100
0010
0001
,  // measure 6
0100
0010
2000
0000
,  // measure 7
3001
0100
0010
1000
,  // measure 8
0001
0000
1000
0000
,  // measure 9
1001
0000
1001
0000
,  // measure 10
1000
0100
1000
0010
,  // measure 11
1000
0000
0000
1000
0001
0000
0010
0000
,  // measure 12
0001
0100
0001
0010
,  // measure 13
0001
0000
0000
0100
0010
0000
0100
0000
,  // measure 14
0010
1000
0001
1000
,  // measure 15
0010
0000
0000
0010
1000
0000
0001
0000
,  // measure 16
0100
0001
1000
0001
,  // measure 17
0100
0000
0000
0001
1000
0000
0010
0000
,  // measure 18
1000
0000
0100
0001
,  // measure 19
0020
0000
1030
0000
,  // measure 20
0001
0000
0010
1000
,  // measure 21
0200
0000
0301
0000
,  // measure 22
0100
0000
0001
0010
,  // measure 23
0002
0000
1003
0000
,  // measure 24
0010
0000
1000
0100
,  // measure 25
2000
0000
3001
0000
,  // measure 26
1001
0000
0001
0010
,  // measure 27
0011
0000
1000
0100
,  // measure 28
1100
0000
0010
0100
,  // measure 29
0110
0000
1001
0000
,  // measure 30
0110
0000
1000
0010
,  // measure 31
1010
0000
0001
0100
,  // measure 32
0101
0000
1000
0001
,  // measure 33
1001
0000
0110
0000
,  // measure 34
2000
0000
3100
0100
,  // measure 35
0200
0000
0310
0010
,  // measure 36
0020
0000
0031
0001
,  // measure 37
0002
0000
1003
0000
,  // measure 38
0002
0000
0013
0010
,  // measure 39
0020
0000
0130
0100
,  // measure 40
0200
0000
1300
1000
,  // measure 41
2000
0000
3001
1000
,  // measure 42
0001
0001
1000
1000
,  // measure 43
0001
0000
0000
1000
0010
0000
0100
0000
,  // measure 44
0010
0010
0100
0100
,  // measure 45
0010
0000
0000
0100
0001
0000
1000
0000
,  // measure 46
0010
0010
1000
1000
,  // measure 47
0001
0000
0000
0010
0001
0000
1000
0000
,  // measure 48
0001
0001
0100
0100
,  // measure 49
0010
0000
0000
1000
0100
0000
1000
0000
,  // measure 50
0011
0000
0000
0001
0010
0000
0001
0000
,  // measure 51
1100
0000
0000
0010
1000
0000
0001
0000
,  // measure 52
1010
0000
0000
0100
0001
0000
1000
0000
,  // measure 53
0101
0000
0000
1000
2000
0000
0001
0000
,  // measure 54
3001
0000
0000
0001
0002
0000
0100
0000
,  // measure 55
0103
0000
0000
0100
0200
0000
0010
0000
,  // measure 56
0310
0000
0000
0010
0020
0000
1000
0000
,  // measure 57
1030
0000
1001
0000
,  // measure 58
0001
0000
0100
0000
,  // measure 59
0010
0000
1000
0000
,  // measure 60
0001
0100
0010
1000
,  // measure 61
0001
0000
1001
0000
,  // measure 62
1000
0000
0010
0000
,  // measure 63
0100
0000
0001
0000
,  // measure 64
1000
0010
0100
0001
,  // measure 65
1100
0000
0011
0000
,  // measure 66
1010
0000
0101
0000
,  // measure 67
1001
0000
0110
0000
,  // measure 68
1001
0000
1001
0000
;

//---------------dance-single - ----------------
#NOTES:
     dance-single:
     :
     Hard:
     7:
     0.463,0.478,0.338,0.338,0.000: // measure 1
0000
0000
0000
0000
,  // measure 2
0000
0000
0000
0000
,  // measure 3
0000
0000
0000
0000
,  // measure 4
0000
0000
0000
0000
,  // measure 5
1000
0000
0001
0010
0001
0000
1000
0000
,  // measure 6
0010
0000
1000
0100
1000
0000
0010
0000
,  // measure 7
1000
0000
0001
0010
0001
0000
1000
0000
,  // measure 8
0020
0000
0000
0100
0000
0100
0000
0100
,  // measure 9
0200
0330
2002
3003
,  // measure 10
1000
0000
1000
0100
0010
0000
0001
0000
,  // measure 11
0002
0000
0000
1003
0001
0000
0100
0010
,  // measure 12
0100
0000
0100
0010
1000
0000
0001
0000
,  // measure 13
2000
0000
0000
3001
1000
0000
0010
0100
,  // measure 14
0010
0000
1000
0001
1000
0000
0101
0000
,  // measure 15
1010
0000
0000
0001
2000
0000
3002
0000
,  // measure 16
0103
0000
0001
1000
0001
0000
1100
0000
,  // measure 17
0011
0000
0000
1000
0002
0000
2003
0000
,  // measure 18
3001
0000
0001
0010
0100
0000
1000
0000
,  // measure 19
1001
0000
1000
0001
,  // measure 20
1000
0000
0010
0100
0010
0000
1000
0000
,  // measure 21
0110
0000
1000
0001
,  // measure 22
0100
0000
0001
1000
0001
0000
0100
0000
,  // measure 23
0110
0000
2000
3001
,  // measure 24
0001
0000
1000
0010
0100
0000
0001
0000
,  // measure 25
0110
0000
0002
1003
,  // measure 26
2000
0100
0100
3100
,  // measure 27
1000
0000
0001
0010
0001
0000
0011
0000
,  // measure 28
0002
0010
0010
0013
,  // measure 29
0001
0000
1000
0100
1000
0000
1100
0000
,  // measure 30
0020
1000
1000
1030
,  // measure 31
0010
0000
0100
0001
0100
0000
0101
0000
,  // measure 32
0200
0001
0001
0301
,  // measure 33
0100
0000
0010
1000
0010
0000
1010
0000
,  // measure 34
0002
0000
0000
1003
0100
0000
0100
0000
,  // measure 35
2000
0000
0000
3001
0010
0000
0010
0000
,  // measure 36
0200
0000
0000
1300
0001
0000
0001
0000
,  // measure 37
0020
0000
0000
0031
1000
0000
1000
0000
,  // measure 38
0002
0000
0000
1003
0001
0000
1100
0000
,  // measure 39
2000
0000
0000
3001
1000
0000
0011
0000
,  // measure 40
0200
0000
0000
0310
1000
0000
0101
0000
,  // measure 41
0020
0000
0000
0130
0001
0000
1010
0000
,  // measure 42
0001
0000
1000
0100
0001
0000
0100
0000
,  // measure 43
1000
0000
0000
0001
1000
0010
0100
0000
,  // measure 44
0010
0000
0100
0001
0100
0000
0010
0000
,  // measure 45
0100
0000
0000
0001
0010
0100
1000
0000
,  // measure 46
1000
0000
0001
0010
1000
0000
0010
0000
,  // measure 47
0001
0000
0000
1000
0001
0100
0010
0000
,  // measure 48
0100
0000
0010
1000
0010
0000
0100
0000
,  // measure 49
0010
0000
0000
1000
0010
0100
0001
0000
,  // measure 50
2000
0000
0000
0001
3001
0000
0010
0000
,  // measure 51
0002
0000
0000
0100
0103
0000
0010
0000
,  // measure 52
0200
0000
0000
0010
0310
0000
1000
0000
,  // measure 53
0020
0000
0000
1000
1030
0000
0001
0000
,  // measure 54
2000
0000
0000
0001
3001
0000
0100
0000
,  // measure 55
0002
0000
0000
1000
1003
0000
0010
0000
,  // measure 56
0200
0000
0000
0010
0310
0000
1000
0000
,  // measure 57
0020
0000
0000
0100
0130
0000
0001
0000
,  // measure 58
0110
0000
0000
0001
1000
0000
0001
0000
,  // measure 59
1001
0000
0000
0100
0010
0000
0100
0000
,  // measure 60
0110
0000
1000
0001
1000
0000
0101
0000
,  // measure 61
1100
0000
0001
1000
0001
0000
0110
0000
,  // measure 62
1001
0000
0000
0010
0100
0000
0010
0000
,  // measure 63
0110
0000
0000
1000
0001
0000
1000
0000
,  // measure 64
1001
0000
0100
0010
0100
0000
1001
0000
,  // measure 65
1000
0000
0000
0101
0000
0000
1010
0000
,  // measure 66
0001
0000
0000
1100
0000
0000
0011
0000
,  // measure 67
1001
0000
0000
0110
0000
0000
1001
0000
,  // measure 68
0220
0330
2002
3003
;

//---------------dance-single - ----------------
#NOTES:
     dance-single:
     :
     Challenge:
     9:
     0.748,0.669,0.508,0.451,0.315: // measure 1
0000
0000
0000
0000
,  // measure 2
0000
0000
0000
0000
,  // measure 3
0000
0000
0000
0000
,  // measure 4
0000
0000
0000
0000
,  // measure 5
1001
0000
0000
1000
0000
0000
0001
0000
1000
0000
0001
0010
0001
0000
1000
0000
,  // measure 6
1001
0000
0000
0001
0000
0000
1000
0000
0001
0000
0000
0000
0110
0000
0000
0000
,  // measure 7
0110
0000
0000
1000
0010
0000
0100
0000
0001
0000
0000
0000
0110
0000
0000
0000
,  // measure 8
1001
0000
0000
1100
0000
0101
0000
0110
,  // measure 9
0220
0330
2002
3003
,  // measure 10
0001
0000
0000
1000
0100
0000
0100
0000
0100
0000
0000
0000
1100
0000
0000
0000
,  // measure 11
1000
0000
0000
0001
0010
0000
0010
0000
0010
0000
0000
0000
0011
0000
0000
0000
,  // measure 12
0100
0000
0000
0010
1000
0000
1000
0000
1000
0000
0000
0000
0101
0000
0000
0000
,  // measure 13
0010
0000
0000
1000
0001
0000
0001
0000
0001
0000
0000
0000
1010
0000
0000
0000
,  // measure 14
1001
0000
0000
1000
0100
0000
0010
0000
0100
0000
1000
0000
1010
0000
0000
0000
,  // measure 15
1001
0000
0000
0001
0010
0000
0100
0000
0010
0000
0001
0000
0101
0000
0000
0000
,  // measure 16
0110
0000
0000
0100
0001
0000
1000
0000
0001
0000
0100
0000
0101
0000
0000
0000
,  // measure 17
0110
0000
0000
0010
1000
0000
0001
0000
1000
0000
0010
0000
1010
0000
0000
0000
,  // measure 18
1100
0000
0000
0011
0000
0000
1000
0001
1000
0000
0100
0000
1000
0000
0000
0000
,  // measure 19
0101
0000
0000
1010
0000
0000
0001
1000
0001
0000
0010
0000
0001
0000
0000
0000
,  // measure 20
1100
0000
0000
1010
0000
0000
0010
0100
0010
0000
1000
0000
0010
0000
0000
0000
,  // measure 21
0011
0000
0000
0101
0000
0000
0100
0010
0100
0000
0001
0000
0100
0000
0000
0000
,  // measure 22
0001
0000
1000
0100
0010
0000
0001
0000
1000
0000
0000
0000
0011
0000
0000
0000
,  // measure 23
1000
0000
0001
0010
0100
0000
1000
0000
0001
0000
0000
0000
1100
0000
0000
0000
,  // measure 24
0001
0000
1000
0100
1000
0000
0001
0000
0100
0000
0000
0000
0110
0000
0000
0000
,  // measure 25
2002
3003
0110
0110
,  // measure 26
0001
0000
0010
0000
0001
0000
0100
0001
0100
0000
0001
0000
2000
0000
0000
0000
,  // measure 27
3100
0000
1000
0000
0100
0000
1000
0010
1000
0000
0001
0000
0200
0000
0000
0000
,  // measure 28
0310
0000
1000
0000
0001
0000
0010
0001
0010
0000
0001
0000
2000
0000
0000
0000
,  // measure 29
3001
0000
1000
0000
0010
0000
1000
0100
1000
0000
0001
0000
0200
0000
0000
0000
,  // measure 30
0301
0000
0001
0000
1000
0000
0100
1000
0100
0000
0010
0000
0002
0000
0000
0000
,  // measure 31
1003
0000
0100
0000
1000
0000
0001
0010
0001
0000
0100
0000
0020
0000
0000
0000
,  // measure 32
0130
0000
0001
0000
0010
0000
0001
0100
0001
0000
1000
0000
0002
0000
0000
0000
,  // measure 33
1003
0000
0100
0000
1000
0000
0010
1000
0010
0000
0100
0000
0020
0000
0000
0000
,  // measure 34
1030
0000
0001
1000
0010
0000
1000
0000
0002
0000
0000
0000
2003
0000
0000
0000
,  // measure 35
3001
0000
1000
0001
0010
0000
0001
0000
2000
0000
0000
0000
3002
0000
0000
0000
,  // measure 36
0103
0000
0010
1000
0001
0000
0100
0000
0020
0000
0000
0000
0230
0000
0000
0000
,  // measure 37
0310
0000
0100
0001
1000
0000
0010
0000
0200
0000
0000
0000
0320
0000
0000
0000
,  // measure 38
1030
0000
0100
0010
0001
0000
1000
0000
0002
0000
0000
0000
0023
0000
0000
0000
,  // measure 39
0031
0000
0010
0100
1000
0000
0001
0000
2000
0000
0000
0000
3200
0000
0000
0000
,  // measure 40
1300
0000
0001
0010
0001
0000
1000
0000
0020
0000
0000
0000
0130
0000
0000
0000
,  // measure 41
2002
3003
0200
0310
,  // measure 42
1000
0000
0010
0100
0010
0000
1000
0000
0001
0000
0010
0000
0100
0000
1000
0000
,  // measure 43
0001
0000
0100
0010
0100
0000
0001
0000
1000
0000
0010
0000
0100
0000
0001
0000
,  // measure 44
0100
0000
0010
1000
0010
0000
0100
0000
0010
0000
1000
0000
0001
0000
0100
0000
,  // measure 45
0010
0000
0100
0001
0100
0000
0010
0000
0100
0000
0001
0000
1000
0000
0010
0000
,  // measure 46
1000
0000
0001
0010
0001
0000
1000
0000
0001
0000
0100
0000
0010
0000
0100
0000
,  // measure 47
0001
0000
1000
0100
1000
0000
0001
0000
1000
0000
0010
0000
0100
0000
0010
0000
,  // measure 48
0100
0000
0001
0010
0001
0000
0100
0000
0001
0000
0100
0000
0001
0000
1000
0000
,  // measure 49
0010
0000
1000
0100
1000
0000
0010
0000
1000
0000
0010
0000
1000
0000
0001
0000
,  // measure 50
1000
0000
0010
1000
0010
0000
0100
0001
0100
0000
0001
0000
0100
0000
0010
0000
,  // measure 51
0100
0000
0001
0010
0001
0000
1000
0100
1000
0000
0010
0000
1000
0000
0100
0000
,  // measure 52
1000
0000
0100
1000
0100
0000
0010
0001
0010
0000
0001
0000
1000
0000
0010
0000
,  // measure 53
0100
0000
0001
0100
0001
0000
1000
0010
1000
0000
0001
0000
0010
0000
0100
0000
,  // measure 54
1000
0000
0001
1000
0001
0000
1000
0001
1000
0000
0001
0000
0010
0000
0100
0000
,  // measure 55
0010
0000
0100
0010
0100
0000
0010
0100
0010
0000
0100
0000
1000
0000
0001
0000
,  // measure 56
1000
0000
0010
0100
0010
0000
1000
0001
1000
0000
0001
0000
0010
0000
0100
0000
,  // measure 57
2000
0000
3002
0000
,  // measure 58
1003
0000
0010
1000
0010
0000
2000
0000
0002
0000
0000
3003
1001
0000
0000
0000
,  // measure 59
0001
0000
0100
0001
0100
0000
0002
0000
2000
0000
0000
3003
1001
0000
0000
0000
,  // measure 60
0100
0000
0010
1000
0010
0000
0200
0000
0020
0000
0000
0330
0110
0000
0000
0000
,  // measure 61
0010
0000
0100
0001
0100
0000
0020
0000
0200
0000
0000
0330
0110
0000
0000
0000
,  // measure 62
0001
0000
0100
0010
1000
0000
0001
0000
2000
0000
0000
0000
3200
0000
0000
0000
,  // measure 63
1300
0000
0010
0100
0001
0000
1000
0000
0002
0000
0000
0000
0023
0000
0000
0000
,  // measure 64
0031
0000
1000
0001
1000
0000
0001
0000
0100
0000
0000
0000
0110
0000
0000
0000
,  // measure 65
1001
0000
1000
1100
0000
0001
0011
0000
,  // measure 66
1001
0000
1000
1010
0000
0001
0101
0000
,  // measure 67
0110
0000
0100
0110
0000
0010
0110
0000
,  // measure 68
2002
3003
2002
3003
;
