#TITLE:Omoide Wa Okkusenman;
#SUBTITLE:(Eurobeat Mix);
#ARTIST:DJ Command;
#TITLETRANSLIT:;
#SUBTITLETRANSLIT:;
#ARTISTTRANSLIT:;
#CREDIT:;
#BANNER:bn2.png;
#BACKGROUND:bg2.png;
#LYRICSPATH:;
#CDTITLE:;
#MUSIC:Omoide Wa Okkusenman (Eurobeat Mix).mp3;
#OFFSET:-0.040;
#SAMPLESTART:92.880;
#SAMPLELENGTH:15.620;
#SELECTABLE:YES;
#BPMS:0.000=165.000;
#STOPS:;
#BGCHANGES:;

//---------------dance-single - ----------------
#NOTES:
     dance-single:
     :
     Challenge:
     11:
     1.000,0.925,0.133,1.000,0.417: // measure 1
0000
0000
0000
0000
,  // measure 2
0000
0000
0000
0000
,  // measure 3
0000
0000
0000
0000
,  // measure 4
0000
0000
0000
0000
0000
0000
0000
0000
1000
0001
1000
0001
1000
0001
1000
0001
,  // measure 5
1000
0000
0010
0000
0001
0010
0001
0000
0010
0000
1000
0000
0100
0000
0001
0000
,  // measure 6
0100
0000
1000
0000
0010
0100
0010
0000
0100
0000
0001
0000
0010
0000
0001
0000
,  // measure 7
1000
0000
0100
0000
1000
0001
1000
0000
0001
0000
0100
0000
0010
0000
1000
0010
,  // measure 8
1000
0200
0301
0200
1300
0020
0031
0000
,  // measure 9
0010
1000
0100
1000
0010
0000
0100
0001
0010
0000
0100
0000
1000
0000
0010
0000
,  // measure 10
0100
0001
0010
0000
0010
0100
1000
0000
1000
0010
0100
0000
0100
0001
1000
0000
,  // measure 11
0020
0000
1000
0000
1030
0000
0100
0000
1000
0000
0010
0000
0100
0001
0100
0000
,  // measure 12
0002
0000
0010
0000
0013
0000
0100
1000
0020
0000
0130
0000
0001
1000
0001
0000
,  // measure 13
1000
0010
1000
0001
0010
0000
0001
1000
0100
0000
1000
0000
0001
0000
0100
0000
,  // measure 14
0010
0000
1000
0001
0010
0000
0100
1000
0002
0000
0013
0000
2000
0000
3010
0000
,  // measure 15
0002
0203
0320
2030
3001
0010
0001
1000
,  // measure 16
0010
1000
0001
0100
0010
1000
0100
0010
0002
0000
0000
0000
1003
0000
0000
0000
,  // measure 17
1001
0000
1000
0010
1000
0000
0001
0010
0001
0000
1000
0000
0010
0000
0100
0001
,  // measure 18
0100
0000
0010
1000
0010
0000
1000
0000
0100
0000
0020
0000
0032
0000
2003
0000
,  // measure 19
3010
0000
0100
0001
0100
0000
0010
1000
0010
0000
2000
0000
3100
0000
0002
0000
,  // measure 20
0103
2000
3010
0002
0013
2000
3010
0100
,  // measure 21
0101
0000
0001
0010
0001
0000
0100
0010
0100
0000
0020
0000
1030
0000
0200
0000
,  // measure 22
0301
0200
1300
0020
0130
0002
0013
0002
,  // measure 23
0103
0020
2030
3200
2300
3000
0001
2000
,  // measure 24
3100
0000
0020
0000
0032
0000
0203
0000
0310
1000
0000
1000
0001
0000
0100
0010
,  // measure 25
1000
0000
0010
1000
0100
0000
0010
0001
0100
0000
0010
0000
1000
0000
0001
1000
,  // measure 26
0010
0000
1000
0001
0010
0000
0001
0000
0100
0000
0020
0000
2030
0000
3200
0000
,  // measure 27
0301
0000
0100
1000
0010
0000
0100
0001
0010
0000
0002
0000
0103
0000
0020
0000
,  // measure 28
1030
0200
1300
0020
0130
0002
0013
0001
,  // measure 29
0101
0000
0100
0010
1000
0000
0010
0100
0001
0000
0020
0000
0031
0000
0200
0000
,  // measure 30
0310
2000
3100
0002
0103
2000
3010
0200
,  // measure 31
0301
0020
0032
2003
3200
0300
1000
0020
,  // measure 32
1030
0000
0020
0000
0230
0000
0302
0000
0013
0001
0000
0010
0100
1000
0010
0100
,  // measure 33
0002
1000
0100
0000
0100
0003
1000
0020
,  // measure 34
0130
0002
0013
0002
1003
0200
1300
0020
,  // measure 35
0230
0000
0310
0000
0100
0001
0101
0000
,  // measure 36
0100
0000
0010
1000
0100
0000
0010
0001
0100
0000
0010
0000
1000
0000
0001
0000
,  // measure 37
2001
0000
0001
3000
0001
0100
0010
2000
,  // measure 38
3100
0002
0103
2000
3010
0002
0013
2000
,  // measure 39
3010
0100
0001
0010
0002
2003
3010
0110
,  // measure 40
0000
0000
0200
0000
0302
0000
1003
0000
0100
0000
1000
0000
0010
0100
0001
1000
,  // measure 41
0010
1000
1100
0000
0100
0010
0001
0020
,  // measure 42
1030
0200
0310
0002
0103
0020
1030
0002
,  // measure 43
0013
0001
0101
0000
0100
0010
1000
0002
,  // measure 44
0013
0200
1300
0020
0130
0002
1003
0010
,  // measure 45
1010
1000
0100
0000
0001
0100
1000
0020
,  // measure 46
0130
0002
1003
0020
1030
0200
0301
0200
,  // measure 47
1300
0020
2030
3002
0023
0000
0031
0200
,  // measure 48
0310
0000
2000
0000
3200
0000
0302
0000
0103
1000
0000
1000
0010
0000
0010
0100
,  // measure 49
0001
1000
1001
0000
1000
0010
0100
0002
,  // measure 50
0013
0200
0000
1300
0020
0230
0302
2003
,  // measure 51
3010
1000
1100
0000
0100
0010
0001
0020
,  // measure 52
1030
0020
0000
0031
0200
0320
2030
3000
,  // measure 53
1001
0001
0010
0000
0001
0100
0010
1000
,  // measure 54
0002
0000
2003
0000
3020
0000
0130
0002
,  // measure 55
0013
0200
2300
3020
2030
0000
3100
0002
,  // measure 56
0103
0000
2000
0000
3020
0000
0230
0000
0301
1000
0000
1000
0010
0100
0001
0010
,  // measure 57
0002
1000
0100
0000
0100
0003
1000
0020
,  // measure 58
0130
0002
0013
0002
1003
0200
1300
0020
,  // measure 59
0230
0000
0310
0000
0100
0001
0101
0000
,  // measure 60
0100
0000
0010
1000
0100
0000
0010
0001
0100
0000
0010
0000
1000
0000
0001
0000
,  // measure 61
2001
0000
0001
3000
0001
0100
0010
2000
,  // measure 62
3100
0002
0103
2000
3010
0002
0013
2000
,  // measure 63
3010
0100
0001
0010
0002
2003
3010
0110
,  // measure 64
0000
0000
0200
0000
0302
0000
1003
0000
0100
0000
1000
0000
0010
0100
0001
1000
,  // measure 65
0010
0000
1000
0100
1000
0000
0001
0100
0001
0000
1000
0000
0020
0000
2030
0000
,  // measure 66
3100
0020
0031
2000
3010
2000
3100
0002
,  // measure 67
0103
2000
3020
0130
0002
0000
1003
0001
,  // measure 68
0010
0000
0002
0000
0203
0000
0310
0000
1000
0000
0100
1000
0010
0000
1000
0000
,  // measure 69
0001
0000
0100
0010
1000
0000
0010
0100
0001
0000
0100
0000
0020
0000
2030
0000
,  // measure 70
3100
0020
0031
0200
0301
0020
0130
1000
,  // measure 71
0002
0203
0320
2030
3100
1000
0010
0100
,  // measure 72
0001
0100
0010
1000
0001
0010
0100
1000
0001
0100
0010
1000
0002
0000
0003
0000
,  // measure 73
1000
0010
0100
0001
0100
0000
0010
1000
0100
0000
0010
0000
0001
0000
0100
0000
,  // measure 74
0001
0100
0010
0000
1000
0100
0010
0000
0001
1000
0100
0000
1000
0001
0100
0000
,  // measure 75
0020
0000
1000
0000
1030
0000
0100
0000
1000
0000
0010
0000
0100
0001
0100
0000
,  // measure 76
0002
0000
0010
0000
0013
0000
0100
1000
0020
0000
0130
0000
0001
1000
0001
0000
,  // measure 77
1000
0010
1000
0001
0010
0000
0001
1000
0100
0000
1000
0000
0001
0000
0100
0000
,  // measure 78
0010
0000
1000
0001
0010
0000
0100
1000
0002
0000
0013
0000
2000
0000
3010
0000
,  // measure 79
0002
0203
0320
2030
3001
0010
0001
1000
,  // measure 80
0010
1000
0001
0100
0010
1000
0100
0010
0002
0000
0000
0000
1003
0000
0000
0000
,  // measure 81
2002
0000
0000
0000
,  // measure 82
3003
0000
0001
0010
0000
0000
0010
0100
0000
0000
0100
1000
0010
0100
0001
1000
,  // measure 83
0002
0003
0000
0000
;

//---------------dance-single - ----------------
#NOTES:
     dance-single:
     :
     Hard:
     9:
     0.729,0.752,0.075,0.833,0.175:
0000
0000
0000
0000
,
0000
0000
0000
0000
,
0000
0000
0000
0000
,
0000
0000
0000
0000
1000
0001
0010
0001
,
0200
0010
1000
0310
,
2000
0001
0010
3001
,
0020
0000
0100
0000
1000
0000
0130
1000
,
0001
0020
0000
0230
0000
2300
0000
3000
,
0001
1000
0001
0000
0010
0000
0001
0100
0001
0000
0000
0000
0100
0000
0010
0000
,
0000
0010
1000
0000
0000
1000
0001
0000
0000
0001
0010
0000
0000
0010
0001
0000
,
0100
0010
1000
0010
0200
0000
0301
0010
,
0100
1000
0100
0010
0002
0000
1003
0010
,
0100
0001
0100
0000
0010
0000
1000
0100
1000
0000
0100
0000
0020
0000
0032
0000
,
0000
0000
0103
0010
0100
0000
0010
1000
0020
0000
0000
0000
2030
0000
0000
0000
,
3001
0100
1000
0100
0001
0010
0100
1000
,
0001
0000
0100
0010
1000
0000
1000
0010
0200
0000
0000
0000
0302
0000
0000
0000
,
1003
0100
1000
0010
0100
0001
0000
0010
,
1000
0010
0001
0100
0000
0010
1000
0100
,
0000
0001
0100
1000
0010
0100
0000
0002
,
0000
0023
0000
2030
0000
3010
0001
0100
,
0110
0010
1000
0100
0001
0100
0000
2000
,
0000
3020
0000
0230
0000
0302
0000
1003
,
0100
1000
0010
0100
0002
0000
0013
1000
,
0010
0000
0001
0000
0100
0000
0010
0000
1000
0100
0000
0100
0010
0000
0001
0000
,
1001
0001
0100
0001
1000
0100
0000
1000
,
0010
0001
0010
1000
0000
0010
1000
0100
,
0000
1000
0010
0100
0001
0010
0000
2000
,
0000
3020
0000
0230
0000
1300
0001
0010
,
0011
0010
0100
1000
0010
0100
0000
0002
,
0000
0023
0000
0230
0000
2300
0000
3010
,
0100
0001
0100
0010
2000
0000
3100
0010
,
0001
0000
1000
0000
0010
0000
0100
0000
0001
1000
0000
1000
0010
0000
0100
0000
,
0102
0000
0100
0000
1000
0003
0100
2000
,
0000
3020
0000
0230
0000
0302
0000
0013
,
0002
0000
0103
0000
0010
1000
0100
0000
,
0010
0001
1000
0010
1000
0001
0010
0001
,
0200
0000
0010
0000
1000
0300
0010
2000
,
0000
3002
0000
0023
0000
0032
0000
0103
,
0010
1000
0100
0001
0100
1000
0010
0110
,
0000
0000
0100
0000
0001
0000
0010
0000
1000
0000
0010
0000
0001
1000
0001
1000
,
0002
0000
0010
0000
0100
0003
1000
0020
,
0000
0230
0000
0302
0000
2003
0000
3010
,
0002
0000
0010
0000
0010
0003
1000
0020
,
0000
0230
0000
0302
0000
2003
0000
3100
,
0020
0000
0031
0000
0100
0010
1000
0002
,
0000
0023
0000
0032
0000
0203
0000
0310
,
1000
0100
0001
0100
2000
0000
3001
0100
,
0001
0000
0010
0000
0001
0000
1000
0000
0010
0100
0000
0100
0001
0000
0010
0000
,
0200
0000
1300
0000
0010
0000
0100
0002
,
0000
0023
0000
0130
1000
0001
0010
0001
,
0200
0000
0310
0000
1000
0000
0001
0020
,
0000
0032
0000
0103
0010
1000
0100
0000
,
0101
0000
0100
0000
1000
0010
0100
0001
,
0020
0000
0230
0000
2300
0000
3001
0010
,
0100
1000
0010
1000
0200
0000
0310
0001
,
0100
0000
0010
0000
1000
0000
0001
0000
0010
0001
0000
0001
0100
0000
0010
1000
,
0002
0000
0100
0000
1000
0003
0100
2000
,
0000
3020
0000
0230
0000
0302
0000
0013
,
0002
0000
0103
0000
0010
1000
0100
0000
,
0010
0001
1000
0010
1000
0001
0010
0001
,
0200
0000
0010
0000
1000
0300
0010
2000
,
0000
3002
0000
0023
0000
0032
0000
0103
,
0010
1000
0100
0001
0100
1000
0010
0110
,
0000
0000
0100
0000
0001
0000
0010
0000
1000
0000
0010
0000
0001
1000
0001
1000
,
0001
1000
0100
1000
0001
0000
0010
0002
,
0000
0203
0000
0320
0000
2030
0000
3001
,
0010
1000
0010
0001
0200
0000
0310
1000
,
0100
0001
0100
1000
0020
0000
0130
0001
,
0010
1000
0010
0001
0100
0000
0010
2000
,
0000
3200
0000
0310
0002
0000
2003
0000
,
3010
0100
0001
0100
0020
0000
1030
0000
,
0001
0000
0010
0000
0100
0000
1000
0000
0001
1000
0001
1000
0002
0000
0003
0000
,
1000
0001
1000
0000
0100
0000
1000
0010
1000
0000
0000
0000
0010
0000
0100
0000
,
0000
0100
0001
0000
0000
0001
1000
0000
0000
1000
0100
0000
0000
0100
1000
0000
,
0010
0100
0001
0100
0020
0000
1030
0100
,
0010
0001
0010
0100
2000
0000
3001
0100
,
0010
1000
0010
0000
0100
0000
0001
0010
0001
0000
0010
0000
0200
0000
2300
0000
,
0000
0000
3010
0100
0010
0000
0100
0001
0200
0000
0000
0000
0302
0000
0000
0000
,
1003
0010
0001
0010
1000
0100
0010
0001
,
1000
0000
0010
0100
0001
0000
0001
0100
0020
0000
0000
0000
2030
0000
3000
0000
,
2002
0000
0000
0000
,
3003
0000
1000
0001
0000
0000
0001
0010
0000
0000
0010
0100
1000
0000
0010
0000
,
0110
0000
0000
0000
;

//---------------dance-single - ----------------
#NOTES:
     dance-single:
     :
     Beginner:
     3:
     0.214,0.239,0.025,0.017,0.000:
0000
0000
0000
0000
,
0000
0000
0000
0000
,
0000
0000
0000
0000
,
0000
0000
1000
1000
,
1000
0000
1000
0000
,
0001
0000
0001
0000
,
0010
0000
0010
0000
,
0100
0000
0000
0000
,
1000
0000
1000
0000
,
0010
0000
0010
0000
,
0100
0000
0100
0000
,
0001
0000
0001
0000
,
0010
0000
0010
0000
,
0100
0000
0100
0000
,
1000
0000
1000
0000
,
0001
0000
0001
0000
,
1001
0000
1000
0000
,
0010
0000
1000
0000
,
0001
0000
0010
0000
,
0001
0000
0100
0000
,
0010
0000
1000
0000
,
0100
0000
0001
0000
,
0100
0100
0100
0000
,
0100
0100
0100
0000
,
1000
0000
0010
0000
,
1000
0000
0001
0000
,
0010
0000
0001
0000
,
0100
0000
0010
0010
,
0010
0000
1000
0000
,
0100
0000
0001
0000
,
0100
0100
0100
0000
,
0100
0100
0100
0000
,
0010
0000
0000
0000
,
1000
0000
1000
0000
,
1000
0000
0001
0000
,
0001
0000
0010
0000
,
0010
0000
0000
0000
,
0100
0000
0100
0000
,
0100
0000
1000
0000
,
1000
1000
1000
0000
,
0001
0000
0001
0000
,
0010
0000
0010
0010
,
0010
0000
0100
0000
,
1000
0000
0001
0001
,
0001
0000
1000
1000
,
1000
0000
0010
0000
,
0100
0100
0100
0000
,
0010
0010
0010
0000
,
1000
0000
0001
0000
,
0010
0000
0001
0000
,
1000
0000
0100
0000
,
1000
0000
0001
0001
,
0001
0000
0100
0000
,
0010
0000
1000
0000
,
0001
0001
0001
0000
,
1000
1000
1000
0000
,
0010
0000
0100
0000
,
0001
0000
0100
0000
,
0010
0000
1000
0000
,
0001
0001
0001
0000
,
1000
0000
0100
0000
,
0001
0000
0100
0000
,
1000
0000
0010
0000
,
0100
0100
0100
0000
,
0001
0001
0001
0000
,
0010
0000
0100
0000
,
1000
1000
1000
0000
,
0001
0001
0001
0000
,
0100
0100
0100
0000
,
0010
0000
1000
0000
,
0100
0100
0100
0000
,
0010
0000
0001
0000
,
1000
0000
1000
0000
,
0010
0000
0010
0000
,
0100
0000
0100
0000
,
0001
0000
0001
0000
,
0010
0000
0010
0000
,
0100
0000
0100
0000
,
1000
0000
1000
0000
,
0001
0000
0001
0001
,
2002
0000
0000
0000
,
3003
0000
0000
0000
,
1001
0000
0000
0000
;

//---------------dance-single - ----------------
#NOTES:
     dance-single:
     :
     Easy:
     5:
     0.414,0.513,0.433,0.017,0.000:
0000
0000
0000
0000
,
0000
0000
0000
0000
,
0000
0000
0000
0000
,
0000
0000
1000
1000
,
1001
0001
0010
0100
,
1000
0100
0010
0001
,
0101
0100
0010
1000
,
0001
1000
0000
1000
0000
1000
0000
0000
,
0001
0010
0100
1000
,
0010
0100
0001
1000
,
0010
0010
1010
0000
,
0100
0100
0101
0001
,
0011
0010
0100
1000
,
0001
0010
0001
0100
,
0010
0010
1000
1000
,
0001
0001
1001
0110
,
1001
1000
0010
1000
,
0001
0010
0001
0100
,
0010
1000
0100
0001
,
0100
1000
0010
0100
,
0101
0001
0010
0100
,
1000
0001
0010
0001
,
1000
0010
1010
0000
,
0001
0010
0011
0001
,
0101
0100
0010
1000
,
0100
0001
0100
1000
,
0010
0001
0010
1000
,
0010
0100
0001
0010
,
0110
0100
1000
0010
,
1000
0001
0010
0001
,
0100
0010
1010
0000
,
0010
0100
0101
0001
,
0011
0000
0010
0100
,
1000
0001
0010
0001
,
0101
0000
1010
0000
,
0010
1000
0100
0010
,
1001
0000
0101
0000
,
0001
0100
0010
1000
,
1100
0000
0100
0010
,
0011
0011
0101
0000
,
0110
0000
0010
1000
,
0100
0001
0100
1000
,
0010
0000
0100
0001
,
0010
1000
0010
0001
,
0100
0000
0010
1000
,
0100
0100
0010
0010
,
0001
1000
1001
0000
,
1000
0010
1010
0010
,
0110
0100
0001
0010
,
1000
0010
0001
0100
,
0010
1000
0100
0001
,
0100
1000
0010
0100
,
0101
0001
0010
0100
,
1000
0001
0010
0001
,
0100
0010
0110
0000
,
0010
1000
1010
1000
,
1100
0100
0010
0001
,
1000
0010
0100
0001
,
1000
1000
0001
0001
,
1000
0010
1000
0001
,
0101
0100
0010
1000
,
0001
0010
0001
1000
,
1001
1000
0010
0100
,
0110
0110
1001
0000
,
1000
0010
0100
0001
,
0010
0100
1000
0001
,
0011
0011
0011
0000
,
1100
1100
1100
1000
,
1010
0010
0100
0001
,
0010
0001
1000
0010
,
0100
0100
0001
0001
,
1000
1000
0001
1001
,
0001
0010
0100
1000
,
0010
0100
0001
1000
,
0010
0010
1010
0000
,
0100
0100
0101
0001
,
0011
0010
0100
1000
,
0001
0010
0001
0100
,
0010
0010
1000
1000
,
0001
0001
1001
0110
,
2002
0000
0000
0000
,
3003
1000
0000
1000
0000
0001
0000
0001
,
1001
0000
0000
0000
;

//---------------dance-single - ----------------
#NOTES:
     dance-single:
     :
     Medium:
     7:
     0.618,0.547,0.308,0.692,0.000:
0000
0000
0000
0000
,
0000
0000
0000
0000
,
0000
0000
0000
0000
,
0000
0000
0000
0000
1000
0001
1000
0001
,
1000
1001
0001
1001
,
1000
1010
0010
1010
,
0010
0110
0100
0110
,
0100
0002
0000
0023
0000
0230
0000
0300
,
1000
0001
1000
0000
1001
0000
0001
0020
,
0000
0230
0000
2300
0000
3020
0000
1030
,
0000
0001
1000
0000
1001
0000
0001
0010
,
0000
0001
0010
0000
0011
0000
0010
0100
,
1000
0010
1000
0000
1010
0000
0010
0200
,
0000
0301
0010
0100
2000
0000
3002
0000
,
1003
0010
1000
0001
0010
0000
0001
0000
,
0100
0010
1000
0001
0020
0000
0032
0000
,
1003
0010
1000
0000
0001
0010
0000
0001
,
0100
0001
0000
0100
0000
0010
1000
0100
,
0000
0010
0001
0000
1000
0100
0000
0020
,
0000
0032
0000
0203
0000
0310
1000
0000
,
1001
0000
0001
0010
0001
0100
0000
0020
,
0000
2030
0000
3002
0000
0023
0000
0031
,
0000
1000
0001
0000
1001
0000
1000
0010
,
0000
0010
0100
0000
0110
0000
0100
0001
,
0010
0001
0100
0000
0010
1000
0000
0001
,
0010
0100
0000
1000
0000
0010
1000
0001
,
0000
0010
0001
0000
0100
0010
0000
2000
,
0000
3200
0000
0320
0000
0031
1000
0000
,
1001
0000
0001
0010
0100
1000
0000
0020
,
0000
2030
0000
3002
0000
0203
0000
0301
,
0000
1000
0001
0000
1001
0000
1000
0010
,
0000
0010
0100
0000
0001
0010
0100
1000
,
0002
0000
0010
0000
0010
0003
0010
0200
,
0000
2300
0000
3020
0000
2030
0000
3001
,
0010
0000
0011
0000
0001
0100
0001
0000
,
0100
0010
0100
0010
0000
1000
0010
0000
,
2100
0000
0100
0000
0100
3000
0100
0020
,
0000
0032
0000
2003
0000
3020
0000
0130
,
0001
0000
0011
0000
0010
0100
1000
0010
,
0000
0100
0001
1000
0010
0000
1010
0000
,
0020
0000
0100
0000
0100
0030
0100
0002
,
0000
0023
0000
2030
0000
3020
0000
0031
,
0200
0000
0010
0000
0010
0300
0010
2000
,
0000
3002
0000
0023
0000
0031
1000
0000
,
1001
0000
1000
0000
0010
0100
0001
0200
,
0000
0320
0000
2030
0000
3002
0000
0013
,
0000
0001
0100
0000
0101
0000
0100
0010
,
0000
0010
1000
0000
1010
0000
1000
0100
,
0020
0000
0001
0030
0100
0000
0010
1000
,
0000
0001
0000
0010
0001
0100
0010
0000
,
0110
0000
0010
0000
1000
0000
0100
0001
,
0000
0100
0000
1000
0010
0100
0001
0000
,
0101
0000
0001
0000
0010
0100
1000
0000
,
0002
2003
3020
0230
,
0301
0010
0001
0000
0011
0000
0010
0100
,
0000
0100
1000
0000
1010
0000
0010
0100
,
0002
0000
0100
0000
0100
0003
0100
0020
,
0000
2030
0000
3002
0000
0023
0000
0031
,
1000
0000
1010
0000
0010
0100
0010
0000
,
0100
0001
0100
0001
0000
0010
0001
0010
,
0002
0000
1000
0000
1000
0003
1000
0020
,
0000
0230
0000
0302
0000
2003
0000
3100
,
0001
0000
0101
0000
0100
1000
0010
0100
,
0000
0001
0010
0100
1000
0000
1001
0000
,
0001
0010
0001
0010
0001
0000
0100
0020
,
0000
2030
0000
3002
0000
0023
0000
0031
,
0000
1000
0001
0000
1001
0000
1000
0010
,
0000
0010
0100
0000
0110
0000
0100
0001
,
0000
0010
0100
1000
0001
0000
0010
0002
,
0000
0203
0000
0320
0000
1030
0001
0000
,
1000
0100
0001
0100
1000
0000
0010
0000
,
0100
0001
0010
0100
1000
0001
2000
3000
,
0001
1000
0001
0000
1001
0000
1000
0200
,
0000
0320
0000
0032
0000
0203
0000
0301
,
0000
1000
0001
0000
1001
0000
1000
0100
,
0000
1000
0100
0000
1100
0000
0100
0010
,
0001
0100
0001
0000
0101
0000
0100
0020
,
0000
1030
0100
0010
0002
0000
2003
0000
,
3001
0100
0001
1000
0100
0000
1000
0000
,
0010
0100
0001
1000
0200
0000
2300
3000
,
2002
0000
0000
0000
0000
0000
0000
3003
,
0000
1000
0000
0001
0000
0010
0100
1000
,
1001
0000
0000
0000
;
