#TITLE:Love Eternal;
#SUBTITLE:;
#ARTIST:When Machines Dream;
#TITLETRANSLIT:;
#SUBTITLETRANSLIT:;
#ARTISTTRANSLIT:;
#GENRE:;
#CREDIT:Telperion;
#BANNER:le-bn.png;
#BACKGROUND:le-bg.png;
#LYRICSPATH:;
#CDTITLE:;
#MUSIC:Love Eternal.ogg;
#OFFSET:-0.000667;
#SAMPLESTART:60.000999;
#SAMPLELENGTH:14.919998;
#SELECTABLE:YES;
#DISPLAYBPM:80.000000:160.000000;
#BPMS:0.000000=160.000000,96.000000=80.000000,112.000000=160.000000,184.000000=80.000000,200.000000=160.000000,248.000000=80.000000;
#STOPS:;
#DELAYS:;
#TIMESIGNATURES:0.000000=4=4
;
#BGCHANGES:;
#KEYSOUNDS:;
#ATTACKS:;

//---------------dance-single - Telperion----------------
#NOTES:
     dance-single:
     Telperion:
     Hard:
     8:
     0.527,0.571,0.365,0.274,0.146,334.000,40.000,30.000,0.000,0.000,0.000,0.000,0.527,0.571,0.365,0.274,0.146,334.000,40.000,30.000,0.000,0.000,0.000,0.000:
0000
0000
0000
0000
,
0000
0000
0000
0000
,
0000
0000
0000
0000
,
0000
0000
0000
0000
,
1000
0000
0000
0000
0011
0000
1000
0000
0000
0000
1010
0000
0000
0000
0000
0001
,
1000
0000
0000
0000
1010
0000
0001
0000
0000
0000
0011
0000
0000
0000
0000
0010
,
0100
0000
0000
0000
1001
0000
1000
0000
0000
0000
0011
0000
0000
0000
0000
1000
,
0010
0100
0100
0010
0001
0010
2000
0000
,
3100
0010
0000
0001
0100
0010
0000
1000
,
0001
0000
0010
0000
0000
0000
0100
0000
1000
0000
0000
0001
0000
0000
0100
0000
,
0100
0000
0010
0000
0000
1000
0000
0000
0010
0000
0100
0000
0010
0000
0000
0000
,
0001
0010
0100
0010
1000
0100
1000
0000
,
0011
1000
0000
0010
0100
0001
0000
1000
,
0001
0000
0010
0000
0000
0000
0100
0000
1000
0000
0000
0001
0000
0000
0100
0000
,
0100
0000
0010
0000
0000
0100
0000
0000
1000
0000
0100
0000
0010
0000
0000
0000
,
1000
0000
0000
1000
0000
0000
0001
0000
0000
0001
0000
0000
1000
0000
0010
0000
,
0110
0100
0000
0001
1000
0100
0000
0010
,
0100
0000
0000
1000
0000
0000
0100
0000
0000
0010
0000
0000
0001
0000
0000
0000
,
1010
0000
0010
0000
0000
0100
0000
0000
0001
0000
0100
0000
0010
0000
0000
0000
,
0001
0010
0100
0001
1000
0001
0010
0000
,
1100
0100
0000
1000
0001
0100
0000
0010
,
1000
0000
0000
0010
0000
0000
1000
0000
0000
0001
0000
0000
0100
0000
0000
0000
,
0011
0000
0010
0000
0000
0100
0000
0000
1000
0000
0100
0000
0010
0000
0000
0000
,
0001
0010
0100
1000
0001
0100
0001
1000
,
0010
0000
0020
0000
1030
0100
0002
0000
,
0103
0100
0020
0000
0031
0100
2000
0000
,
3100
0100
0020
0000
1030
0100
0002
0000
,
0103
0000
0010
0000
0110
0000
0000
0000
0001
0000
1000
0000
0010
1000
0001
0010
,
0210
0000
0000
1000
0000
0000
0310
0000
,
0001
0000
0010
0000
0100
0000
1000
0000
0010
0000
0000
0010
0000
0000
0100
0000
,
0201
0000
0000
0010
0000
0000
1300
0000
,
0100
1000
0100
0010
0100
0001
1000
0000
,
0021
0000
0000
0100
0000
0000
0031
0000
,
1000
0010
0100
0001
0010
0000
0100
1000
,
1020
0000
0000
0100
0000
0000
0031
0000
,
0010
1000
0100
0010
0001
0100
1000
0000
,
0100
0000
0110
0001
0000
1200
0000
0000
,
0310
0000
0110
1000
0002
0000
0000
0000
,
0103
0010
0000
1000
0100
0010
0000
0001
,
1000
0000
0000
1000
0000
0000
0001
0000
0000
0001
0000
0000
0010
0000
0000
0000
,
1100
0000
0100
0000
0000
1000
0000
0000
0001
0000
0010
0000
0001
0000
0100
0000
,
1000
0100
0010
0100
0001
0010
0100
0000
,
1001
0001
0000
1000
0010
0100
0000
0001
,
1000
0000
0000
0001
0000
0000
0010
0000
0000
0100
0000
0000
1000
0000
0000
0000
,
0101
0000
0010
0000
0000
0100
0000
0000
0001
0000
1000
0000
0001
0000
0100
0000
,
1000
0100
0001
0100
1000
0001
0010
1000
,
0100
0000
0200
0000
0301
0100
2000
0000
,
3010
0010
0020
0000
0031
0010
1000
0000
,
0110
0100
0020
0000
0031
0010
0100
0000
,
1001
0000
0000
0000
0001
0000
0000
1000
0000
0000
0001
0000
0100
0000
0010
0000
1000
0000
0000
0000
1000
0000
0100
0000
0020
0000
0000
0000
0030
0000
0000
0000
,
1001
0000
0021
0000
0000
1030
0010
0001
,
0100
0000
1010
1000
0000
0011
0002
0000
,
2003
0000
0020
0030
0000
0002
0003
0000
,
3100
0001
1000
0010
0002
0000
0003
0000
,
1001
0000
1020
0000
0000
0031
0010
0100
,
0002
0000
0020
0030
0000
2000
3000
0000
,
0103
0000
1010
0010
0000
0011
0010
0000
,
1000
0001
0100
0010
1000
0010
0100
0001
,
0010
0000
0110
1000
0000
0110
0001
0000
,
1000
0100
0010
0001
0020
0000
0000
0000
,
0031
0000
0000
0100
0000
0000
0010
0000
0000
1000
0000
0000
0010
0000
0100
0000
,
1001
0000
0000
1100
0000
0000
1001
0000
0000
0011
0000
0000
0110
0000
1000
0000
,
1020
0000
0000
0000
0000
0000
0000
0000
0000
0030
0000
0000
0000
0000
0000
0000
;

//---------------dance-single - Telperion----------------
#NOTES:
     dance-single:
     Telperion:
     Medium:
     6:
     0.390,0.429,0.201,0.502,0.009,222.000,22.000,55.000,0.000,0.000,0.000,0.000,0.390,0.429,0.201,0.502,0.009,222.000,22.000,55.000,0.000,0.000,0.000,0.000:
0000
0000
0000
0000
,
0000
0000
0000
0000
,
0000
0000
0000
0000
,
0000
0000
0000
0000
,
1000
0000
0010
0100
0000
0010
1000
0000
,
0001
0000
0010
0100
0000
0010
0001
0000
,
1000
0000
0010
0100
0000
0010
0100
0000
,
0001
0000
0001
1000
0010
0000
0010
0000
,
0110
0000
0000
1000
0002
0003
0000
0001
,
0020
0030
0000
0010
0100
0000
0000
0000
,
0110
0000
0000
0100
2000
3000
0000
1000
,
0010
0100
0010
0100
0001
0100
0010
0000
,
1001
0000
0000
0001
0020
0030
0000
0010
,
0200
0300
0000
0100
1000
0000
0000
0000
,
1001
0000
0000
1000
0020
0030
0000
0010
,
1000
0001
0100
0001
0010
0001
1000
0000
,
0110
0000
0000
0010
0200
0300
0000
0100
,
0002
0000
2000
3003
,
0110
0000
0000
0010
0200
0300
0000
0100
,
1000
0010
0100
0010
1000
0010
0100
0000
,
0110
0000
0000
0100
0020
0030
0000
0010
,
2000
0000
0002
3003
,
0110
0001
1000
0010
,
0100
0010
1000
0001
0020
0000
0000
0000
,
0230
0300
0020
0030
,
0002
0003
2000
3000
,
0120
0030
2000
3000
,
0002
0103
2000
3100
,
0011
0000
0000
0001
0000
0000
0001
0000
,
1000
0010
1000
0001
1000
0000
0000
0000
,
0110
0000
0000
0010
0000
0000
0010
0000
,
0100
0001
0000
0010
0001
0000
0100
0000
,
1010
0000
0000
1000
0000
0000
1000
0000
,
0001
0010
0100
0010
0001
0000
0000
1000
,
1000
0000
0000
1000
0000
0000
1000
0000
,
0010
0100
0001
0000
0010
0100
1000
0000
,
0001
0000
1000
1000
0000
0010
0010
0000
,
0100
0000
0010
0100
2000
0000
3000
0000
,
0110
0000
0000
0100
0020
0030
0000
0010
,
2000
0010
0002
3003
,
0011
0010
0100
0010
,
1000
0010
0001
0000
,
0110
0000
0000
0100
0020
0030
0000
0010
,
0002
0010
2000
3003
,
1100
0010
0100
0001
,
0010
0000
0010
0000
0010
0100
0010
0000
,
1002
0003
0200
0300
,
0020
0030
2000
3000
,
1002
0013
2000
3010
,
0100
0010
0010
0100
0100
1000
0002
0003
,
0120
0000
0000
2030
,
3200
0000
0300
0020
,
0032
0000
0000
0003
,
0002
0023
0230
1300
,
0120
0000
0000
0230
,
0302
0000
0003
0200
,
0320
0000
0000
0030
,
1000
0100
0010
0001
0200
0000
0310
0000
,
2001
0000
0000
0010
0000
3002
0000
0000
,
0013
0000
0100
0010
0200
0000
0300
0000
,
1002
0000
0000
0100
0000
0010
0003
0000
,
1000
0000
0000
0001
0000
0000
1000
0000
0000
0001
0000
0000
1000
0000
0000
0000
,
0020
0000
0000
0000
0000
0000
0000
0000
0000
0030
0000
0000
0000
0000
0000
0000
;

//---------------dance-single - Telperion----------------
#NOTES:
     dance-single:
     Telperion:
     Easy:
     3:
     0.223,0.283,0.174,0.000,0.000,152.000,19.000,0.000,0.000,0.000,0.000,0.000,0.223,0.283,0.174,0.000,0.000,152.000,19.000,0.000,0.000,0.000,0.000,0.000:
0000
0000
0000
0000
,
0000
0000
0000
0000
,
0000
0000
0000
0000
,
0000
0000
0000
0000
,
0010
0000
0000
0010
0000
0000
0000
0000
,
0100
0000
0000
0100
0000
0000
0000
0000
,
0001
0000
0000
0001
0000
0000
0000
0000
,
1000
0100
0001
0001
,
0110
0000
0000
0000
,
0001
0000
1000
0100
,
0010
0000
0000
0000
,
1000
0001
0100
0010
,
0110
0000
0000
0000
,
1000
0000
0001
0010
,
0010
0000
0000
0000
,
0100
1000
0001
1000
,
0110
0000
0000
0000
,
0001
0010
0001
0010
,
0100
0000
0000
0000
,
1000
0001
1000
0001
,
0110
0000
0000
0000
,
1000
0010
0100
0001
,
0100
0000
0000
0000
,
0010
0100
0001
1000
,
0110
0010
0000
0010
,
0000
0010
0000
0010
,
1001
0100
0000
0100
,
0000
0100
0000
0000
,
0110
0000
0000
0010
0000
0000
0000
0000
,
0100
0001
1000
0000
,
0100
0000
0000
0100
0000
0000
0000
0000
,
0010
0100
1000
0000
,
1001
0000
0000
0001
0000
0000
0000
0000
,
1000
0001
0100
0000
,
0110
0000
0000
0100
0000
0000
0000
0000
,
0001
0010
0100
0000
,
1001
0000
0000
1000
0000
1000
0000
0000
,
0010
1000
0001
0000
,
0110
0000
0000
0000
,
1000
0100
1000
0001
,
0100
0000
0000
0000
,
0010
1000
0010
0100
,
1001
0000
0000
0000
,
0010
0001
0010
0001
,
1000
0000
0000
0000
,
0010
0100
0001
1000
,
0110
0001
0000
0001
,
0000
1000
0000
1000
,
0110
0001
0000
0001
,
1000
0001
0010
0000
0100
1000
0010
0000
,
0110
0000
0001
0000
0000
0010
0000
0000
,
0100
0000
0010
0000
0000
0010
0000
0000
,
0001
0000
1000
0000
0000
1000
0000
0000
,
0010
0100
0001
0000
,
0110
0000
1000
0000
0000
0010
0000
0000
,
0100
0000
0010
0000
0000
0010
0000
0000
,
1000
0000
0001
0000
0000
0001
0000
0000
,
0010
0100
1000
0001
,
0110
0000
0000
0000
0000
0100
0000
0000
,
0001
0000
0000
0010
0000
0000
0000
0000
,
0110
0000
0000
0000
0000
0100
0000
0000
,
1000
0000
0000
0100
0000
0000
0010
0000
,
1001
0000
0000
0000
;

//---------------dance-single - Telperion----------------
#NOTES:
     dance-single:
     Telperion:
     Beginner:
     2:
     0.102,0.142,0.119,0.000,0.000,65.000,13.000,0.000,0.000,0.000,0.000,0.000,0.102,0.142,0.119,0.000,0.000,65.000,13.000,0.000,0.000,0.000,0.000,0.000:
0000
0000
0000
0000
,
0000
0000
0000
0000
,
0000
0000
0000
0000
,
0000
0000
0000
0000
,
0010
0000
0000
0000
,
0010
0000
0000
0000
,
0010
0000
0000
0000
,
0010
0000
0010
0000
,
1001
0000
0000
0000
,
1000
0000
0000
0000
,
0100
0000
0000
0000
,
0010
0000
0000
0000
,
1001
0000
0000
0000
,
0001
0000
0000
0000
,
0100
0000
0000
0000
,
0010
0000
0100
0000
,
0110
0000
0000
0000
,
1000
0000
0000
0000
,
0001
0000
0000
0000
,
0010
0000
0000
0000
,
0110
0000
0000
0000
,
0001
0000
0000
0000
,
1000
0000
0000
0000
,
0010
0000
0100
0000
,
1001
0000
0000
0000
,
0010
0000
0000
0000
,
1001
0000
0000
0000
,
0100
0000
0000
0000
,
0010
0000
0000
0000
,
0010
0000
0000
0000
,
0100
0000
0000
0000
,
1000
0000
0000
0000
,
0010
0000
0000
0000
,
0010
0000
0000
0000
,
0100
0000
0000
0000
,
0001
0000
0100
0000
,
0010
0000
0000
0000
,
0100
0000
0000
0000
,
0110
0000
0000
0000
,
0001
0000
0000
0000
,
0010
0000
0000
0000
,
1000
0000
0000
0000
,
0110
0000
0000
0000
,
1000
0000
0000
0000
,
0010
0000
0000
0000
,
0001
0000
1000
0000
,
0110
0000
0000
0000
,
0001
0000
0000
0000
,
0110
0000
0000
0000
,
1000
0000
0001
0010
,
0110
0000
0000
0000
,
1000
0000
0000
0000
,
0100
0000
0000
0000
,
0010
0000
0001
0000
,
0110
0000
0000
0000
,
0001
0000
0000
0000
,
0100
0000
0000
0000
,
0010
0100
0010
0000
,
0000
0000
0000
0000
,
0000
0000
0000
0000
,
0000
0000
0000
0000
,
0000
0000
0000
0000
,
1001
0000
0000
0000
;

//---------------dance-single - Telperion----------------
#NOTES:
     dance-single:
     Telperion:
     Challenge:
     11:
     0.723,1.000,0.210,0.630,0.539,462.000,23.000,69.000,83.000,0.000,0.000,0.000,0.723,1.000,0.210,0.630,0.539,462.000,23.000,69.000,83.000,0.000,0.000,0.000: // measure 1
0000
0000
0000
0000
,  // measure 2
0000
0000
0000
0000
,  // measure 3
0000
0000
0000
0000
,  // measure 4
0000
0000
0000
0000
,  // measure 5
1000
0000
0001
0000
001M
0000
1000
0000
0001
0000
001M
0000
1000
0000
0000
1000
,  // measure 6
0001
0000
1000
0000
M010
0000
0001
0000
1000
0000
M010
0000
0001
0000
0000
0100
,  // measure 7
0010
0000
0100
0000
011M
0000
1000
0000
0001
0000
M011
0000
0100
0000
0000
1000
,  // measure 8
0010
0000
0100
0000
1001
0000
0001
0010
0100
0010
0001
0000
1000
0010
1000
0010
,  // measure 9
M20M
0300
0000
0010
2000
0001
0000
3100
,  // measure 10
0020
0000
0001
0000
0030
0000
0000
0000
0010
0000
0000
0100
0000
0000
1000
0000
,  // measure 11
1010
0000
0010
0000
0000
0100
0000
0000
0001
0000
0100
0000
0010
0000
0100
0000
,  // measure 12
1000
0000
1000
0100
0010
0100
0010
0100
0001
0000
1000
0000
0100
0000
0000
0000
,  // measure 13
MM12
0003
0000
0100
0002
0010
0000
1003
,  // measure 14
0020
0000
0100
0000
0030
0000
0100
0000
0010
0000
0000
0100
0000
0000
0001
0000
,  // measure 15
0011
0000
0010
0000
0000
0100
0000
0000
1000
0000
0100
0000
0010
0000
0100
0000
,  // measure 16
1000
0000
0010
0100
0000
0100
0001
0000
0010
0001
0010
0100
1000
0010
1000
0010
,  // measure 17
2M0M
3000
0000
0100
0020
1000
0000
0031
,  // measure 18
0100
0000
0100
0010
0000
0010
1000
0000
1000
0001
0000
0001
0010
0000
0000
0000
,  // measure 19
0110
0000
0010
0000
0000
0001
0000
0000
1000
0000
0100
0000
0010
0000
0100
0000
,  // measure 20
0001
0000
0001
0100
0010
0100
0010
0100
1000
0000
0001
0000
0100
0000
0000
0000
,  // measure 21
1M2M
0030
0000
0100
0020
0001
0000
1030
,  // measure 22
0100
0000
0010
0100
0000
0100
1000
0000
0001
1000
0000
1000
0010
0000
0100
0000
,  // measure 23
1001
0000
0001
0000
0000
1000
0000
0000
0010
0000
0100
0000
0010
0000
1000
0000
,  // measure 24
0100
0000
0100
0000
1000
0001
0000
1000
0010
0100
0010
0000
1000
0100
0010
0001
,  // measure 25
MM20
0000
M230
0000
0001
0010
230M
0000
,  // measure 26
0001
0010
3M02
0000
0010
1000
01M3
0000
,  // measure 27
0110
0100
020M
0000
1000
0010
M302
0000
,  // measure 28
0010
0000
0000
0000
1003
0000
0000
0000
21M0
0000
0000
0000
3001
0000
0000
0000
0202
0303
0000
0100
0010
0000
1000
0000
0001
0010
0001
0010
0001
1000
0001
1000
,  // measure 29
0M2M
0000
1000
M230
0000
0010
03M2
0000
,  // measure 30
0013
100M
0001
0100
1000
0001
0100
0010
,  // measure 31
0210
0000
0001
032M
0000
0100
2M30
0000
,  // measure 32
3100
0000
1000
0100
0010
0000
0010
0001
0010
0000
0100
0000
0001
0000
0100
0000
,  // measure 33
M2MM
0000
0010
23M0
0000
0100
3M02
0000
,  // measure 34
0103
100M
0001
0010
1000
0001
0100
0010
,  // measure 35
0120
0000
0001
023M
0000
1000
M302
0000
,  // measure 36
0013
0000
0010
0000
0100
0000
0100
0010
0100
1000
0100
0000
1000
0001
1000
0001
,  // measure 37
1MM0
0000
0010
0000
1000
0000
0010
1000
0010
0100
0001
0000
0100
0001
0100
0010
,  // measure 38
1000
0000
0010
0000
0100
0000
0001
0010
0100
0010
0100
0010
0100
0010
0100
0010
,  // measure 39
MM02
0003
0000
1000
0020
0001
0000
0130
,  // measure 40
0001
0000
0010
0100
0000
0100
1000
0000
0010
1000
0000
0010
1000
0000
0000
0000
,  // measure 41
0101
0000
0001
0000
0000
0010
0000
0000
0100
0000
0010
0000
0001
0000
0100
0000
,  // measure 42
1000
0000
1000
0100
1000
0100
0010
0100
0001
0000
0100
0000
1000
0000
0000
0000
,  // measure 43
M12M
0030
0000
1000
0200
0001
0000
0310
,  // measure 44
0001
0000
0100
0010
0000
0010
1000
0000
0001
0010
0000
0001
0010
0000
0000
0000
,  // measure 45
1100
0000
1000
0000
0000
0100
0000
0000
0010
0000
0100
0000
1000
0000
0010
0000
,  // measure 46
0100
0000
0001
0010
0100
0000
1000
0010
0100
0001
0100
0010
0100
0000
0001
1000
,  // measure 47
02MM
0000
M320
0000
1000
0100
M032
0000
,  // measure 48
0100
0010
2M03
0000
0010
0001
31M0
0000
,  // measure 49
0110
0110
1MM2
0000
0010
0010
M013
0010
,  // measure 50
0110
0000
0100
1000
0001
0000
0100
0010
0000
0010
0100
0001
1000
0100
1000
0100
0010
0000
0001
0010
0100
1000
0001
0100
0010
0100
0010
0100
0010
0100
0010
0100
,  // measure 51
M02M
0000
0000
0000
0030
02M0
0302
0M23
,  // measure 52
023M
0000
00M0
0000
0000
03M0
2M00
0000
,  // measure 53
3020
0000
M000
0000
0000
M000
0000
0000
,  // measure 54
0032
20M3
320M
M320
2M30
00M0
0002
3003
,  // measure 55
M12M
0000
0000
0000
0030
00M2
2003
302M
,  // measure 56
M230
0000
00M0
0000
0000
03M0
0M02
0000
,  // measure 57
0023
0000
000M
0000
0000
000M
0000
0000
,  // measure 58
2030
0000
0000
0000
0000
0000
0000
0000
0000
0000
0000
0000
0000
0000
0000
0000
0000
0000
0000
0000
0000
0000
0000
0000
00M2
0000
0000
0000
0000
0000
0000
0000
0000
0000
0000
0000
0000
0000
0000
0000
0000
0000
0000
0000
0000
0000
0000
3000
0200
0000
0000
0000
0000
0000
0000
0000
0000
0000
0000
0000
0000
0000
0000
0000
0000
0000
0000
0000
0000
0000
0000
0003
0020
0000
0000
0000
0000
0000
0000
0000
0000
0000
0000
0000
0000
0000
0000
0000
0000
0000
0000
0000
0000
0000
0000
0300
0002
0000
0000
0000
0000
0000
0000
0000
0000
0000
0000
0000
0000
0000
0000
0000
0000
0000
0000
0000
0000
0000
0000
0030
2000
0000
0000
0000
0000
0000
0000
0000
0000
0000
0000
0000
0000
0000
0000
0000
0000
0000
0000
0000
0000
0000
0000
0003
0020
0000
0000
0000
0000
0000
0000
0000
0000
0000
0000
0000
0000
0000
0000
0000
0000
0000
0000
0000
0000
0000
0000
3000
0130
0000
0000
0000
0000
0000
0000
0000
0000
0000
0000
0000
0000
0000
0000
0000
0000
0000
0000
0000
0000
0000
0000
0000
,  // measure 59
2MM1
0000
0000
0000
3001
0010
0001
0010
0100
0000
1000
0100
0010
0100
1000
0000
,  // measure 60
0001
0000
1000
0000
0100
0000
1000
0010
0100
0010
0100
0010
0100
0010
0100
0010
,  // measure 61
1000
0000
0001
0100
0001
0000
0100
0010
0000
1000
0010
0000
0100
0001
0100
0010
,  // measure 62
1000
0000
0001
0100
0000
0010
1000
0000
0001
0000
0001
0000
0010
0100
0010
0100
,  // measure 63
M02M
0000
0000
0000
0000
0000
0000
0000
0000
0030
0000
0000
0000
0000
0000
0000
;

//---------------dance-double - Telperion----------------
#NOTES:
     dance-double:
     Telperion:
     Hard:
     9:
     0.518,0.571,0.228,0.119,0.205,359.000,25.000,13.000,0.000,0.000,0.000,0.000,0.518,0.571,0.228,0.119,0.205,359.000,25.000,13.000,0.000,0.000,0.000,0.000:
00000000
00000000
00000000
00000000
,
00000000
00000000
00000000
00000000
,
00000000
00000000
00000000
00000000
,
00000000
00000000
00000000
00000000
,
00010000
00000000
10000000
00000000
00100000
00000000
00001000
00000000
00000010
00000000
00000001
00000000
00000000
00000000
00000000
00000010
,
00001000
00000000
00000001
00000000
00000010
00000000
00010000
00000000
00100000
00000000
10000000
00000000
00000000
00000000
00000000
00100000
,
00001000
00000000
00010000
00000000
01000000
00000000
00001000
00000000
00000100
00000000
00000001
00000000
00000000
00000000
00000000
00000100
,
00001000
00000000
00000001
00000000
00000100
00000000
00001000
00000000
00010000
00000000
00000100
00000000
00010000
00001000
00010000
00001000
,
01000000
00100000
00000000
01000000
00010000
00100000
00000000
01000000
,
00010000
00000000
01000000
00000000
00000000
00000000
10000000
00000000
00100000
00000000
00000000
00010000
00000000
00000000
00001000
00000000
,
00011000
00000000
00001000
00000000
00000000
00000010
00000000
00000000
00000001
00000000
00000010
00000000
00000000
00000000
00000100
00000000
,
00001000
00000010
00000000
00000100
00001000
00000100
00000001
00000000
,
00000011
00000001
00000000
00001000
00000010
00000100
00000000
00000010
,
00000001
00000000
00000010
00000000
00000000
00000000
00001000
00000000
00000100
00000000
00000000
01000000
00000000
00000000
00010000
00000000
,
00110000
00000000
00100000
00000000
00000000
01000000
00000000
00000000
10000000
00000000
00100000
00000000
01000000
00000000
00100000
00000000
,
00010000
00100000
10000000
00100000
00010000
00001000
00000100
00000001
,
00000010
00000100
00000000
00010000
00001000
00000100
00000000
00001000
,
00010000
00000000
00000000
01000000
00000000
00000000
00100000
00000000
00000000
01000000
00000000
00000000
10000000
00000000
00010000
00000000
,
01000000
00000000
00100000
00000000
00000000
01000000
00000000
00000000
00001000
00000000
00010000
00000000
00000000
00000000
00100000
00000000
,
00010000
00001000
00000000
00000010
00001000
00010000
00000100
00000010
,
00000001
00000100
00000000
00000010
00001000
00000100
00000000
00000010
,
00001000
00000000
00000000
00010000
00000000
00000000
00100000
00000000
00000000
10000000
00000000
00000000
01000000
00000000
00010000
00000000
,
00001000
00010000
01000000
00100000
00010000
00100000
01000000
10000000
,
00200000
00000000
00000000
00000000
01300000
00000000
00000000
01000000
00010000
00000000
00100000
00000000
00001000
00010000
00001000
00010000
,
00000020
00000001
00000000
00010030
,
02000000
10000000
00000000
03001000
,
00000200
00000001
00000000
00010300
,
00000010
00000000
00000100
00000000
00000020
00000000
00000000
00000000
00001030
00000000
00000001
00000000
00001000
00000100
00000010
00000100
,
00001000
00000000
00000000
00010100
00000000
00000000
01001000
00000000
,
00100000
01000000
10000000
01000000
00010000
10000000
00010000
00000000
,
01100000
00000000
00000000
00101000
00000000
00000000
00010010
00000000
,
00000010
00000100
00000001
00000010
00000001
00000100
00000010
00001000
,
00001100
00000000
00000000
00010100
00000000
00000000
01001000
00000000
,
01100000
00100000
10000000
01000000
00010000
01000000
00100000
00000000
,
00110000
00000000
00000000
00101000
00000000
00000000
00010010
00000000
,
00000110
00000000
00000100
00000000
00000000
00000000
00000010
00001000
00000000
00001000
00000001
00000000
00000010
00000001
00000010
00000000
,
00000001
00000010
00000100
00010000
00001000
00000100
00000010
00000001
,
00000010
00000000
00001000
00000000
00010000
00000000
01000000
00000000
00100000
01000000
00100000
01000000
00100000
01000000
00100000
01000000
,
00010000
00100000
00000000
01000000
10000000
00100000
00000000
01000000
,
00001000
00000000
00000000
00010000
00000000
00000000
00000100
00000000
00000000
00000010
00000000
00000000
00000001
00000000
00000100
00000000
,
00000010
00000000
00000000
00000100
00000000
00000000
00000001
00000000
00000010
00000000
00000100
00000000
00000001
00000000
00000100
00000000
,
00001000
00000001
00000100
00001000
00010000
00100000
10000000
00000000
,
01000000
00100000
00000000
00010000
01000000
00100000
00000000
00010000
,
00001000
00000000
00000000
00000010
00000000
00000000
00000001
00000000
00000000
00000100
00000000
00000000
00001000
00000000
00000100
00000000
,
00000010
00000000
00000100
00000000
00000000
00000001
00000000
00000000
00000100
00000000
00000010
00000000
00001000
00000000
00000100
00000000
,
00010000
00000000
00000100
00000000
00001000
00000000
00000100
00000000
00010000
00001000
00010000
00001000
00010000
00000000
00010000
00001000
,
00020000
00100000
00000000
00030100
,
00002000
01000000
00000000
00003010
,
00020000
00100000
00000000
00030010
,
00000100
00001000
00010000
00000100
00000010
00001000
00010000
00100000
01000000
00010000
00100000
01000000
00020000
00000000
00000000
00000000
,
00031000
00000000
01100000
00000000
00000000
10000000
00100000
00010000
,
00001000
00000000
00000110
00000000
00000000
00000001
00001000
00000000
,
00000010
00000000
00011000
00000000
00000000
01100000
00000000
00000000
,
10000000
01000000
00001000
00000100
00000002
00000000
00000203
00000000
,
00010300
00000000
00000110
00000000
00000000
00000001
00000010
00001000
,
00010000
00000000
01100000
00000000
00000000
10000000
00010000
00000000
,
00100000
00000000
00001010
00000000
00000000
00110000
00000000
00000000
,
00001000
00000100
00000001
00000010
00000100
00010000
01000000
10000000
,
00100000
00000000
01000000
00010000
00010000
00100000
01000000
01000000
,
10000000
01000000
00010000
00001000
00000100
00000001
00000020
00000000
,
00000031
00000000
00000000
00000010
00000000
00000000
00000100
00000000
00000000
00010000
00000000
00000000
00100000
00000000
00000000
00000000
,
01000000
00000000
00000000
00001000
00000000
00000000
00000010
00000000
00000000
00000001
00000000
00000000
00000100
00000000
00000001
00000000
,
00002010
00000000
00000000
00000000
00000000
00000000
00000000
00000000
00000000
00003000
00000000
00000000
00000000
00000000
00000000
00000000
;
