#TITLE:Dramatic;
#SUBTITLE:;
#ARTIST:Base Ball Bear;
#TITLETRANSLIT:;
#SUBTITLETRANSLIT:;
#ARTISTTRANSLIT:;
#CREDIT:348;
#BANNER:Dramatic Banner.png;
#BACKGROUND:Dramatic Background.png;
#LYRICSPATH:Dramatic.lrc;
#CDTITLE:;
#MUSIC:Dramatic.mp3;
#OFFSET:-0.910;
#SAMPLESTART:31.797;
#SAMPLELENGTH:15.000;
#SELECTABLE:YES;
#BPMS:0.000=137.000;
#STOPS:;
#BGCHANGES:;

//---------------dance-single - ----------------
#NOTES:
     dance-single:
     :
     Beginner:
     1:
     0.089,0.108,0.011,0.000,0.000: // measure 1
0000
0000
0000
0000
,  // measure 2
0000
0000
0000
0000
,  // measure 3
1000
0000
0000
0000
,  // measure 4
0001
0000
0000
0000
,  // measure 5
1000
0000
0000
0000
,  // measure 6
0001
0000
0010
0000
,  // measure 7
0001
0000
0000
0000
,  // measure 8
1000
0000
0100
0000
,  // measure 9
1000
0000
0000
0000
,  // measure 10
0010
0000
1000
0000
,  // measure 11
0010
0000
0000
0000
,  // measure 12
0100
0000
0001
0000
,  // measure 13
0100
0000
0000
0000
,  // measure 14
0001
0000
0000
0000
,  // measure 15
0000
0000
0000
0000
,  // measure 16
1000
0000
0000
0000
,  // measure 17
0000
0000
0000
0000
,  // measure 18
0010
0000
0100
0000
,  // measure 19
0010
0000
0000
0000
,  // measure 20
1000
0000
0000
0000
,  // measure 21
0001
0000
0000
0000
,  // measure 22
0100
0000
0000
0000
,  // measure 23
0001
0000
0000
0000
,  // measure 24
0100
0000
0000
0000
,  // measure 25
0010
0000
0000
0000
,  // measure 26
1000
0000
0000
0000
,  // measure 27
0001
0000
0000
0000
,  // measure 28
0001
0000
0000
0000
,  // measure 29
1000
0000
0000
0000
,  // measure 30
1000
0000
0000
0000
,  // measure 31
0010
0000
0000
0000
,  // measure 32
0010
0000
0000
0000
,  // measure 33
0100
0000
0000
0000
,  // measure 34
0100
0000
0000
0000
,  // measure 35
0001
0000
1000
0000
,  // measure 36
0001
0000
0000
0000
,  // measure 37
0100
0000
0010
0000
,  // measure 38
0100
0000
0000
0000
,  // measure 39
0001
0000
0000
0000
,  // measure 40
1000
0000
0000
0000
,  // measure 41
0010
0000
0100
0000
,  // measure 42
0010
0000
0000
0000
,  // measure 43
0100
0000
0000
0000
,  // measure 44
0010
0000
0000
0000
,  // measure 45
1000
0000
0001
0000
,  // measure 46
1000
0000
0000
0000
,  // measure 47
0010
0000
0000
0000
,  // measure 48
1000
0000
0000
0000
,  // measure 49
0001
0000
1001
0000
;

//---------------dance-single - ----------------
#NOTES:
     dance-single:
     :
     Easy:
     3:
     0.247,0.272,0.078,0.200,0.000: // measure 1
0000
0000
0000
0000
,  // measure 2
0000
0000
0000
0000
,  // measure 3
1000
0000
0000
0000
0001
0000
0000
0001
,  // measure 4
0000
0000
0000
0000
1000
0000
0000
1000
,  // measure 5
0000
0000
1000
0001
,  // measure 6
1000
0100
0010
0100
,  // measure 7
2000
0000
0000
3000
,  // measure 8
0001
0010
0100
0010
,  // measure 9
0002
0000
0000
0003
,  // measure 10
1000
0000
0001
0100
,  // measure 11
0011
0000
1000
0000
,  // measure 12
0001
0000
1000
0010
,  // measure 13
1100
0000
0001
0000
,  // measure 14
2000
0000
3000
0200
,  // measure 15
0000
0300
1000
0001
,  // measure 16
0002
0000
0003
0020
,  // measure 17
0000
0030
0001
1000
,  // measure 18
1001
0000
0110
0000
,  // measure 19
1000
0100
1000
0100
,  // measure 20
1000
0000
0001
0010
,  // measure 21
0001
0010
0001
0010
,  // measure 22
0001
0000
1000
0100
,  // measure 23
1000
0100
0010
0001
,  // measure 24
1000
0000
0001
1000
,  // measure 25
0001
0010
0100
1000
,  // measure 26
0001
0000
1000
0001
,  // measure 27
1010
0000
1000
0010
,  // measure 28
0100
0010
1000
0001
,  // measure 29
0101
0000
0001
0100
,  // measure 30
0010
0100
0001
1000
,  // measure 31
0002
0003
2000
3000
,  // measure 32
0010
0100
0010
0100
,  // measure 33
0020
0000
0000
0030
,  // measure 34
0200
0000
0000
0300
,  // measure 35
0001
0010
0001
1000
,  // measure 36
0000
1000
0001
0100
,  // measure 37
0010
1000
0100
1000
,  // measure 38
0000
1000
0001
0010
,  // measure 39
0200
0300
1000
1000
,  // measure 40
0020
0030
0100
0100
,  // measure 41
0002
0000
1003
0000
,  // measure 42
2000
0000
3001
0000
,  // measure 43
0001
1000
0001
1000
,  // measure 44
0001
0100
0010
1000
,  // measure 45
0002
0000
0000
0003
,  // measure 46
2000
0000
0100
3100
,  // measure 47
0010
0000
0000
0000
0001
0000
0000
0001
,  // measure 48
0000
0000
0000
0000
1000
0000
0000
1000
,  // measure 49
0000
0000
0100
0000
2002
0000
0000
3003
;

//---------------dance-single - ----------------
#NOTES:
     dance-single:
     :
     Medium:
     5:
     0.371,0.381,0.401,0.200,0.000: // measure 1
0000
0000
0000
0000
,  // measure 2
0000
0000
0000
0000
,  // measure 3
1000
0000
0100
0000
1000
0001
0000
0010
,  // measure 4
0000
0001
0000
0000
1000
0100
0000
0010
,  // measure 5
0000
0001
1000
0000
0001
0000
0100
0000
,  // measure 6
0020
0100
0130
0000
,  // measure 7
1100
0000
0001
0011
,  // measure 8
2000
0001
3001
0000
,  // measure 9
0101
0000
0010
1010
,  // measure 10
0002
0000
1003
0100
,  // measure 11
0001
0100
1000
0110
,  // measure 12
2000
0000
3001
0010
,  // measure 13
1000
0010
0001
0110
,  // measure 14
1001
0000
0000
1001
0000
0000
2002
0000
,  // measure 15
3003
0101
1010
1001
,  // measure 16
0110
0000
0000
0110
0000
0000
0220
0000
,  // measure 17
0330
0011
1100
0110
,  // measure 18
1000
0100
0000
0001
0100
0000
1001
0000
,  // measure 19
1000
0000
1000
0000
0100
0000
0001
0001
,  // measure 20
0000
0100
0100
0000
1000
0000
0001
0000
,  // measure 21
0001
0000
0001
0000
0010
0000
1000
1000
,  // measure 22
0000
0010
0010
0000
0001
0000
1000
0000
,  // measure 23
0010
0000
0010
0000
0010
0000
1000
0001
,  // measure 24
0000
1000
0001
0101
,  // measure 25
0100
0000
0100
0000
0100
0000
0001
1000
,  // measure 26
0000
0001
1000
1100
,  // measure 27
0001
0100
0001
0101
,  // measure 28
1000
0010
1000
1010
,  // measure 29
1000
0000
0000
0110
0000
0000
1000
0000
,  // measure 30
0010
0000
0000
1001
0000
0000
0100
0000
,  // measure 31
0001
1000
0010
1100
,  // measure 32
1000
0001
0100
0011
,  // measure 33
2000
0000
0000
0100
0000
0000
3100
0000
,  // measure 34
0002
0000
0000
0010
0000
0010
0013
0000
,  // measure 35
1000
0000
1100
0000
1000
0000
0001
0010
,  // measure 36
0000
0010
0001
0000
1010
0000
0001
0000
,  // measure 37
0001
0000
0011
0000
0001
0000
1000
0100
,  // measure 38
0000
0100
1000
0000
0101
0000
1000
0000
,  // measure 39
0002
0010
0100
0100
,  // measure 40
2003
0010
0010
0100
,  // measure 41
3001
0000
0000
0110
0000
0000
0001
0000
,  // measure 42
0100
0000
0000
1001
0000
0000
0010
0000
,  // measure 43
1000
0010
0100
1010
,  // measure 44
0001
0100
0010
0101
,  // measure 45
2000
3001
0020
0130
,  // measure 46
0200
0310
0002
1003
,  // measure 47
0001
0000
1000
0000
0001
0100
0000
0010
,  // measure 48
0000
0100
0000
0000
0001
0100
0000
0010
,  // measure 49
0000
1000
0001
0000
2002
0000
0000
3003
;

//---------------dance-single - ----------------
#NOTES:
     dance-single:
     :
     Hard:
     7:
     0.488,0.463,0.601,0.156,0.033: // measure 1
0000
0000
0000
0000
,  // measure 2
0000
0000
0000
0000
,  // measure 3
1001
0000
0001
0010
0000
1100
0000
0011
,  // measure 4
0000
1001
0000
1000
0100
0000
1000
0001
,  // measure 5
0000
0100
0010
0000
1001
0000
1001
0000
,  // measure 6
2000
0000
3100
0000
0010
0001
0010
0000
,  // measure 7
0001
0000
0000
0000
1000
0000
0000
0000
1000
0100
0000
0000
1000
0000
0000
0000
,  // measure 8
0002
0000
0013
0000
0100
1000
0100
0000
,  // measure 9
1000
0000
0000
0000
0001
0000
0000
0000
0001
0010
0000
0000
0001
0000
0000
0000
,  // measure 10
1000
0000
0100
0000
0100
1000
0100
0000
,  // measure 11
0010
0001
0010
0000
0001
0000
1001
0000
,  // measure 12
0001
0000
0100
0000
0010
1000
0010
0000
,  // measure 13
0100
0001
0100
0000
0010
0000
0110
0000
,  // measure 14
0110
0000
1000
1010
0000
0001
0202
0000
,  // measure 15
0300
0013
0101
1010
,  // measure 16
1001
0000
0010
0011
0000
0100
2200
0000
,  // measure 17
0300
3010
1100
0011
,  // measure 18
1000
0100
0000
0010
0001
1000
0100
1000
,  // measure 19
0001
0000
1100
0000
0101
0000
1000
0100
,  // measure 20
0000
0010
0001
0000
0110
0000
1001
0000
,  // measure 21
1000
0000
0011
0000
1010
0000
0001
0100
,  // measure 22
0000
0010
1000
0010
0000
0100
0001
0000
,  // measure 23
1100
1010
0101
0011
,  // measure 24
1000
0100
0001
0100
1000
0000
0110
0000
,  // measure 25
0001
0010
1000
0010
0001
0000
0110
0000
,  // measure 26
0101
0011
1100
1010
,  // measure 27
0001
0000
1000
0000
0001
0000
0000
0000
0001
0100
0000
0000
0001
0000
0000
0000
,  // measure 28
1000
0000
0001
0000
1000
0000
0000
0000
1000
0010
0000
0000
1000
0000
0000
0000
,  // measure 29
0002
0000
1000
1000
0000
0103
0101
0000
,  // measure 30
2000
0000
0001
0001
0000
3010
1010
0000
,  // measure 31
0001
0100
0010
0100
0001
0000
1100
0000
,  // measure 32
1000
0010
0100
0010
1000
0000
0011
0000
,  // measure 33
2000
0000
0010
0010
0000
0100
3100
0000
,  // measure 34
0002
0000
0100
0100
0000
0010
0013
0000
,  // measure 35
0011
1001
1100
1001
,  // measure 36
0001
0010
0100
0010
0001
0000
0011
0000
,  // measure 37
1010
0110
0101
0110
,  // measure 38
1000
0100
0010
0100
1000
0000
1100
0000
,  // measure 39
0010
0000
0100
0000
0010
0000
0000
0000
0010
1000
0000
0000
0010
0000
0000
0000
,  // measure 40
0100
0000
0010
0000
0100
0000
0000
0000
0100
0001
0000
0000
0100
0000
0000
0000
,  // measure 41
0020
0000
1000
1000
0000
0130
0110
0000
,  // measure 42
0200
0000
0001
0001
0000
0310
0110
0000
,  // measure 43
0010
1000
0001
0000
1000
0000
0001
0000
,  // measure 44
0100
0001
1000
0000
0001
0000
1000
0000
,  // measure 45
0001
0010
0100
0000
1000
0100
0010
0000
,  // measure 46
0001
1000
0001
0100
0010
1000
0001
1000
,  // measure 47
0001
0000
1000
0010
0000
0101
0000
1010
,  // measure 48
0000
0110
0000
0100
0001
0000
0100
0010
,  // measure 49
0000
1000
0001
0000
2002
0000
0000
3003
;

//---------------dance-single - ----------------
#NOTES:
     dance-single:
     :
     Challenge:
     9:
     0.647,0.626,0.546,0.156,0.200: // measure 1
0000
0000
0000
0000
,  // measure 2
0000
0000
0000
0000
,  // measure 3
0001
0010
0001
0000
1000
0000
0200
0000
0000
0000
1300
0100
1000
0000
0102
0000
,  // measure 4
0000
0000
0103
0001
0100
0000
0010
0000
1000
0000
0001
0000
1000
0000
2010
0000
,  // measure 5
0000
0000
3010
1000
0010
0000
0100
0000
0001
0000
1000
0000
1001
0000
0000
0000
,  // measure 6
1100
0000
0000
1000
0001
0000
0000
0000
0011
0000
0000
0100
0010
0000
0000
0000
,  // measure 7
1000
0000
0100
0000
0010
0000
0001
0000
1000
0100
0000
0000
1100
0000
0000
0000
,  // measure 8
0101
0000
0000
0100
0010
0000
0000
0000
1010
0000
0000
1000
0001
0000
0000
0000
,  // measure 9
0001
0000
0010
0000
0100
0000
1000
0000
0001
0010
0000
0000
0011
0000
0000
0000
,  // measure 10
1000
0100
1000
0100
0001
0100
1000
0000
,  // measure 11
0001
0000
0010
0000
0001
0000
0100
0000
0010
0100
0000
0000
0101
0000
0000
0000
,  // measure 12
0001
0010
0001
0010
1000
0010
0001
0000
,  // measure 13
1000
0000
0100
0000
1000
0000
0010
0000
0100
0010
0000
0000
1001
0000
0000
0000
,  // measure 14
0110
0000
1100
1100
0000
0101
0202
0000
,  // measure 15
0303
1000
0100
1100
0001
0100
0101
0000
,  // measure 16
1001
0000
0011
0011
0000
1010
2020
0000
,  // measure 17
3030
0001
0010
0011
1000
0010
1010
0000
,  // measure 18
0001
0000
1000
0000
0000
0000
1000
0001
1000
0000
0100
0000
0010
0000
0001
0000
,  // measure 19
1100
0000
0000
0000
1010
0000
0000
0000
1000
0100
1000
0000
0010
0000
0100
0000
,  // measure 20
0010
1000
0001
0100
0001
0010
1001
0000
,  // measure 21
1000
0000
0001
0010
0001
0000
1000
0000
0100
0000
0010
0000
0100
0000
1000
0000
,  // measure 22
0001
0010
0100
1000
0011
0000
0101
0000
,  // measure 23
1000
0100
0001
0100
1000
0010
0001
0020
,  // measure 24
0000
0000
1030
0010
1000
0000
0001
0000
0100
0000
0000
0000
0110
0000
0000
0000
,  // measure 25
0001
0010
1000
0010
0001
0100
1000
0200
,  // measure 26
0000
0000
0301
0100
0001
0000
1000
0000
0001
0000
0000
0000
0110
0000
0000
0000
,  // measure 27
0001
0100
0001
0010
0100
1000
0010
1000
,  // measure 28
0100
1000
0001
0010
0001
1000
0100
1000
,  // measure 29
0001
0000
1000
1100
0000
0010
1010
0000
,  // measure 30
1000
0000
0001
0011
0000
0100
0101
0000
,  // measure 31
1000
0100
1000
0000
0001
0000
0010
0000
0100
0000
0010
0000
0001
0000
1000
0000
,  // measure 32
0001
0010
0001
0000
1000
0000
0010
0000
0100
0000
0010
0000
1000
0000
0001
0000
,  // measure 33
1000
0000
0100
0010
0100
0000
1000
0000
0001
0000
0010
0100
0010
0000
0001
0000
,  // measure 34
1000
0000
0010
0100
0010
0100
0010
0000
1000
0000
0001
0100
0001
0000
1000
0000
,  // measure 35
0011
0000
0000
0000
1100
0000
0000
0000
0001
1000
0001
0000
1000
0000
0100
0000
,  // measure 36
0010
0001
0100
0010
1010
0000
0101
0000
,  // measure 37
1000
0000
0010
0100
0010
0000
1000
0000
0001
0000
1000
0000
0100
0000
1000
0000
,  // measure 38
0001
0010
0100
1001
0000
0001
0110
0000
,  // measure 39
1000
0100
0001
1000
0010
0001
1000
0100
,  // measure 40
0001
1000
0010
0001
1000
0100
0010
0001
,  // measure 41
0100
0000
0010
0110
0000
0001
1001
0000
,  // measure 42
0010
0000
0100
0110
0000
1000
1001
0000
,  // measure 43
0001
0100
0001
0000
1000
0000
0100
0000
1000
0000
0010
0000
1000
0000
0001
0000
,  // measure 44
1000
0010
1000
0000
0001
0000
0010
0000
0001
0000
0100
0000
0001
0000
1000
0000
,  // measure 45
0001
0010
0100
1000
0010
0100
0001
1000
,  // measure 46
0010
0000
1000
0000
0001
0000
0100
0000
0010
0100
0010
0100
0001
1000
0001
1000
,  // measure 47
0010
1000
0010
0000
0100
0000
0002
0000
0000
0000
0103
0001
0100
0000
1020
0000
,  // measure 48
0000
0000
0130
0001
0100
0000
0001
0000
1000
0000
0010
0000
0100
0000
0201
0000
,  // measure 49
0000
0000
0310
1000
0010
0000
0100
0000
2002
0000
0000
0000
0000
0000
3003
0000
;
