#TITLE:17才 (2011 X-edit);
#SUBTITLE:;
#ARTIST:BamBee;
#TITLETRANSLIT:17SAI (2011 X-edit);
#SUBTITLETRANSLIT:;
#ARTISTTRANSLIT:;
#CREDIT:348;
#BANNER:17SAI (2011 X-edit) Banner.png;
#BACKGROUND:17SAI (2011 X-edit) Background.png;
#LYRICSPATH:17SAI (2011 X-edit).lrc;
#CDTITLE:;
#MUSIC:17SAI (2011 X-edit).mp3;
#OFFSET:-0.267;
#SAMPLESTART:7.218;
#SAMPLELENGTH:15.000;
#SELECTABLE:YES;
#BPMS:0.000=142.000;
#STOPS:;
#BGCHANGES:;

//---------------dance-single - ----------------
#NOTES:
     dance-single:
     :
     Beginner:
     1:
     0.098,0.146,0.000,0.000,0.000: // measure 1
0000
0000
0000
0000
,  // measure 2
0000
0000
0000
0000
,  // measure 3
0000
0000
0000
0000
,  // measure 4
1000
0000
0001
0000
,  // measure 5
1000
0000
0000
0000
,  // measure 6
0001
0000
0000
0000
,  // measure 7
0001
0000
0001
0000
,  // measure 8
0010
0000
0000
0000
,  // measure 9
0010
0000
0010
0000
,  // measure 10
0000
0000
0000
0000
,  // measure 11
0100
0000
0000
0000
,  // measure 12
0100
0000
0100
0000
,  // measure 13
1000
0000
0000
0000
,  // measure 14
1000
0000
1000
0000
,  // measure 15
0001
0000
0000
0000
,  // measure 16
1000
0000
0000
0000
,  // measure 17
0010
0000
0000
0000
,  // measure 18
0100
0000
0000
0000
,  // measure 19
0010
0000
0000
0000
,  // measure 20
0100
0000
0000
0000
,  // measure 21
0001
0000
0000
0000
,  // measure 22
1000
0000
0000
0000
,  // measure 23
0001
0000
0000
0000
,  // measure 24
1000
0000
0000
0000
,  // measure 25
0001
0000
0000
0000
,  // measure 26
1000
0000
1000
0000
,  // measure 27
0001
0000
0000
0000
,  // measure 28
0100
0000
0100
0000
,  // measure 29
0010
0000
0000
0000
,  // measure 30
1000
0000
0000
0000
,  // measure 31
0000
0000
0000
0000
,  // measure 32
0001
0000
0000
0000
,  // measure 33
1000
0000
0001
0000
,  // measure 34
0100
0000
0000
0000
,  // measure 35
0000
0000
0000
0000
,  // measure 36
0010
0000
0000
0000
,  // measure 37
0100
0000
0010
0000
,  // measure 38
1000
0000
0000
0000
,  // measure 39
1000
0000
0000
0000
,  // measure 40
0001
0000
0000
0000
,  // measure 41
0001
0000
0000
0000
,  // measure 42
1000
0000
0000
0000
,  // measure 43
0001
0000
0000
0000
,  // measure 44
0100
0000
0000
0000
,  // measure 45
0010
0000
0000
0000
,  // measure 46
0100
0000
0100
0000
,  // measure 47
0010
0000
0010
0000
,  // measure 48
1000
0000
0100
0000
,  // measure 49
0010
0000
0000
0000
,  // measure 50
0001
0000
0010
0000
,  // measure 51
0100
0000
0000
0000
,  // measure 52
1000
0000
0000
0000
,  // measure 53
0100
0000
0000
0000
,  // measure 54
0010
0000
0000
0000
,  // measure 55
0001
0000
0000
0000
,  // measure 56
1000
0000
0001
0000
,  // measure 57
1000
0000
0000
0000
,  // measure 58
0010
0000
0100
0000
,  // measure 59
0010
0000
0000
0100
0000
0000
0000
0000
;

//---------------dance-single - ----------------
#NOTES:
     dance-single:
     :
     Easy:
     3:
     0.228,0.262,0.080,0.100,0.000: // measure 1
0000
0000
0000
0000
,  // measure 2
0000
0000
0000
0000
,  // measure 3
0000
0000
0000
0000
,  // measure 4
1000
0000
0001
0001
,  // measure 5
2000
0000
0000
3000
,  // measure 6
0001
0000
0010
0000
,  // measure 7
0100
0000
0000
0000
,  // measure 8
1000
0000
0100
0000
,  // measure 9
0010
0000
0001
0000
,  // measure 10
1000
0000
0000
0000
,  // measure 11
0001
0000
1000
0000
,  // measure 12
0010
0000
0000
0000
,  // measure 13
0010
0000
1000
0000
,  // measure 14
0001
0000
0000
0000
,  // measure 15
1000
0000
0100
0000
,  // measure 16
1000
0000
0100
0000
,  // measure 17
0010
0000
0001
0000
,  // measure 18
0010
0000
0001
0000
,  // measure 19
1000
0100
1000
0000
,  // measure 20
0001
0010
0001
0000
,  // measure 21
1000
0000
0001
0000
,  // measure 22
1000
0010
0100
0001
,  // measure 23
2000
0000
3001
0000
,  // measure 24
0011
0000
1100
0000
,  // measure 25
2002
0000
3003
0000
,  // measure 26
0001
0000
1000
0000
,  // measure 27
0010
0000
0100
0000
,  // measure 28
0001
1000
0010
0100
,  // measure 29
0002
0000
1003
0000
,  // measure 30
1000
0000
0010
0000
,  // measure 31
1000
0010
1000
0010
,  // measure 32
0100
0000
0001
0000
,  // measure 33
0100
0001
0100
0001
,  // measure 34
1000
0000
0001
0000
,  // measure 35
1000
0100
0010
0001
,  // measure 36
1000
0000
0001
0000
,  // measure 37
1001
0000
0110
0000
,  // measure 38
1000
0001
1000
0001
,  // measure 39
0200
0000
0010
0310
,  // measure 40
0001
0010
0100
1000
,  // measure 41
0020
0000
1030
0000
,  // measure 42
1000
0010
0100
0001
,  // measure 43
0200
0000
0301
0000
,  // measure 44
1000
0001
1000
0100
,  // measure 45
1000
0000
0101
0000
,  // measure 46
0001
1000
0001
0010
,  // measure 47
0001
0000
1010
0000
,  // measure 48
0001
0010
0001
0010
,  // measure 49
0001
0100
0002
0000
,  // measure 50
1003
0100
1000
0100
,  // measure 51
1000
0010
2000
0000
,  // measure 52
3001
0000
0100
0000
,  // measure 53
0010
0000
1000
0000
,  // measure 54
0001
0100
0010
1000
,  // measure 55
0001
0000
0110
0000
,  // measure 56
1000
0001
1000
0000
,  // measure 57
0010
0100
0010
0000
,  // measure 58
1000
0100
0010
0001
,  // measure 59
1000
0000
0000
0001
0000
0000
0000
0000
;

//---------------dance-single - ----------------
#NOTES:
     dance-single:
     :
     Medium:
     4:
     0.279,0.291,0.100,0.130,0.000: // measure 1
0000
0000
0000
0000
,  // measure 2
0000
0000
0000
0000
,  // measure 3
0000
0000
0000
0000
,  // measure 4
1000
0100
0010
0001
,  // measure 5
2002
0000
0000
3003
,  // measure 6
1000
0000
0001
0010
,  // measure 7
0001
0000
1000
0000
,  // measure 8
0001
0000
1000
0100
,  // measure 9
1000
0000
0000
0001
0001
0000
0000
1000
,  // measure 10
1000
0000
0001
0000
,  // measure 11
0001
0000
0100
1000
,  // measure 12
0100
0000
0001
0000
,  // measure 13
1000
0000
0100
0001
,  // measure 14
0100
0000
1000
0001
,  // measure 15
1000
0100
0100
1000
,  // measure 16
0002
0000
0010
0013
,  // measure 17
0001
0010
0010
0001
,  // measure 18
2000
0000
0100
3100
,  // measure 19
0010
0000
0101
0000
,  // measure 20
0100
0000
1010
0000
,  // measure 21
0001
0010
0100
1000
,  // measure 22
0010
0100
0001
1000
,  // measure 23
0220
0000
0000
0330
,  // measure 24
0001
1000
0001
1000
,  // measure 25
0020
0000
0100
0130
,  // measure 26
0100
0000
0001
1000
,  // measure 27
0001
0000
0100
0000
,  // measure 28
0010
1000
0001
0100
,  // measure 29
0002
0000
1000
1003
,  // measure 30
1000
0000
0001
0000
,  // measure 31
1000
0000
0100
0000
1000
1000
1000
0000
,  // measure 32
0001
0000
1000
0000
,  // measure 33
0001
0001
0001
0000
1000
0000
0001
0000
,  // measure 34
0100
0000
0010
0000
,  // measure 35
0100
0010
0100
0010
,  // measure 36
1000
0000
0001
0000
,  // measure 37
1000
0001
0100
0110
,  // measure 38
0010
0100
0010
0100
,  // measure 39
0002
0000
1000
1003
,  // measure 40
1000
0000
0001
0100
,  // measure 41
0010
0000
0100
0000
,  // measure 42
0001
0000
1000
0010
,  // measure 43
0100
0000
0010
0000
,  // measure 44
1000
0001
0001
1000
,  // measure 45
0020
0000
0000
1000
1030
0000
0000
0000
,  // measure 46
0001
0100
0001
0010
,  // measure 47
0001
0000
1000
0101
,  // measure 48
0100
0010
0010
0100
,  // measure 49
0002
0000
0000
0100
0103
0000
0000
0000
,  // measure 50
0100
0010
1000
0100
,  // measure 51
1000
0000
0001
1010
,  // measure 52
0001
0001
1000
1000
,  // measure 53
0020
0000
1000
1000
,  // measure 54
0130
0100
0010
0010
,  // measure 55
0200
0000
0001
0001
,  // measure 56
0310
1000
0100
1000
,  // measure 57
0001
0000
0110
0000
,  // measure 58
1000
0001
0010
0001
,  // measure 59
1001
0000
0000
1001
0000
0000
0000
0000
;

//---------------dance-single - ----------------
#NOTES:
     dance-single:
     :
     Hard:
     7:
     0.487,0.437,0.369,0.160,0.000: // measure 1
0000
0000
0000
0000
,  // measure 2
0000
0000
0000
0000
,  // measure 3
0000
0000
0000
0000
,  // measure 4
1000
0000
0001
0010
0001
0000
1000
0000
,  // measure 5
0020
0000
0000
0000
0130
0010
0100
0000
,  // measure 6
0001
0000
1000
0000
0010
1000
0000
0001
,  // measure 7
0000
1000
0100
0010
0001
0000
0110
0000
,  // measure 8
0100
0000
0010
0000
1000
0010
0000
2000
,  // measure 9
0000
0000
0000
3001
0010
0001
0100
0001
,  // measure 10
1000
1001
0001
1001
,  // measure 11
0001
0000
1000
0000
0010
0100
0000
0001
,  // measure 12
0000
1000
0100
0001
0100
0000
1001
0000
,  // measure 13
1000
0100
1000
0010
1000
0001
1000
0010
,  // measure 14
1000
0110
0001
0110
,  // measure 15
1000
0000
0100
0000
0100
1000
0000
0001
,  // measure 16
0000
0100
0001
0100
0000
0010
1000
0000
,  // measure 17
0001
0000
0010
0000
0010
0001
0000
1000
,  // measure 18
0000
0010
1000
0010
0000
0100
0001
0100
,  // measure 19
0001
0000
1000
0100
0010
0000
0010
0100
,  // measure 20
1000
0000
0001
0100
0010
0000
0010
0100
,  // measure 21
0001
0000
1000
0100
0010
0100
1000
0000
,  // measure 22
0010
0000
0100
0001
1000
0001
0100
0000
,  // measure 23
0002
0000
1003
0100
1000
0000
1001
0000
,  // measure 24
2000
0000
3001
0010
0000
0010
0001
0000
,  // measure 25
1000
1100
0001
0011
,  // measure 26
1000
0000
1000
0000
0001
0010
0000
1000
,  // measure 27
0000
0010
0001
0000
1100
0000
0011
0000
,  // measure 28
0110
0000
1000
0100
0010
0001
1000
0001
,  // measure 29
0100
0010
0100
0001
2000
0000
3001
0000
,  // measure 30
0002
0000
1003
0000
1000
0100
0010
0000
,  // measure 31
0020
0000
0130
0000
1000
0001
0100
0001
,  // measure 32
0000
1000
0001
0000
1100
0000
0101
0000
,  // measure 33
1000
0100
0001
0000
0001
0100
1000
0000
,  // measure 34
0001
0000
1000
0000
0010
0100
0010
0000
,  // measure 35
0100
1001
0010
1001
,  // measure 36
1000
0001
0100
0000
0100
0001
1000
0000
,  // measure 37
0010
1000
0001
1000
0020
0000
0130
0000
,  // measure 38
0002
0000
1003
0100
0000
0100
1000
0000
,  // measure 39
0010
1010
0100
0101
,  // measure 40
0110
0000
0001
0100
0010
0000
0010
0100
,  // measure 41
0000
0001
1000
0000
0011
0000
1010
0000
,  // measure 42
1001
0000
1000
0001
0010
0000
0100
1000
,  // measure 43
0000
0001
1000
0000
0010
0100
0010
0000
,  // measure 44
1000
0000
0001
0010
0100
0010
0001
1000
,  // measure 45
0000
0001
1000
0000
0011
0000
1100
0000
,  // measure 46
0002
1003
2000
3010
,  // measure 47
0020
0100
0130
0000
1010
0000
0101
0000
,  // measure 48
0001
0000
1000
0010
0100
0010
1000
0001
,  // measure 49
0000
0100
0010
0000
1010
0000
1100
0000
,  // measure 50
0020
0130
0200
0301
,  // measure 51
0002
1000
1003
0000
0011
0000
0101
0000
,  // measure 52
1000
0000
0001
0000
1001
0000
1000
0100
,  // measure 53
0000
0001
0100
0000
1100
0000
0101
0000
,  // measure 54
0110
1000
1001
0001
,  // measure 55
0110
0000
0000
1001
0000
0100
0010
0100
,  // measure 56
0001
0000
1000
0100
0001
0000
0100
1000
,  // measure 57
0000
0001
0000
1000
0100
0010
0100
1000
,  // measure 58
0001
0010
1000
0010
0001
0100
1000
0100
,  // measure 59
0002
0000
1000
1003
0000
0000
0000
0000
;

//---------------dance-single - ----------------
#NOTES:
     dance-single:
     :
     Challenge:
     9:
     0.643,0.611,0.160,0.190,0.219: // measure 1
0000
0000
0000
0000
,  // measure 2
0000
0000
0000
0000
,  // measure 3
0000
0000
0000
0000
,  // measure 4
1000
0000
0000
1000
0001
0000
0100
0000
0010
0000
0000
0100
0010
0000
2000
0000
,  // measure 5
0002
0000
0000
0000
3003
0000
0000
0000
0100
0010
0100
0010
0100
0000
0000
0000
,  // measure 6
0001
0000
0000
1000
0001
0000
1000
0000
0100
0000
0000
0010
0001
0000
0100
0000
,  // measure 7
0010
0000
0000
1000
0100
0000
1000
0000
0001
0000
0010
0000
0001
0000
1000
0000
,  // measure 8
0001
0100
1000
0100
0001
0010
1000
0010
,  // measure 9
0001
0000
1000
0010
1000
0000
0001
0000
1000
0000
0001
0100
0001
0000
1000
0000
,  // measure 10
0010
0000
0100
0010
0100
0000
0010
0100
0010
0000
1000
0000
0001
0000
0100
0000
,  // measure 11
0010
0000
0000
0100
0001
0000
1000
0000
0001
0000
0000
1000
0010
0000
0100
0000
,  // measure 12
0010
0000
0000
0100
0001
0000
0010
0000
0100
0000
1000
0000
0010
0000
0100
0000
,  // measure 13
0001
1000
0100
1000
0010
0100
0001
0010
,  // measure 14
0001
0000
1000
0000
0001
0000
1000
0000
0010
0100
0010
0100
0010
0000
1000
0000
,  // measure 15
0002
0000
1003
0100
0020
0000
0130
1000
,  // measure 16
0001
0100
0010
0100
0000
0010
0100
0010
,  // measure 17
2000
0000
3001
0010
0200
0000
0310
0001
,  // measure 18
1000
0100
0010
0100
0000
0010
0100
0010
,  // measure 19
0001
0000
0000
1000
0100
0000
0100
0000
1000
0000
0000
0001
0010
0000
0010
0000
,  // measure 20
0001
0000
0000
1000
0010
0000
0010
0000
1000
0000
0000
0001
0100
0000
0100
0000
,  // measure 21
0001
0000
1000
0100
0010
0000
0001
0000
1000
0000
0100
0000
1000
0000
0100
0000
,  // measure 22
1000
0000
0001
0010
0100
0000
1000
0000
0001
0000
0010
0000
0001
0000
0010
0000
,  // measure 23
0002
0000
0000
0000
1003
0000
0000
0000
1000
0001
1000
0001
1000
0000
0001
0000
,  // measure 24
1000
0100
0001
0100
1000
0100
0010
0001
,  // measure 25
0100
0010
1000
1001
0000
0001
1001
0000
,  // measure 26
0011
0000
1100
0000
0001
0010
1000
0010
,  // measure 27
0000
0001
0001
0000
1010
0000
0101
0000
,  // measure 28
1000
0100
0010
0001
0100
0010
0100
0001
,  // measure 29
0010
0000
0100
0000
1000
0000
0001
0000
1000
0010
1000
0010
1000
0000
0100
0000
,  // measure 30
1000
0000
0000
1000
0010
0000
0010
0000
0100
0000
0000
0100
0001
0000
0001
0000
,  // measure 31
1000
0010
0001
0010
1000
0010
0100
0001
,  // measure 32
1000
0000
0000
0000
0110
0000
0000
0001
1000
0000
0001
0000
0100
0000
0010
0000
,  // measure 33
0100
0010
0110
0000
0001
1000
1001
0000
,  // measure 34
0001
0000
0000
0001
0010
0000
0010
0000
0100
0000
0000
0100
1000
0000
1000
0000
,  // measure 35
0001
0100
1000
0100
0001
0010
1000
0010
,  // measure 36
0001
0000
0000
1000
0001
0000
1000
0000
0010
0000
0000
0100
0010
0000
0100
0000
,  // measure 37
0001
0000
0000
0100
0010
0000
1000
0000
0001
0100
0001
0100
0001
0000
0000
0000
,  // measure 38
0110
0000
1000
0200
0000
0310
0001
0020
,  // measure 39
0000
0130
1000
0001
0010
1000
0010
0001
,  // measure 40
1000
0000
0000
0001
0010
0000
0001
0000
1000
0000
0000
0000
1000
0000
0001
0000
,  // measure 41
0010
0000
0000
0100
1000
0000
0010
0000
1000
0000
0000
0000
1000
0000
0001
0000
,  // measure 42
0010
0000
0001
0000
0010
0000
0001
0000
1000
0100
1000
0000
0001
0000
0000
0000
,  // measure 43
1000
0000
0100
0000
1000
0000
0100
0000
0010
0001
0010
0000
0001
0000
0000
0000
,  // measure 44
0110
0000
1000
0100
0001
0100
1000
0200
,  // measure 45
0000
0310
0001
0010
0100
0010
0001
1000
,  // measure 46
0002
0203
0320
2030
,  // measure 47
3010
0000
1000
0000
0001
0000
1000
0100
1000
0000
0001
0010
0001
0000
1000
0000
,  // measure 48
0001
0000
1000
0100
0010
0100
0001
0100
,  // measure 49
0000
0010
1000
0010
0100
0010
0001
1000
,  // measure 50
0020
0000
2030
0001
3002
0000
0203
0000
,  // measure 51
0301
0000
0010
0000
0001
0000
0100
0000
0010
1000
0010
1000
0010
0000
1000
0000
,  // measure 52
0011
0000
1010
0000
0001
0100
0010
0100
,  // measure 53
0000
0010
0100
0010
1100
0000
0101
0000
,  // measure 54
1000
0100
0010
0001
0100
0010
0100
0001
,  // measure 55
2000
0000
0000
0001
0000
3001
0100
0001
,  // measure 56
1000
0100
0001
0100
1000
0010
0001
0010
,  // measure 57
1000
0100
0001
0100
1000
0010
0001
0010
,  // measure 58
1000
0100
0010
0100
1000
0001
0010
0001
,  // measure 59
1000
0010
0100
1001
0000
0000
0000
0000
;

//---------------dance-single - ----------------
#NOTES:
     dance-single:
     :
     Edit:
     7:
     0.413,0.408,0.569,0.209,0.000: // measure 1
0000
0000
0000
0000
,  // measure 2
0000
0000
0000
0000
,  // measure 3
0000
0000
0000
0000
,  // measure 4
1001
MMMM
0110
MMMM
,  // measure 5
1001
0000
MMMM
0000
1000
0001
2000
0000
,  // measure 6
3001
0000
1000
0100
0010
0000
0100
1000
,  // measure 7
0000
MMMM
1100
1010
,  // measure 8
0110
0000
0001
0100
0010
0000
0100
0001
,  // measure 9
0000
MMMM
1001
MMMM
,  // measure 10
0110
0000
MMMM
0000
0100
0010
0200
0000
,  // measure 11
0310
0000
1000
0000
0001
0010
0000
1000
,  // measure 12
0000
0010
0001
0000
0011
0000
0101
0000
,  // measure 13
1100
MMMM
0101
MMMM
,  // measure 14
2000
3100
0020
0031
,  // measure 15
0011
MMMM
1100
MMMM
,  // measure 16
1000
0100
1000
0010
0000
0100
0001
0000
,  // measure 17
1010
MMMM
0101
MMMM
,  // measure 18
0001
0100
0010
0100
0000
0010
1000
0000
,  // measure 19
0101
MMMM
0011
MMMM
,  // measure 20
2010
3100
0012
0103
,  // measure 21
1100
MMMM
1010
MMMM
,  // measure 22
0002
0013
0200
1300
,  // measure 23
2002
0000
3003
MMMM
,  // measure 24
1000
0100
0010
0001
0000
1000
0001
0000
,  // measure 25
0110
0000
1001
0000
0001
0010
0001
0000
,  // measure 26
1100
MMMM
1010
MMMM
,  // measure 27
0101
MMMM
0011
MMMM
,  // measure 28
2000
0000
3001
0010
0001
0100
0001
1000
,  // measure 29
0002
1000
0100
0013
,  // measure 30
MMMM
0101
MMMM
1001
,  // measure 31
1000
0000
0001
0000
1000
0001
1000
0000
,  // measure 32
MMMM
1010
MMMM
1001
,  // measure 33
1000
0100
1000
0000
0001
0010
0001
0000
,  // measure 34
MMMM
0110
MMMM
1001
,  // measure 35
0100
0000
0010
0000
0100
0010
0100
0000
,  // measure 36
1001
MMMM
0110
MMMM
,  // measure 37
1001
0110
0110
1001
,  // measure 38
1000
0000
0001
0100
0000
0010
1000
0000
,  // measure 39
0002
0000
2003
0000
3001
1000
0001
0000
,  // measure 40
0100
0000
0010
1000
0010
0000
0100
0000
,  // measure 41
0011
MMMM
0001
1001
,  // measure 42
0020
0000
0230
0000
0310
0100
0010
0000
,  // measure 43
1010
MMMM
1000
1001
,  // measure 44
0001
0000
MMMM
0000
1000
0100
1000
0010
,  // measure 45
0000
0100
0001
0000
1000
0000
0110
0000
,  // measure 46
0001
MMMM
1000
MMMM
,  // measure 47
2002
0000
3003
0000
1000
0001
1000
0000
,  // measure 48
0010
0000
MMMM
0000
1000
0001
0010
0001
,  // measure 49
0000
1000
0100
0000
1000
0000
0110
0000
,  // measure 50
2000
0000
3002
0000
0103
0010
0100
0000
,  // measure 51
0101
MMMM
0100
0110
,  // measure 52
0010
0000
0100
0001
0100
0000
0010
0000
,  // measure 53
1100
MMMM
0010
0110
,  // measure 54
2000
0100
0010
3001
,  // measure 55
1001
MMMM
MMMM
1001
,  // measure 56
1000
0000
0100
0000
1000
0100
0010
0001
,  // measure 57
0000
1000
0001
0000
1001
0000
MMMM
0000
,  // measure 58
1000
0000
0001
0010
0001
0010
0001
0000
,  // measure 59
0110
MMMM
0000
1001
0000
0000
0000
0000
;
