#TITLE:SHANGRI-LA;
#SUBTITLE:;
#ARTIST:BeForU;
#TITLETRANSLIT:;
#SUBTITLETRANSLIT:;
#ARTISTTRANSLIT:;
#CREDIT:hooky;
#MENUCOLOR:#FF00FF;
#BANNER:SHANGRI-LA.png;
#BACKGROUND:SHANGRI-LA-bg.png;
#LYRICSPATH:;
#CDTITLE:;
#MUSIC:SHANGRI-LA.ogg;
#OFFSET:0.350;
#SAMPLESTART:21.080;
#SAMPLELENGTH:21.980;
#SELECTABLE:YES;
#DISPLAYBPM:123.000;
#BPMS:0.000=122.990;
#STOPS:;
#BGCHANGES:1.000=[Nearly 130] SHANGRI-LA.avi=1.000=0=0=0,
99999=-nosongbg-=1.000=0=0=0 // don't automatically add -songbackground-
;

//---------------dance-single - hooky----------------
#NOTES:
     dance-single:
     hooky:
     Hard:
     6:
     0.396,0.437,0.357,0.182,0.023: // measure 1
0000
0000
0000
0000
,  // measure 2
0000
0000
0000
0000
,  // measure 3
0000
0000
0000
0000
,  // measure 4
1000
0100
1000
0000
0011
0000
1100
0000
,  // measure 5
0010
0100
0000
0100
0010
0000
0110
0000
,  // measure 6
1000
0100
1000
0000
0001
0010
0001
0000
,  // measure 7
0100
0010
0100
0000
1100
0000
0011
0000
,  // measure 8
0001
0010
0001
0000
1100
0000
0011
0000
,  // measure 9
0100
0010
0000
0010
0100
0000
0110
0000
,  // measure 10
0001
0010
0001
0000
1000
0100
1000
0000
,  // measure 11
0010
0100
0010
0000
0011
0000
1100
0000
,  // measure 12
0110
1001
0110
0000
,  // measure 13
1000
1000
0000
0020
0000
0000
0030
0000
,  // measure 14
1000
0010
0100
0000
0001
0010
0100
0000
,  // measure 15
0100
0000
0010
0000
1000
0100
1000
0000
,  // measure 16
0010
0001
0020
1030
,  // measure 17
0100
0010
0100
0000
0200
0000
0310
0000
,  // measure 18
0001
0010
0001
0000
2000
0000
3100
0000
,  // measure 19
0010
0100
0010
0000
0002
0000
0103
0000
,  // measure 20
1100
0100
0011
0010
,  // measure 21
0100
0010
0000
0110
0000
0100
0010
0000
,  // measure 22
1000
0100
1000
0000
0010
0001
0010
0000
,  // measure 23
0100
0000
0110
0000
0010
0100
0010
0000
,  // measure 24
1000
0100
1000
0100
0010
0000
0010
0000
,  // measure 25
0100
0010
0100
0010
0001
0000
0001
0000
,  // measure 26
1000
0100
1000
0100
0010
0000
0010
0000
,  // measure 27
0001
0010
0100
0010
0100
0000
1000
0000
,  // measure 28
1100
0110
1100
0110
,  // measure 29
0011
0110
0011
0110
,  // measure 30
1001
0110
1001
0110
,  // measure 31
1010
0101
1010
0101
,  // measure 32
1000
0100
1000
0000
0010
0000
0010
0000
,  // measure 33
0010
0001
0010
0000
2200
0000
3300
0000
,  // measure 34
0010
0100
0010
0100
0001
0000
0001
0000
,  // measure 35
1000
0100
0010
0100
0220
0000
0330
0000
,  // measure 36
1000
0000
0100
0000
1000
0000
0100
0000
0010
0000
0000
0010
0000
0000
0000
0000
,  // measure 37
0001
1000
0100
0010
0022
0000
0033
0000
,  // measure 38
1000
0000
0100
0000
1000
0000
0100
0000
0010
0000
0000
0100
0000
0000
0000
0220
,  // measure 39
0000
0000
0000
0000
0330
0000
0000
2002
0000
0000
0000
0000
3003
0000
0000
0000
,  // measure 40
1000
0100
1000
0100
1000
0000
0100
0000
,  // measure 41
0010
0001
0000
0020
0000
0000
0130
0000
,  // measure 42
0100
0010
0100
1000
0100
0010
0100
1000
,  // measure 43
0000
0000
0100
0000
0010
0100
0010
0000
,  // measure 44
0001
1000
0100
0010
0100
0000
0100
0000
,  // measure 45
0010
0001
0010
0001
1000
0000
0100
0000
,  // measure 46
1000
0100
0010
0100
1000
0000
1000
0000
,  // measure 47
0001
0010
0100
0010
0001
0000
0100
0000
,  // measure 48
0110
1001
0110
0000
,  // measure 49
1000
0100
0000
0022
0000
0000
0033
0000
,  // measure 50
1000
0100
0010
0000
0001
0010
0100
0000
,  // measure 51
0100
0000
0010
0000
0100
0010
0100
0000
,  // measure 52
1001
0110
1001
0000
,  // measure 53
0001
0010
0000
2200
0000
0000
3300
0000
,  // measure 54
0001
0010
0100
0000
1000
0100
0010
0000
,  // measure 55
0010
0000
0100
0000
0010
0100
0010
0000
,  // measure 56
1000
0100
1000
0000
0010
0001
0010
0000
,  // measure 57
1000
0010
0100
0000
0001
0100
0010
0000
,  // measure 58
1000
0100
0010
0000
0001
0010
0100
0000
,  // measure 59
0010
0100
0010
0000
1000
0001
1000
0000
,  // measure 60
2000
0000
0000
0000
,  // measure 61
0000
3000
0010
0100
,  // measure 62
0002
0000
0000
0000
0003
0100
0000
1000
,  // measure 63
0100
0000
0000
0010
0000
0000
0100
0000
0001
0000
0000
1000
0000
0000
0100
0000
,  // measure 64
0220
0000
0000
0000
,  // measure 65
0330
0000
0000
0000
;

//---------------dance-single - hooky----------------
#NOTES:
     dance-single:
     hooky:
     Medium:
     4:
     0.241,0.267,0.083,0.106,0.000:
0000
0000
0000
0000
,
0000
0000
0000
0000
,
0000
0000
0000
0000
,
1000
1000
0100
0010
,
0001
1000
0000
0100
0010
0000
0010
0000
,
1000
0100
1000
0001
,
0100
0010
1000
0100
,
0010
0010
0010
0100
,
0010
1000
0000
1000
0001
0000
0100
0000
,
0001
0100
0001
0100
,
0010
1000
0010
1000
,
0110
1001
0110
0000
,
2000
0000
0000
0002
0000
0000
3003
0000
,
1000
1000
0100
0100
,
1000
1000
0010
0010
,
0001
0100
0001
0000
,
1000
0100
1000
0000
,
0010
0100
0001
0001
,
1000
0100
0010
0000
,
1001
0110
1001
0000
,
0200
0000
0000
0020
0000
0000
0330
0000
,
0001
0001
1000
1000
,
0100
0000
1000
0000
,
0010
0100
0001
0000
,
0001
1000
0100
0000
,
1000
0010
0100
0000
,
0001
0010
0100
0000
,
0001
1000
0001
0000
,
0100
0010
0100
0000
,
1000
1000
0100
0100
,
0010
0010
0002
0003
,
0100
0100
0010
0000
,
1000
1000
0100
0000
,
0010
0010
0100
0000
,
0001
0001
2002
3003
,
0010
0010
0100
0100
,
1000
0000
0100
1000
0100
0000
0010
0000
,
0001
0100
0001
0010
,
2002
0000
0000
0000
0000
0000
0000
3003
,
1000
1000
1000
0110
,
0001
1000
0000
1000
0001
0000
0101
0000
,
0010
1000
0100
1000
,
0020
0000
2000
3030
,
0100
0001
0010
0000
,
1000
0100
0010
0000
,
0001
0100
0010
0000
,
1000
0100
1000
0000
,
0010
0100
0010
0000
,
1000
0001
1000
0000
,
0010
0100
0010
0000
,
1000
0100
1000
0000
,
0010
0010
0010
0000
,
0001
1000
0001
0000
,
1000
1000
1000
0000
,
0100
0010
0100
0000
,
0010
1000
0100
1000
,
0010
0100
0001
0010
,
0001
0100
0010
0010
,
1000
0100
1000
0010
,
2000
0000
0000
0000
,
0000
3000
0001
0100
,
0010
0000
0000
1000
,
0010
0000
1000
0000
,
2002
0000
0000
0000
,
3003
0000
0000
0000
;

//---------------dance-single - hooky----------------
#NOTES:
     dance-single:
     hooky:
     Easy:
     2:
     0.153,0.219,0.038,0.121,0.000:
0000
0000
0000
0000
,
0000
0000
0000
0000
,
0000
0000
0000
0000
,
1000
1000
1000
0000
,
0001
0000
0100
0000
,
0010
0010
0010
0000
,
1000
0000
0100
0000
,
1000
1000
1000
0000
,
0010
0000
0001
0000
,
0100
0000
0010
0000
,
0100
0000
0010
0000
,
1000
0100
1100
0000
,
0022
0000
0000
0033
,
0100
0010
0100
0000
,
0001
0100
0001
0000
,
1000
0100
0010
0000
,
0001
0010
0100
0000
,
0100
0010
1000
0100
,
2000
0000
0002
3003
,
0100
0100
0010
0000
,
0220
0000
0000
0330
,
1000
0100
1000
0000
,
0001
0010
0001
0000
,
0100
0000
0100
0000
,
0010
0000
0010
0000
,
1000
0000
1000
0000
,
0001
0000
0001
0000
,
0200
0000
0000
0300
,
0020
0000
0000
0030
,
2000
0000
0000
3000
,
0002
0000
0000
0003
,
0100
0000
0100
0000
,
0010
0000
0000
0000
,
0001
0000
0001
0000
,
1000
0000
0000
0000
,
0100
0000
0100
0000
,
0010
0000
0010
0000
,
0001
0000
1000
0000
,
2002
0000
0000
3003
,
0100
0000
0010
0000
,
0100
0010
0100
0000
,
0001
0000
1000
0000
,
0100
0000
1000
0000
,
0010
1000
0010
0000
,
0001
0100
0001
0000
,
1000
0100
1000
0000
,
0010
0100
0001
0000
,
0010
0000
0010
0000
,
0100
0000
0100
0000
,
1000
0000
1000
0000
,
0001
0000
0001
0000
,
1000
0000
0010
0000
,
1000
0000
0010
0000
,
0100
0000
0001
0000
,
0100
0000
0001
0000
,
2000
0000
0000
0000
,
0000
0000
0000
3000
,
0002
0000
0000
0000
,
0000
0000
0000
0003
,
0100
0000
0000
0000
,
0000
0000
0010
0000
,
1000
0000
0000
0000
,
0001
0000
0000
0000
,
2002
0000
0000
0000
,
3003
0000
0000
0000
;

//---------------dance-single - hooky----------------
#NOTES:
     dance-single:
     hooky:
     Beginner:
     1:
     0.031,0.072,0.008,0.000,0.000:
0000
0000
0000
0000
,
0000
0000
0000
0000
,
0000
0000
0000
0000
,
1000
0000
0000
0000
,
0000
0000
0000
0000
,
0001
0000
0000
0000
,
0000
0000
0000
0000
,
1000
0000
0000
0000
,
0000
0000
0000
0000
,
0001
0000
0000
0000
,
0000
0000
0000
0000
,
1000
0000
0000
0000
,
0000
0000
0000
0000
,
0001
0000
0000
0000
,
0000
0000
0000
0000
,
0000
0000
0000
0000
,
0000
0000
0000
0000
,
0000
0000
0000
0000
,
0000
0000
0000
0000
,
1000
0000
0000
0000
,
0000
0000
0000
0000
,
0001
0000
0000
0000
,
0000
0000
0000
0000
,
0000
0000
0000
0000
,
0000
0000
0000
0000
,
0000
0000
0000
0000
,
0000
0000
0000
0000
,
1000
0000
0000
0000
,
0000
0000
0000
0000
,
0000
0000
0000
0000
,
0000
0000
0000
0000
,
1000
0000
0000
0000
,
0001
0000
0000
0000
,
0001
0000
0000
0000
,
1000
0000
0000
0000
,
1000
0000
0000
0000
,
1000
0000
0000
0000
,
0001
0000
0000
0000
,
0001
0000
0000
0000
,
1000
0000
0000
0000
,
0000
0000
0000
0000
,
0001
0000
0000
0000
,
0000
0000
0000
0000
,
0000
0000
0000
0000
,
0000
0000
0000
0000
,
0000
0000
0000
0000
,
0000
0000
0000
0000
,
1000
0000
0000
0000
,
0000
0000
0000
0000
,
0001
0000
0000
0000
,
0000
0000
0000
0000
,
1000
0000
0000
0000
,
0000
0000
0000
0000
,
0001
0000
0000
0000
,
0000
0000
0000
0000
,
1000
0000
0000
0000
,
0000
0000
0000
0000
,
1000
0000
0000
0000
,
0000
0000
0000
0000
,
0001
0000
0000
0000
,
0000
0000
0000
0000
,
0001
0000
0000
0000
,
0000
0000
0000
0000
,
1001
0000
0000
0000
;

//---------------dance-single - hooky----------------
#NOTES:
     dance-single:
     hooky:
     Challenge:
     8:
     0.537,0.486,0.152,0.046,0.380:
0000
0000
0000
0000
,
0000
0000
0000
0000
,
0000
0000
0000
0000
,
1000
0000
0100
0000
1000
0000
0100
0000
0010
0000
0001
0010
0001
0000
0000
0000
,
1000
0000
0100
0000
0000
0000
0010
0000
0000
0000
0100
0010
0100
0000
0000
0000
,
1000
0000
0100
0000
0010
0000
0100
0000
1000
0000
0010
0001
0010
0000
0100
0000
,
0010
0000
0001
0000
0010
0000
0100
0000
0010
0000
0100
0010
0100
0000
0100
0000
,
0001
0000
0010
0000
0001
0000
0010
0000
0100
0000
1000
0100
1000
0000
0000
0000
,
0001
0000
0010
0000
0000
0000
0100
0000
0000
0000
0010
0100
0010
0000
0000
0000
,
0001
0000
0010
0000
0100
0000
0010
0000
0001
0000
0100
1000
0100
0000
0010
0000
,
0100
0000
1000
0000
0100
0000
0010
0000
0100
0000
0010
0100
0010
0000
0010
0000
,
1100
0110
0011
0000
,
0110
0000
0110
0000
0000
0000
1001
0000
0000
0000
0100
0010
0100
0000
0010
0000
,
1000
0000
0100
0000
1000
0000
0010
0000
0100
0000
0010
0000
0001
0010
0001
0000
,
0000
0000
0100
0000
0010
0000
0000
0000
1000
0000
0100
0000
0010
0001
0010
0001
,
0100
0000
0010
0000
1000
0000
0100
0010
0000
0000
0100
0000
0001
0000
0100
1000
,
0100
0000
0010
0000
0010
0000
0100
0010
0000
0000
0010
0000
0010
0000
0010
0000
,
1000
0100
1000
0100
0010
0001
0010
0001
,
0100
0000
0010
0000
0100
0000
0000
0000
1000
0000
0100
0000
1000
0100
1000
0000
,
0011
0110
1100
0000
,
0110
0000
0110
0000
0000
0000
1001
0000
0000
0000
0010
0100
0010
0000
0100
0000
,
0001
0000
0010
0000
0001
0000
0100
0000
0010
0000
0100
0000
1000
0100
1000
0000
,
0000
0000
0010
0000
0100
0000
0000
0000
0001
0000
0010
0000
0100
1000
0100
1000
,
0010
0000
0100
0000
0001
0000
0010
0100
0000
0000
0010
0000
1000
0000
0010
0001
,
0010
0000
0100
0000
0100
0000
0010
0100
0000
0000
0100
0000
0100
0000
0100
0010
,
0001
0000
0010
0000
0001
0000
0010
0100
0000
0000
1000
0000
0100
0000
1000
0100
,
1000
0000
0100
0000
0010
0000
0001
0100
0000
0000
0010
0000
0000
0000
0001
0000
,
0100
0010
0100
0010
1000
0100
0010
0100
,
0010
0001
0010
0001
0010
0100
1000
0100
,
0010
0100
0010
0001
0010
0100
1000
0100
,
0010
0000
0100
0000
1000
0000
0100
0000
0010
0000
0001
0000
0010
0000
0000
1000
,
0000
0001
0010
0001
0010
0001
0010
0001
0010
0001
0000
0010
0000
0000
0000
0100
,
0000
0010
0100
0010
0100
0010
0000
0100
0000
0000
0000
0000
0010
0000
0000
1000
,
0000
0100
0010
0100
0010
0100
0010
0100
0010
0100
0000
0010
0000
0000
0000
0010
,
0000
1000
0100
1000
0100
1000
0000
0100
0000
0000
0000
0100
0000
0100
0000
0100
,
0000
0010
1000
0010
1000
0010
1000
0010
1000
0010
0000
1000
0000
0000
0000
0100
,
0000
0010
0001
0010
0001
0010
0000
0001
0000
0000
0000
0100
0000
0000
0000
1000
,
0000
0100
0001
0100
0001
0100
0001
0100
0001
0100
0000
0001
0000
0000
0000
0100
,
0000
0010
0100
0010
0100
0010
0000
0100
0000
0000
0001
0000
0010
0000
0100
0000
,
1100
0110
0011
0000
,
0110
0000
0110
0000
0000
0000
1001
0000
0000
0000
0100
0010
0100
0000
0010
0000
,
1000
0000
0100
0000
1000
0000
0010
0000
0100
0000
0010
0000
0001
0010
0001
0000
,
0000
0000
0100
0000
0010
0000
0000
0000
1000
0000
0100
0000
0010
0001
0010
0001
,
0100
0000
0010
0000
1000
0000
0100
0010
0000
0000
0100
0000
0001
0000
0100
1000
,
0100
0000
0010
0000
0010
0000
0100
0010
0000
0000
0010
0000
0010
0000
0010
0100
,
1000
0000
0100
0000
1000
0000
0100
0010
0000
0000
0001
0000
0010
0000
0001
0010
,
0001
0000
0010
0000
0100
0000
1000
0010
0000
0000
0100
0000
0000
0000
1000
0000
,
0010
0000
0100
0000
0010
0000
1000
0000
0010
0000
0100
0010
0100
0000
0000
0000
,
1000
0000
0100
0000
0010
0000
0100
0000
1000
0000
0100
1000
0100
0000
0000
0000
,
0010
0000
0001
0000
0010
0000
0100
0000
0010
0000
0001
0010
0001
0000
0000
0000
,
1000
0100
0010
0100
2002
0000
3003
0000
,
0100
0000
0010
0000
0001
0000
0010
0000
0001
0000
0100
0010
0100
0000
0000
0000
,
1000
0000
0100
0000
0010
0000
0001
0000
0010
0000
0001
0010
0001
0000
0000
0000
,
0100
0000
0010
0000
0100
0000
1000
0000
0100
0000
1000
0100
1000
0000
0000
0000
,
0100
0000
0010
0000
0100
0000
0001
0000
0100
0000
0010
0100
0010
0000
0100
0000
,
1000
0100
1000
0100
0010
0001
0010
0001
,
0100
0010
0100
0010
1000
0100
1000
0100
,
0001
0010
0001
0010
0100
0010
0001
0010
,
1000
0100
0010
0100
1000
0001
0010
0100
,
0020
0000
0000
0000
0000
0000
0000
0000
0000
0000
0000
1000
0000
0000
0100
0000
,
0001
0000
0000
1000
0030
0000
0100
0000
0000
0000
0010
0000
0100
0000
0010
0000
,
0002
0000
0000
0000
0000
0100
0003
0010
,
1000
0000
0000
0100
0000
0000
0010
0000
0001
0000
0000
0100
0000
0000
0010
0000
,
2002
0000
0000
0000
,
3003
0000
0000
0000
;
