#TITLE:To Know That You're Alive;
#SUBTITLE:;
#ARTIST:Kutless;
#TITLETRANSLIT:;
#SUBTITLETRANSLIT:;
#ARTISTTRANSLIT:;
#GENRE:;
#CREDIT:Telperion;
#BANNER:tktya-bn.png;
#BACKGROUND:SC11-bg.png;
#LYRICSPATH:;
#CDTITLE:;
#MUSIC:tktya.ogg;
#OFFSET:-0.065828;
#SAMPLESTART:19.483999;
#SAMPLELENGTH:19.334000;
#SELECTABLE:YES;
#DISPLAYBPM:123.000000:124.000000;
#BPMS:0.000000=123.000000,16.000000=124.000000;
#STOPS:;
#DELAYS:;
#TIMESIGNATURES:0.000000=4=4
;
#BGCHANGES:;
#KEYSOUNDS:;
#ATTACKS:;

//---------------dance-single - Telperion----------------
#NOTES:
     dance-single:
     Telperion:
     Hard:
     7:
     0.467,0.508,0.129,0.249,0.222,313.000,14.000,27.000,0.000,0.000,0.000,0.000,0.467,0.508,0.129,0.249,0.222,313.000,14.000,27.000,0.000,0.000,0.000,0.000:
0000
0000
0000
0000
,
0000
0000
0000
0000
,
0000
0000
0000
0000
,
0000
0000
0000
0000
,
0010
0000
0010
0000
0001
1000
0000
0000
,
0100
0000
0010
0000
0001
1000
0000
0000
,
0010
0000
0010
0000
1000
0001
0000
0000
,
0010
0000
0100
1000
0001
1000
0000
0000
,
0010
0000
0100
0010
0100
0001
0000
0000
,
0010
0000
0100
0010
0100
1000
0000
1000
,
0001
0000
0100
0010
1000
0001
0010
0000
,
0001
0000
0010
0000
0100
0000
0000
0000
0010
0000
0010
0000
0100
0010
0100
0000
,
0000
1000
0001
0000
2002
3003
0000
0001
,
1000
0000
0000
0000
2002
0000
3003
0000
0000
0000
0010
0100
0010
0100
0020
0000
,
0000
0000
0130
0000
2002
3003
0000
1000
,
0001
0000
0000
0000
2002
0000
3003
0000
0000
0000
0010
0100
0010
0100
0020
0000
,
0000
0000
0130
0000
2001
3001
0000
0100
,
0010
0000
0000
0000
0220
0000
0330
0000
0000
0000
0010
0100
0010
0100
0020
0000
,
0000
0000
0130
0000
1002
0013
0000
1000
,
0000
0010
0000
0100
0000
0010
0000
0000
,
1000
0001
0010
0000
0100
0010
0100
1000
,
0001
0010
0100
0000
1000
0001
0100
0000
,
0010
0100
0100
0000
0010
0100
0100
0010
,
0010
0000
1000
0000
0001
0000
1000
0100
0000
0100
0010
0000
0001
1000
0001
0000
,
0000
0000
0010
0000
0100
1000
0010
0000
,
1000
0010
0100
0001
0100
0010
0010
0000
,
1000
0000
0001
0000
0010
0000
0001
0000
0000
0001
1000
0000
0010
0100
0010
0000
,
0000
1000
0001
0000
0010
0001
0010
0000
0000
0100
1000
0000
0010
0000
0010
0100
,
0010
0000
0000
0000
,
0000
0000
0000
0000
,
0000
0000
0000
0000
,
0000
0000
0000
1001
,
0010
0000
0000
0100
0010
0000
0001
0000
0010
0000
0000
0100
0010
0000
0001
0000
,
1000
0000
0000
1000
0001
0000
0010
0000
0002
0000
0000
0000
2003
0000
0000
0000
,
3010
0000
0000
0100
0010
0000
1000
0000
0010
0000
0000
0100
0010
0000
1000
0000
,
0001
0000
0000
0001
0010
0000
0100
0000
1000
0000
1000
0000
0002
0000
0000
0000
,
0013
0000
0000
0100
0010
0000
0001
0000
1000
0000
0000
1000
0010
0000
0100
0000
,
0010
0000
0000
0100
0010
0000
1000
0000
0001
0000
0001
0000
1000
0000
1000
0000
,
0001
0000
0000
0010
0001
0000
0100
0000
0010
0000
0000
0010
1000
0000
0100
0000
,
0010
0000
0000
0100
0010
0000
0001
0000
2000
0000
0000
0000
0002
0000
3003
0000
,
0110
0010
1000
0001
0000
0010
0011
0000
,
1000
0000
0010
0100
0000
0010
1010
0000
,
0001
0000
0010
0100
1000
0100
0010
0000
,
0001
0100
0001
0000
0010
0000
0100
0000
1000
0010
1000
0000
0100
0000
0000
0000
,
0010
0000
0000
0100
1000
0000
0001
0000
0000
0000
0100
0000
0010
0000
1000
0000
,
0010
0000
0000
0100
0001
0000
0010
0000
0000
0000
0100
0000
0001
0000
0100
0000
,
1000
0010
0100
0010
1000
0001
0010
0001
,
1000
0100
0010
0000
0001
0000
1000
0000
0001
0100
0010
0000
1000
0000
0000
0000
,
0001
0000
0000
0010
0100
0000
0010
0000
0001
0000
0000
0100
0010
0000
0100
0000
,
0001
0000
0000
0001
0010
0000
0100
0000
2000
0000
0000
0000
3002
0000
0000
0000
,
1003
0000
0000
0010
0100
0000
0010
0000
1000
0000
0000
0100
0010
0000
0100
0000
,
1000
0000
0000
0000
0000
0000
0000
0000
0000
0001
0000
0000
0100
0000
0000
0000
0000
0000
0010
0000
0000
0000
0000
0000
1000
0000
0000
0000
0010
0000
0000
0000
0100
0000
0000
0000
0002
0000
0000
0000
0000
0000
0000
0000
0000
0000
0000
0000
,
0013
0000
0000
0010
0100
0000
1000
0000
0010
0000
0000
0010
0100
0000
0001
0000
,
1000
0000
0000
1000
0001
0000
0010
0000
0220
0000
0330
0000
2002
0000
3003
0000
,
0010
0000
0000
1000
0001
0010
0001
0000
0001
0000
0000
1000
0001
0000
0010
0000
,
1001
0000
0000
0000
;

//---------------dance-single - Telperion----------------
#NOTES:
     dance-single:
     Telperion:
     Medium:
     5:
     0.310,0.406,0.333,0.102,0.009,188.000,36.000,11.000,0.000,0.000,0.000,0.000,0.310,0.406,0.333,0.102,0.009,188.000,36.000,11.000,0.000,0.000,0.000,0.000:
0000
0000
0000
0000
,
0000
0000
0000
0000
,
0000
0000
0000
0000
,
0000
0000
0000
0000
,
2000
0000
3000
0000
0001
1000
0000
0000
,
0002
0000
0003
0000
0010
0001
0000
0000
,
0200
0000
0300
0000
0010
0100
0000
0000
,
0010
0000
1000
0000
0010
0100
0000
0000
,
0002
0000
0003
0000
1000
0001
0000
0000
,
2000
0000
3000
0000
0001
1000
0000
1000
,
0100
0000
0010
0000
0000
0010
0000
0000
,
0100
0000
1000
0000
0001
0100
0020
0030
,
0000
1000
0001
0000
1001
0000
0000
0001
,
1000
1001
0000
0010
,
0000
0001
1000
0000
1001
0000
0000
1000
,
0001
1001
0000
0010
,
0000
1000
0010
0000
0110
0000
0000
0001
,
0010
0000
0110
0000
0000
0100
0100
0000
,
0000
0010
0001
0000
0101
0000
0000
0010
,
1000
0100
0000
0100
0000
0100
0000
0000
,
0010
0000
0100
0000
0010
0000
0100
0001
,
0000
0100
0000
1000
0000
0010
0000
0000
,
1000
0000
0001
0000
0100
0000
0010
0001
,
0000
0010
0000
0100
0000
0001
0000
1000
,
0000
0000
0100
0000
0010
0000
0100
0001
,
0000
0100
0010
0000
0001
0000
0001
0000
,
1000
0001
1000
0010
1000
0000
0001
0010
,
0100
0010
0001
1000
,
0010
0000
0000
0000
,
0000
0000
0000
0000
,
0000
0000
0000
0000
,
0000
0000
0000
0010
,
1001
0000
1010
0000
,
1001
0000
0021
0130
,
1001
0000
1010
0000
,
1001
0000
0021
0130
,
1010
0000
0101
0000
,
0011
0000
0201
0310
,
1100
0000
1000
0001
0101
0000
0001
1000
,
1100
0000
0001
0100
0010
0100
0110
0000
,
0001
0000
0010
0000
0001
0000
0100
1000
,
0000
0100
0000
0010
0000
1000
0000
0000
,
0001
0010
0001
0000
0010
0000
0100
0001
,
0100
0010
0001
0000
0100
0010
1000
0000
,
0010
0000
0100
0000
0001
0000
0100
1000
,
0000
0100
0010
0000
1000
0000
1000
0000
,
0001
1000
0001
0010
0001
0000
1000
0010
,
0100
1000
0100
1000
0100
0001
0100
0000
,
0110
0000
1001
0000
,
0110
0000
0021
0130
,
1010
0000
0110
0000
,
1010
0000
0000
0000
0000
0000
0100
0001
0010
0100
0000
0000
,
0100
0000
0110
0000
,
1001
0000
1200
0310
,
0101
0001
1100
0010
,
0110
0000
0000
0000
;

//---------------dance-single - Telperion----------------
#NOTES:
     dance-single:
     Telperion:
     Easy:
     3:
     0.206,0.203,0.092,0.129,0.000,132.000,10.000,14.000,0.000,0.000,0.000,0.000,0.206,0.203,0.092,0.129,0.000,132.000,10.000,14.000,0.000,0.000,0.000,0.000:
0000
0000
0000
0000
,
0000
0000
0000
0000
,
0000
0000
0000
0000
,
0000
0000
0000
0000
,
1000
0000
1000
0000
,
0001
0000
0001
0000
,
0010
0000
0010
0000
,
0100
0000
0010
0000
,
0001
0000
0000
0000
0001
0001
0000
0000
,
1000
0000
0000
0000
1000
1000
0000
0000
,
0010
0100
0010
0000
,
1000
0001
0010
0100
,
0000
0010
0020
0030
,
0010
0020
0030
0000
,
0000
0010
0020
0030
,
0010
0020
0030
0000
,
0000
0100
0200
0300
,
0100
0200
0300
0000
,
0000
0100
0200
0300
,
0100
0100
0100
0000
,
1000
0001
0010
0000
,
0001
0100
0010
0000
,
1000
0010
0100
0010
,
0001
0010
0100
0000
,
0001
1000
0100
0000
,
0010
0100
1000
0000
,
0001
0010
0100
0010
,
1000
0010
0001
1000
,
0010
0000
0000
0000
,
0000
0000
0000
0000
,
0000
0000
0000
0000
,
0000
0000
0000
0010
,
1002
0000
0010
0000
,
1000
0000
0013
0100
,
2001
0000
0010
0000
,
0001
0000
3010
0100
,
0120
0000
1000
0000
,
0100
0000
1030
0100
,
0120
0000
0001
0000
,
0130
1000
0001
0000
,
0100
0010
1000
0000
,
0001
0010
0001
0000
,
1000
0100
0010
0001
,
0100
1000
0100
0000
,
0010
0100
0001
0000
,
1000
0010
1000
0000
,
0001
0010
0100
1000
,
0001
0010
1000
0010
,
0210
0000
1000
0000
,
0001
0000
0310
0001
,
1002
0000
0010
0000
,
0100
0000
1003
1000
,
0120
0000
0100
0000
,
0100
0000
0130
0010
,
1001
0000
0110
0000
,
1001
0000
0000
0000
;

//---------------dance-single - Telperion----------------
#NOTES:
     dance-single:
     Telperion:
     Beginner:
     2:
     0.087,0.152,0.083,0.000,0.000,57.000,9.000,0.000,0.000,0.000,0.000,0.000,0.087,0.152,0.083,0.000,0.000,57.000,9.000,0.000,0.000,0.000,0.000,0.000:
0000
0000
0000
0000
,
0000
0000
0000
0000
,
0000
0000
0000
0000
,
0000
0000
0000
0000
,
1000
0000
0000
0000
,
0000
0000
0000
0000
,
0001
0000
0000
0000
,
0000
0000
0000
0000
,
0010
0000
0000
0000
,
0000
0000
0000
0000
,
0100
0000
0000
0000
,
0010
0000
0000
0000
,
0000
0001
0001
0000
,
0001
0001
0000
0000
,
0000
1000
1000
0000
,
1000
1000
0000
0000
,
0000
0001
0001
0000
,
0001
0001
0000
0000
,
0000
1000
1000
0000
,
1000
1000
0000
0000
,
0010
0000
0000
0000
,
0100
0000
0000
0000
,
0001
0000
0000
0000
,
1000
0000
0000
0000
,
0010
0000
0000
0000
,
1000
0000
0000
0000
,
0100
0000
0000
0000
,
0010
0000
0010
0000
,
0010
0000
0000
0000
,
0000
0000
0000
0000
,
0000
0000
0000
0000
,
0000
0000
0000
0000
,
1001
0000
0000
0000
,
0001
0000
0000
0000
,
1001
0000
0000
0000
,
1000
0000
0000
0000
,
0110
0000
0000
0000
,
0010
0000
0000
0000
,
0110
0000
0000
0000
,
0000
0000
0000
0000
,
0001
0000
0000
0000
,
1000
0000
0000
0000
,
0100
0000
0000
0000
,
0010
0000
0010
0000
,
0010
0000
0000
0000
,
0100
0000
0000
0000
,
1000
0000
0000
0000
,
0010
0000
0010
0000
,
0010
0000
0000
0000
,
0100
0000
0000
0000
,
0110
0000
0000
0000
,
0100
0000
0000
0000
,
1001
0000
0000
0000
,
0001
0000
0000
0000
,
1001
0000
1001
0000
,
1001
0000
0000
0000
;

//---------------dance-double - Telperion----------------
#NOTES:
     dance-double:
     Telperion:
     Hard:
     9:
     0.466,0.559,0.139,0.111,0.208,326.000,15.000,12.000,0.000,0.000,0.000,0.000,0.466,0.559,0.139,0.111,0.208,326.000,15.000,12.000,0.000,0.000,0.000,0.000: // measure 1
00000000
00000000
00000000
00000000
,  // measure 2
00000000
00000000
00000000
00000000
,  // measure 3
00000000
00000000
00000000
00000000
,  // measure 4
00000000
00000000
00000000
00000000
,  // measure 5
10000000
00000000
00010000
00000100
00000001
00000010
00000000
00000000
,  // measure 6
00000001
00000000
00001000
01000000
10000000
00100000
00000000
00000000
,  // measure 7
01000000
00000000
00001000
00000100
00000001
00000010
00000000
00000000
,  // measure 8
00000100
00000000
00010000
01000000
10000000
00100000
00000000
00000000
,  // measure 9
01000000
00000000
00100000
00010000
00001000
00000010
00000000
00000000
,  // measure 10
00000100
00000000
00001000
00000100
00000010
00001000
00000000
00010000
,  // measure 11
00100000
00000000
10000000
00010000
00100000
00001000
00000000
00000100
,  // measure 12
00000001
00000000
00000000
00000000
00000010
00000000
00000100
00000000
00010000
00000000
00001000
00000000
00010000
00001000
00010000
00000000
,  // measure 13
00000000
00000100
00000210
00000000
00000301
00001000
00010000
00100000
,  // measure 14
01000000
00000000
01000000
00010000
00000000
00000000
00000000
10000000
,  // measure 15
00000000
00100000
02100000
00000000
13000000
00010000
00001000
00000010
,  // measure 16
00000100
00000000
00000000
00000000
00000100
00000000
00010000
00000000
00000000
00000000
00001000
00010000
00001000
00010000
00000100
00000000
,  // measure 17
00000000
00001000
00000011
00000000
00000001
00000100
00001000
00010000
,  // measure 18
00001000
00000000
00001000
00100000
00000000
00000000
00000000
00010000
,  // measure 19
00000000
00010000
10100000
00000000
00010000
01000000
00100000
00010000
,  // measure 20
00001000
00100000
00000010
00001000
00000100
01000000
00010000
00000000
,  // measure 21
00100000
01000000
00100000
00000000
00010000
01000000
00100000
00001000
,  // measure 22
00000000
00000010
00000100
00000000
00000001
00000010
00000100
00000000
,  // measure 23
00000010
00000100
00000010
00000000
00000001
00001000
00000100
00010000
,  // measure 24
00001000
00000000
01000000
00000000
00010000
00000000
01000000
00001000
01000000
00001000
00010000
00000000
00000100
00001000
00000100
00010000
,  // measure 25
00001000
00010000
00000100
00000000
00001000
00000100
00010000
01000000
,  // measure 26
00000000
10000000
00100000
00000000
01000000
00010000
00100000
00000000
,  // measure 27
01000000
00000000
01000000
00000000
10000000
00000000
01000000
00000000
00000000
10000000
00010000
00000000
01000000
00010000
01000000
00001000
,  // measure 28
00000000
00010000
00001000
00000000
00010000
00000100
00001000
00000100
00000000
00001000
00000001
00000000
00000010
00000001
00000010
00000001
,  // measure 29
00001000
00000000
00000000
00000000
,  // measure 30
00000000
00000000
00000000
00000000
,  // measure 31
00000000
00000000
00000000
00000000
,  // measure 32
00000000
00000000
00000000
00000010
,  // measure 33
00001001
00000000
00000000
00000001
00001000
00000000
00000100
00000000
00010000
00000000
00000000
00001000
01000000
00000000
00100000
00000000
,  // measure 34
10000000
00000000
00000000
00000000
00000000
00000000
00000000
00000000
00000000
00000000
00000000
00000000
00000000
00000000
00000000
00000000
00000000
00000000
00000000
00000000
00000000
00000000
00000000
00000000
00000000
00000000
00000000
00000000
00000000
00000000
00000000
00000000
00000000
00000000
00000000
00000000
00100000
00000000
00000000
00000000
00000000
00000000
00000000
00000000
00000000
00000000
00000000
00000000
01000000
00000000
00000000
00000000
00000000
00000000
00000000
00000000
00000000
00000000
00000000
00000000
00000000
00000000
00000000
00000000
00000000
00000000
00000000
00000000
00000000
00000000
00000000
00000000
00001000
00000000
00000000
00000000
00000000
00000000
00000000
00000000
00000000
00000000
00000000
00000000
00000000
00000000
00000000
00000000
00000000
00000000
00000000
00000000
00000000
00000000
00000000
00000000
00020000
00000000
00000000
00000000
00000000
00000000
00000000
00000000
00000000
00000000
00000000
00000000
00000000
00000000
00000000
00000000
00000000
00000000
00000000
00000000
00000000
00000000
00000000
00000000
00000000
00000000
00000000
00000000
00000000
00000000
00000000
00000000
00000000
00000000
00000000
00000000
00000000
00000000
00000000
00000000
00000000
00000000
00000000
00000000
00000000
00000000
00000000
00000000
02030000
00000000
00000000
00000000
00000000
00000000
00000000
00000000
00000000
00000000
00000000
00000000
00000000
00000000
00000000
00000000
00000000
00000000
00000000
00000000
00000000
00000000
00000000
00000000
00000000
00000000
00000000
00000000
00000000
00000000
00000000
00000000
00000000
00000000
00000000
00000000
00000000
00000000
00000000
00000000
00000000
00000000
00000000
00000000
00000000
00000000
00000000
03000000
,  // measure 35
10100000
00000000
00000000
10000000
00010000
00000000
01000000
00000000
00001000
00000000
00000000
00010000
00000100
00000000
00000010
00000000
,  // measure 36
00000001
00000000
00000000
00000000
00000000
00000000
00000000
00000000
00000000
00000000
00000000
00000000
00000000
00000000
00000000
00000000
00000000
00000000
00000000
00000000
00000000
00000000
00000000
00000000
00000000
00000000
00000000
00000000
00000000
00000000
00000000
00000000
00000000
00000000
00000000
00000000
00000010
00000000
00000000
00000000
00000000
00000000
00000000
00000000
00000000
00000000
00000000
00000000
00000100
00000000
00000000
00000000
00000000
00000000
00000000
00000000
00000000
00000000
00000000
00000000
00000000
00000000
00000000
00000000
00000000
00000000
00000000
00000000
00000000
00000000
00000000
00000000
00010000
00000000
00000000
00000000
00000000
00000000
00000000
00000000
00000000
00000000
00000000
00000000
00000000
00000000
00000000
00000000
00000000
00000000
00000000
00000000
00000000
00000000
00000000
00000000
00001000
00000000
00000000
00000000
00000000
00000000
00000000
00000000
00000000
00000000
00000000
00000000
00000000
00000000
00000000
00000000
00000000
00000000
00000000
00000000
00000000
00000000
00000000
00000000
00010000
00000000
00000000
00000000
00000000
00000000
00000000
00000000
00000000
00000000
00000000
00000000
00000000
00000000
00000000
00000000
00000000
00000000
00000000
00000000
00000000
00000000
00000000
00000000
00000200
00000000
00000000
00000000
00000000
00000000
00000000
00000000
00000000
00000000
00000000
00000000
00000000
00000000
00000000
00000000
00000000
00000000
00000000
00000000
00000000
00000000
00000000
00000000
00000000
00000000
00000000
00000000
00000000
00000000
00000000
00000000
00000000
00000000
00000000
00000000
00000000
00000000
00000000
00000000
00000000
00000000
00000000
00000000
00000000
00000000
00000000
00000300
,  // measure 37
00000011
00000000
00000000
00000001
00001000
00000000
00000100
00000000
00010000
00000000
00000000
01000000
10000000
00000000
00010000
00000000
,  // measure 38
01000000
00000000
00000000
10000000
01000000
00000000
00100000
00000000
10000000
00000000
10000000
00000000
00010000
00000000
00010000
00000000
,  // measure 39
10010000
00000000
00000000
10000000
01000000
00000000
00010000
00000000
00001000
00000000
00000000
00000100
00000001
00000000
00000010
00000000
,  // measure 40
00001000
00000000
00000000
00010000
00100000
00000000
00010000
00000000
00002000
00000000
00000000
00000000
00020000
00000000
00033000
00000000
,  // measure 41
00011000
00001000
00100000
00001000
00000000
00000100
00000001
00000000
,  // measure 42
00000010
00000010
00000100
00000010
00000000
00001000
00010000
00000000
,  // measure 43
00100000
01000000
00100000
00100000
00000000
10000000
00100000
10000000
,  // measure 44
00010000
00100000
00010000
00000000
10000000
00000000
00100000
00000000
01000000
00001000
01000000
00000000
00010000
00000000
00000000
00000000
,  // measure 45
00011000
00010000
00000010
00010000
00000000
01000000
00100000
01000000
,  // measure 46
10000000
00000000
00000000
10000000
00100000
00000000
00010000
00000000
00000000
00000000
00000000
00001000
00100000
00000000
00010000
00000000
,  // measure 47
00110000
00000000
00000010
00001000
00001100
00001000
00000010
00000000
,  // measure 48
00000100
00000001
00000100
00000000
00000010
00000000
00010000
00000000
00001000
01000000
00001000
00000000
00100000
00000000
00000000
00000000
,  // measure 49
11000000
00000000
00000000
10000000
00010000
00000000
00100000
00000000
00001000
00000000
00000000
00010000
00000010
00000000
00000100
00000000
,  // measure 50
00001000
00000000
00000000
00001000
00000100
00000000
00000001
00000000
00000020
00000000
00000000
00000000
00000230
00000000
00000000
00000000
,  // measure 51
00000310
00000000
00000000
00000001
00001000
00000000
00000010
00000000
00010000
00000000
00000000
00001000
00100000
00000000
01000000
00000000
,  // measure 52
00010000
00000000
00000000
00000000
00000000
00000000
00000000
00000000
00000000
00010000
00000000
00000000
01000000
00000000
00000000
00000000
00000000
00000000
10000000
00000000
00000000
00000000
00000000
00000000
00100000
00000000
00000000
00000000
00010000
00000000
00000000
00000000
00001000
00000000
00000000
00000000
00000020
00000000
00000000
00000000
00000000
00000000
00000000
00000000
00000000
00000000
00000000
00000000
,  // measure 53
00000130
00000000
00000000
00010000
00001000
00000000
01000000
00000000
00100000
00000000
00000000
01000000
00001000
00000000
00010000
00000000
,  // measure 54
00000100
00000000
00000000
00000010
00000100
00000000
00010000
00000000
00200000
00000000
00000000
00000000
00320000
00000000
00000000
00000000
,  // measure 55
00031000
00000000
00100000
00000010
00011000
00000000
00000100
01000000
,  // measure 56
00011000
00000000
00000000
00000000
;
