#TITLE:The Island;
#SUBTITLE:(Madeon Remix);
#ARTIST:Pendulum;
#TITLETRANSLIT:;
#SUBTITLETRANSLIT:;
#ARTISTTRANSLIT:;
#CREDIT:;
#BANNER:;
#BACKGROUND:;
#LYRICSPATH:;
#CDTITLE:;
#MUSIC:The Island (Madeon Remix).mp3;
#OFFSET:-7.640;
#SAMPLESTART:70.500;
#SAMPLELENGTH:15.230;
#SELECTABLE:YES;
#BPMS:0.000=126.000;
#STOPS:;
#BGCHANGES:;

//---------------dance-single - ----------------
#NOTES:
     dance-single:
     :
     Hard:
     8:
     0.497,0.496,0.499,0.262,0.147: // measure 1
1000
0000
1100
0000
0100
1000
1001
0000
,  // measure 2
0001
0000
0100
0000
1000
0000
0100
0000
0001
0000
0000
1000
0000
0000
0100
0000
,  // measure 3
0010
0000
0011
0000
0001
0100
1100
0000
,  // measure 4
1000
0000
0100
0000
0001
0000
0010
0000
0100
0000
0000
1000
0000
0000
0001
0000
,  // measure 5
0101
0000
0011
0000
0010
0001
1001
0000
,  // measure 6
1000
0010
0100
0001
0010
0000
1001
0000
,  // measure 7
0110
0000
0000
0000
1010
0000
0000
0000
0100
0000
1000
0100
0010
0000
0001
0000
,  // measure 8
0010
0000
0001
2000
0000
0010
3010
0000
,  // measure 9
1001
0000
0000
0000
0101
0000
0000
0000
0001
0000
1000
0001
0100
0000
0010
0000
,  // measure 10
1000
0000
1100
0100
0010
0000
0011
0000
,  // measure 11
1001
0000
1000
0100
0001
0100
1100
0000
,  // measure 12
1000
0000
0000
0100
0000
0000
1000
0000
0001
0000
0000
0010
0000
0000
0100
0000
,  // measure 13
0110
0000
0000
0000
0011
0000
0000
0000
0001
0000
0100
0010
1000
0000
0001
0000
,  // measure 14
0020
0000
0031
1000
0002
0000
1003
0000
,  // measure 15
1001
0000
0000
0000
1000
0000
0000
0001
0000
0000
0200
0000
0000
0000
0000
0000
,  // measure 16
0320
0000
0000
2000
0000
0000
3030
0000
,  // measure 17
1001
0000
0000
0000
0001
0000
0011
0000
0000
0000
0010
0000
0001
0000
1000
0010
,  // measure 18
1000
0000
0001
0101
0000
0100
0001
0010
,  // measure 19
0100
1000
0100
0001
2000
0000
3010
0000
,  // measure 20
0011
0000
0000
1001
0000
0000
1010
0000
2002
0000
0000
0000
3003
0000
0000
0000
,  // measure 21
0101
0000
0100
0000
0010
0000
1010
0000
0000
0000
0000
0000
1000
0001
1000
0001
,  // measure 22
0010
0000
0100
0110
0000
0010
0001
0100
,  // measure 23
1100
0000
0000
0000
0100
0000
0110
0000
0000
0000
1000
0000
0100
0000
0010
0001
,  // measure 24
2000
0000
0000
0010
0000
0000
0010
0000
0002
0000
0000
0000
3003
0000
0000
0000
,  // measure 25
0120
0000
0000
0000
0100
0000
0000
0000
1000
0000
0000
1000
0000
0000
1030
0000
,  // measure 26
2000
0000
0010
0010
0010
0000
3001
0000
,  // measure 27
0012
0000
0100
0000
0010
0010
0100
0103
,  // measure 28
0000
0100
0001
0000
1001
0000
1010
0000
,  // measure 29
0210
0000
0000
0000
0010
0000
0000
0000
0001
0000
0000
0001
0000
0000
0001
0000
,  // measure 30
0302
0010
1003
0101
,  // measure 31
0110
0000
0100
1001
0000
0001
0010
0100
,  // measure 32
0210
0010
0010
0010
,  // measure 33
1000
1300
1001
0110
,  // measure 34
1001
0000
0000
0000
1000
0000
0100
0000
0010
0000
0001
0010
0100
0000
0010
0000
,  // measure 35
0002
0000
2003
0000
3010
0100
0101
0000
,  // measure 36
0001
0000
1000
0000
0010
0000
0100
0000
0000
0000
0010
0100
0010
0100
0010
0000
,  // measure 37
1000
0100
0001
0100
0000
1100
0000
1000
,  // measure 38
0011
0000
0000
0000
0001
0000
0100
0000
0010
0000
1000
0010
0100
0000
0001
0000
,  // measure 39
1000
0100
0010
0001
0011
0000
1100
0000
,  // measure 40
1002
0000
0010
0020
0000
0000
0033
0000
,  // measure 41
0220
0000
0330
0000
,  // measure 42
1001
0000
1000
0010
0110
0000
0000
0100
,  // measure 43
0001
0100
0001
0100
0001
0100
0001
0100
0001
0000
0100
0000
0010
0000
1000
0000
,  // measure 44
0100
0000
0100
0010
0011
0000
0001
1000
,  // measure 45
0100
1000
0100
1000
0100
1000
0100
1000
0100
0000
0010
0000
0001
0000
1000
0000
,  // measure 46
1001
0000
1000
0100
0101
0000
0001
0100
,  // measure 47
1000
0100
1000
0100
0010
0001
0010
0001
0100
0000
0010
0000
1000
0000
0001
0000
,  // measure 48
0100
0000
0001
1000
1100
0000
0010
0001
,  // measure 49
0100
0001
0100
0001
1000
0010
1000
0010
0100
0000
0100
0000
0010
0000
0000
0000
,  // measure 50
1001
0000
1000
0010
0110
0100
0002
0000
,  // measure 51
0013
0000
1000
0100
0010
0100
2000
0000
,  // measure 52
3010
0000
0010
0100
0001
1000
0200
0000
,  // measure 53
0310
0000
0001
0100
1010
0000
1000
0000
,  // measure 54
1100
0000
0010
0001
0101
0100
0020
0000
,  // measure 55
2030
0000
0000
0000
0010
0010
0010
0000
,  // measure 56
0002
0000
0000
3000
,  // measure 57
2003
0000
3020
0000
,  // measure 58
0200
0000
0000
0330
;

//---------------dance-single - ----------------
#NOTES:
     dance-single:
     :
     Medium:
     4:
     0.330,0.354,0.253,0.352,0.000: // measure 1
1000
0000
0001
0000
0000
0001
0010
0000
,  // measure 2
0000
0010
0100
0000
1000
0000
0001
0000
,  // measure 3
1000
0000
0010
0000
0000
0100
0001
0000
,  // measure 4
0000
0001
1000
0000
0100
0000
0010
0000
,  // measure 5
1001
0000
0100
0000
0000
0010
0100
0000
,  // measure 6
0000
0100
0001
0000
1000
0000
0100
0000
,  // measure 7
0010
0000
0100
0000
0010
0001
0010
0000
,  // measure 8
0001
1000
2002
3003
,  // measure 9
0110
0000
0010
0000
1000
0010
1000
0000
,  // measure 10
0000
1000
0100
0000
0010
0000
0100
0000
,  // measure 11
0010
0000
0001
0000
1000
0001
1000
0000
,  // measure 12
0000
0001
0100
0000
0010
0000
0100
0000
,  // measure 13
0001
0000
0010
0000
0100
0010
0100
0000
,  // measure 14
0000
0010
0001
0000
1000
0000
0001
0000
,  // measure 15
0201
0320
2030
3200
,  // measure 16
0320
0000
0000
0002
0000
0000
0033
0000
,  // measure 17
1001
0000
1000
0100
0000
0000
1100
0000
,  // measure 18
0110
0000
0010
0001
0000
0000
1001
0000
,  // measure 19
0101
0000
0001
0100
0000
0000
0110
0000
,  // measure 20
2002
3003
0100
0010
,  // measure 21
0110
0000
0000
0202
0000
0000
0303
0000
,  // measure 22
1001
0000
0000
2200
0000
0000
3300
0000
,  // measure 23
0110
0000
0000
0022
0000
0000
0033
0000
,  // measure 24
2002
3003
0100
0010
,  // measure 25
0210
0000
0010
0001
,  // measure 26
0302
0000
0010
1000
,  // measure 27
2003
0000
0010
0100
,  // measure 28
3200
0000
0001
1000
,  // measure 29
0320
0000
0001
0001
,  // measure 30
0230
0000
0010
1000
,  // measure 31
2300
0000
0010
3001
,  // measure 32
1002
1000
1000
1000
,  // measure 33
0100
0100
0010
0013
,  // measure 34
0220
0000
0330
0000
0100
1000
0001
0000
,  // measure 35
1000
0010
0100
0001
,  // measure 36
2002
0000
3003
0000
0001
0010
0001
0000
,  // measure 37
1000
0000
0100
1000
0000
1000
0001
0000
,  // measure 38
0100
0000
0010
0000
0100
0010
0100
0000
,  // measure 39
0010
1000
0001
1001
,  // measure 40
0120
0000
0000
2000
0000
0000
3030
0000
,  // measure 41
2002
0000
3003
0000
,  // measure 42
1001
0000
0000
1000
0100
0000
0000
0000
,  // measure 43
0010
0000
0001
0100
0010
0000
0100
0000
,  // measure 44
0110
0000
0000
0010
1000
0000
0000
0000
,  // measure 45
0001
1000
0001
0000
2002
0000
3003
0000
,  // measure 46
0110
0000
0000
0100
0001
0000
1000
0000
,  // measure 47
0100
0000
0010
0001
0010
0000
0001
0000
,  // measure 48
1000
0000
0000
0001
0100
0000
0010
0000
,  // measure 49
0100
0000
0000
0100
0010
0100
0001
0000
,  // measure 50
1001
0000
0000
1000
0100
0000
1000
0000
,  // measure 51
0200
0000
0300
0000
0010
0001
0010
0000
,  // measure 52
0001
0000
0000
0001
0100
0000
0010
0000
,  // measure 53
0100
0001
1000
0100
,  // measure 54
1001
0000
0000
0001
0100
0000
0010
0000
,  // measure 55
0200
0000
0300
0000
0010
1000
0010
0000
,  // measure 56
2000
0000
3002
0000
,  // measure 57
0023
0000
0032
0000
,  // measure 58
2000
0000
0000
3003
;

//---------------dance-single - ----------------
#NOTES:
     dance-single:
     :
     Easy:
     3:
     0.211,0.260,0.147,0.114,0.000: // measure 1
1001
0000
1000
0001
,  // measure 2
0100
0000
0010
0000
,  // measure 3
0100
0000
0010
0100
,  // measure 4
0001
0000
1000
0000
,  // measure 5
0001
0000
1000
0100
,  // measure 6
1000
0000
0001
0000
,  // measure 7
0010
0000
0100
0010
,  // measure 8
0001
0000
1000
0000
,  // measure 9
1001
0000
0001
0100
,  // measure 10
0010
1000
0001
0000
,  // measure 11
1000
0000
0001
0010
,  // measure 12
0100
0010
0001
0000
,  // measure 13
1000
0000
0001
1000
,  // measure 14
0001
0100
0010
0000
,  // measure 15
0100
0000
0010
1000
,  // measure 16
1001
0000
0001
0010
,  // measure 17
0110
0000
0000
0000
,  // measure 18
0110
0000
0000
0000
,  // measure 19
1001
0000
0000
0000
,  // measure 20
1001
0000
0001
0100
,  // measure 21
0110
0000
0000
0000
,  // measure 22
0110
0000
0000
0000
,  // measure 23
1001
0000
0000
0000
,  // measure 24
1001
0000
1000
0001
,  // measure 25
0201
0000
0010
0000
,  // measure 26
0010
0000
0010
0000
,  // measure 27
0320
0000
1000
0000
,  // measure 28
1000
0000
1000
0000
,  // measure 29
2030
0000
0001
0000
,  // measure 30
0001
0000
0001
0000
,  // measure 31
3002
0000
1000
0000
,  // measure 32
0100
0100
0100
0100
,  // measure 33
0100
0100
0200
0303
,  // measure 34
2002
3003
1000
0100
,  // measure 35
1000
0100
0010
0100
,  // measure 36
0010
0000
0001
0010
,  // measure 37
0100
0010
0001
1000
,  // measure 38
0001
0000
0100
0010
,  // measure 39
1000
0001
0010
0001
,  // measure 40
2002
0000
3003
0000
,  // measure 41
0220
0000
0330
0000
,  // measure 42
1001
0000
1000
0000
,  // measure 43
0001
0010
0100
0010
,  // measure 44
0001
0000
1000
0000
,  // measure 45
0001
0100
1000
0100
,  // measure 46
0001
0000
1000
0000
,  // measure 47
0010
1000
0100
1000
,  // measure 48
0001
0000
0010
0000
,  // measure 49
0100
0010
0100
1000
,  // measure 50
1001
0000
0001
0010
,  // measure 51
0001
0100
0010
1000
,  // measure 52
0001
0000
1000
0100
,  // measure 53
1000
0000
0001
0000
,  // measure 54
1001
0000
1000
0100
,  // measure 55
0010
0100
1000
0001
,  // measure 56
0100
0000
0010
0100
,  // measure 57
0002
0000
2003
0000
,  // measure 58
0200
0000
0000
3300
;

//---------------dance-single - ----------------
#NOTES:
     dance-single:
     :
     Beginner:
     1:
     0.107,0.140,0.098,0.000,0.000: // measure 1
1001
0000
0000
0000
,  // measure 2
1000
0000
0001
0000
,  // measure 3
0100
0000
0000
0000
,  // measure 4
0010
0000
0100
0000
,  // measure 5
0001
0000
0000
0000
,  // measure 6
1000
0000
0001
0000
,  // measure 7
1000
0000
0000
0000
,  // measure 8
0001
0000
0010
0000
,  // measure 9
0110
0000
0000
0000
,  // measure 10
0100
0000
1000
0000
,  // measure 11
0001
0000
0000
0000
,  // measure 12
1000
0000
0001
0000
,  // measure 13
0100
0000
0000
0000
,  // measure 14
0010
0000
0100
0000
,  // measure 15
0001
0000
0000
0000
,  // measure 16
1000
0000
0000
0000
,  // measure 17
1001
0000
0000
0000
,  // measure 18
0001
0000
0000
0000
,  // measure 19
1000
0000
0000
0000
,  // measure 20
0100
0000
0000
0000
,  // measure 21
0110
0000
0000
0000
,  // measure 22
0010
0000
0000
0000
,  // measure 23
0100
0000
0000
0000
,  // measure 24
1000
0000
0000
0000
,  // measure 25
1001
0000
0000
0000
,  // measure 26
0001
0000
0000
0000
,  // measure 27
0100
0000
0000
0000
,  // measure 28
0010
0000
0000
0000
,  // measure 29
1000
0000
0000
0000
,  // measure 30
0100
0000
0000
0000
,  // measure 31
0010
0000
0000
0000
,  // measure 32
1001
0000
0001
0000
,  // measure 33
1000
0000
1001
0000
,  // measure 34
0110
0000
0000
0000
,  // measure 35
0100
0000
0001
0000
,  // measure 36
1000
0000
0100
0000
,  // measure 37
0010
0000
0100
0000
,  // measure 38
1000
0000
0000
0000
,  // measure 39
0001
0000
0010
0000
,  // measure 40
0110
0000
0000
0000
,  // measure 41
1001
0000
0000
0000
,  // measure 42
0110
0000
0000
0000
,  // measure 43
0010
0000
0001
0000
,  // measure 44
1000
0000
0000
0000
,  // measure 45
0001
0000
0000
0000
,  // measure 46
1000
0000
0000
0000
,  // measure 47
0010
0000
0100
0000
,  // measure 48
0001
0000
0000
0000
,  // measure 49
1000
0000
0001
0000
,  // measure 50
1001
0000
0000
0000
,  // measure 51
1000
0000
0100
0000
,  // measure 52
0010
0000
0001
0000
,  // measure 53
1000
0000
0010
0000
,  // measure 54
0100
0000
0000
0000
,  // measure 55
0010
0000
1000
0000
,  // measure 56
0001
0000
1000
0000
,  // measure 57
0100
0000
0100
0000
,  // measure 58
0100
0000
0000
0000
;
