#TITLE:Skyscraper;
#SUBTITLE:;
#ARTIST:Good-Cool;
#TITLETRANSLIT:;
#SUBTITLETRANSLIT:;
#ARTISTTRANSLIT:;
#CREDIT:;
#BANNER:;
#BACKGROUND:;
#LYRICSPATH:;
#CDTITLE:;
#MUSIC:18.skyscraper.mp3;
#OFFSET:-0.320;
#SAMPLESTART:14.600;
#SAMPLELENGTH:12.000;
#SELECTABLE:YES;
#BPMS:0.000=135.000,60.000=270.000,61.000=135.000,61.500=270.000,62.500=135.000,63.000=270.000,63.500=135.000;
#STOPS:60.000=0.120
,60.500=0.120
,61.500=0.120
,62.000=0.120
,63.000=0.120
,124.000=1.300
;
#BGCHANGES:;

//---------------dance-single - ----------------
#NOTES:
     dance-single:
     :
     Hard:
     8:
     0.546,0.581,0.299,0.185,0.221:
0000
0000
0000
0000
,
0000
0000
0000
0000
,
2000
0000
3020
0000
0230
0001
0301
0000
,
2000
0000
3002
0000
1003
0100
0000
0001
,
0020
0000
0032
0000
2003
0100
3100
0000
,
0010
0001
0100
0000
0010
1000
0100
0000
,
2000
0000
3200
0000
0320
0001
0031
0000
,
0010
0000
0001
0000
0100
0000
0010
0000
1000
0000
0001
0000
0100
0010
0100
0010
,
1000
0100
0001
0000
0100
1000
0000
0100
,
0001
0000
0100
2000
0000
0000
3001
0000
,
0010
0000
0001
0000
0100
0000
0000
0010
0000
1000
0100
0000
1001
0000
0000
0000
,
0010
0000
1000
0000
0100
0000
0000
0010
0000
0001
0100
0000
1001
0000
0000
0000
,
1000
0010
0001
0000
0010
1000
0000
0010
,
0001
0000
0010
2000
0000
0000
3001
0000
,
1000
0001
0000
0000
0100
0000
0001
1000
0000
0000
0010
0000
1000
0001
0000
0000
,
1100
0101
1000
0101
1100
0001
1010
0001
,
1000
0100
0000
1000
0010
0000
1000
0100
,
0000
1000
0010
0100
0001
0100
1000
0000
,
0100
0001
0000
0010
0001
0000
0100
0001
,
0000
0010
0001
1000
0100
0001
0100
0000
,
1000
0010
0000
1000
0100
0000
1000
0010
,
0000
1000
0100
0010
0001
0010
1000
0000
,
0010
0001
0000
0100
0001
0000
0010
0001
,
0100
0000
0010
0000
1000
0000
0100
0000
0010
0000
0001
0000
0100
0001
0100
0001
,
0010
0000
0000
0100
0000
0000
1000
0000
0000
0001
0000
0000
0010
0000
0001
0000
,
0100
0000
0000
0000
0010
0000
1000
0000
0000
0010
0000
0000
0100
0000
0001
0000
,
0010
0000
0000
0001
0000
0000
1000
0000
0000
0100
0000
0000
1000
0000
0010
0000
,
0100
0000
0000
0000
0001
0000
0100
0000
0000
0010
0000
0000
0100
0000
0001
0000
,
1000
0000
0000
0100
1000
0000
0001
0000
0100
0000
0000
0001
0010
0000
0000
0000
,
0001
0000
0000
0100
0001
0000
1000
0000
0010
0000
0000
1000
0100
0000
0000
0000
,
1000
0100
0001
0000
0100
1000
0100
1000
,
0020
0000
0000
0000
1030
0000
0100
1000
0100
0000
0000
0000
1000
0010
0000
0100
,
0001
0000
0000
0000
1000
0010
1000
0000
0001
0000
0100
0010
0000
0100
0001
0000
,
1000
0000
0000
0000
0001
0010
0001
0000
0100
0000
0000
0000
0010
1000
0000
0100
,
0010
0000
0000
0000
0100
1000
0100
0000
1001
0000
0010
0000
0100
0000
0001
0000
,
0110
0000
0000
0000
1001
0000
0100
0000
0010
1000
0010
0000
0200
0000
0001
0000
,
0301
0000
0000
0000
0010
0000
0100
0000
1000
0100
1000
0000
0020
0000
0100
0000
,
0130
0000
1001
0100
0010
1000
0101
0010
,
1000
0000
1001
0100
1010
0000
0101
0010
,
1001
0000
0000
0000
1000
0000
0010
0000
0100
0000
0010
1000
0000
0010
0100
0000
,
0001
0000
0100
0000
1000
0000
0100
0000
0001
0000
0010
0100
0000
0010
0001
0000
,
0010
0000
1000
0000
0010
0000
0001
0000
0100
0000
0010
1000
0000
0100
1000
0000
,
0001
0100
1000
0100
0101
0000
0010
1000
,
1010
0000
0000
0000
0001
0000
0100
0000
0010
0000
1000
0100
0000
0010
0100
0000
,
1000
0000
0100
0000
0001
0000
0100
0000
1000
0000
0010
0100
0000
0010
1000
0000
,
0001
0100
1010
0100
0001
0100
1001
0010
,
1000
0000
0110
0001
1010
0000
0110
1000
,
0101
0000
1001
0100
0010
1000
0001
0010
,
1001
0000
0100
0001
0110
0000
0100
1000
,
0110
2002
0000
0000
,
0000
0000
0000
0000
,
0000
3003
0000
0000
;

//---------------dance-single - ----------------
#NOTES:
     dance-single:
     :
     Medium:
     7:
     0.440,0.449,0.216,0.196,0.036:
0000
0000
0000
0000
,
0000
0000
0000
0000
,
1000
0000
0101
0000
0010
1000
0001
0000
,
0100
0000
1010
0000
0100
0200
0000
0301
,
0002
0000
1003
0000
0100
1000
0010
0000
,
0100
0001
0010
0000
0001
1000
0100
0000
,
1000
0010
1000
0000
0001
0100
0001
0000
,
1000
0100
0010
0001
1000
0010
0100
0001
,
2000
0000
3020
0000
0000
0230
0000
0000
,
0302
0000
0000
2000
0000
0000
3003
0000
,
0100
0000
0010
0000
0001
0000
0000
0001
0000
0000
0010
0000
0100
0000
0000
0000
,
1000
0000
0100
0000
0010
0000
0000
0010
0000
0000
0100
0000
1000
0000
0000
0000
,
0002
0000
0203
0000
0000
0320
0000
0000
,
2030
0000
0000
0002
0000
0000
3003
0000
,
0100
1000
0010
0100
0001
0010
0100
1000
,
0001
0001
0100
0010
0010
1000
0100
0100
,
1000
0010
0000
0100
0001
0000
1000
0010
,
0000
0100
0001
0000
1000
0001
1000
0000
,
0001
0100
0000
0010
1000
0000
0001
0100
,
0000
0010
1000
0000
0001
1000
0001
0000
,
1000
0100
0000
0010
0001
0000
1000
0100
,
0000
0010
0001
0000
1000
0001
1000
0000
,
0001
0010
0000
0100
1000
0000
0001
0010
,
0100
1000
0010
0100
0001
0100
0010
0000
,
2000
0100
0001
3100
,
0002
0010
1000
0013
,
2000
0010
0001
3010
,
0002
0000
0100
0000
0000
1000
0003
0100
,
0000
1000
0010
0100
0000
0001
0100
0010
,
0000
1000
0001
0100
0000
0001
1000
0100
,
0000
0110
0000
1001
,
0020
0000
1030
0100
1000
0001
0100
0001
,
0010
0000
0001
0100
0010
1000
0100
0010
,
0100
0000
1000
0010
0100
0001
0010
0100
,
1000
0000
0001
0100
0110
0000
1000
0010
,
0110
0000
0001
0100
0010
1000
0001
0100
,
0010
0000
1000
0100
0010
0001
0100
0010
,
0100
0000
0001
1000
1100
0000
0010
1000
,
1001
0011
0101
1100
,
1010
0000
0000
0000
0100
0000
0000
0000
0001
0000
0000
0100
0000
0000
0001
0000
,
0000
0000
1000
0000
0100
0000
0000
0000
0010
0000
0000
0100
0000
0000
0010
0000
,
0000
0000
1000
0000
0001
0000
0000
0000
1000
0000
0000
0100
0000
0000
1000
0000
,
0000
0010
0100
0000
1001
0000
0010
0000
,
1001
0000
0000
0000
0100
0000
1000
0000
0010
0000
0000
0100
0000
0000
0001
0000
,
0010
0000
0000
0000
0001
0000
0100
0000
0010
0000
0000
1000
0000
0000
0001
0000
,
0010
0000
0100
0001
1001
0000
0100
1000
,
1001
1100
1010
0011
,
0101
0000
1000
0010
0100
0001
0100
0010
,
1000
0100
0010
0001
0100
0010
1000
0001
,
0010
0100
2002
0000
0000
0000
0000
0000
,
0000
0000
0000
0000
,
0000
3003
0000
0000
;

//---------------dance-single - ----------------
#NOTES:
     dance-single:
     :
     Easy:
     5:
     0.343,0.396,0.278,0.247,0.000:
0000
0000
0000
0000
,
0000
0000
0000
0000
,
1000
0010
0100
1001
,
0010
0000
1000
0000
0100
0010
0000
0100
,
0010
0001
0200
0320
,
1030
0100
0001
0010
,
0001
1010
0100
1001
,
0100
0000
1000
0000
0010
1000
0000
0010
,
2000
0000
3020
0000
0000
0230
0000
0000
,
0302
0000
0000
2000
0000
0000
3003
0000
,
0100
1000
0010
0100
,
0001
0000
0100
0000
1000
1000
1000
0000
,
0002
0000
0203
0000
0000
0320
0000
0000
,
2030
0000
0000
0002
0000
0000
3003
0000
,
0010
0000
0001
0100
0000
0001
0010
0000
,
0100
1000
0000
0001
0100
0000
1001
0000
,
0000
0100
0000
0000
0010
0000
0000
0100
,
0000
0001
1000
0100
,
0000
1000
0000
0000
0010
0000
0000
0100
,
0000
0001
0010
0100
,
0000
1000
0000
0000
0001
0000
0000
0100
,
0000
0010
0100
0001
,
0000
1000
0000
0000
0100
0000
0001
0000
,
1100
0101
1100
0101
,
2000
0000
3020
0000
,
0230
0000
0302
0000
,
2003
0000
3200
0000
,
0320
0000
0000
0000
0032
0100
0000
0100
,
0003
0010
0000
1000
0000
0001
0000
0100
,
0000
0010
0000
1000
0000
0100
0000
0010
,
0002
0000
0000
0000
,
2003
3001
0100
0010
,
0001
0010
0100
1000
,
0001
0010
1000
0100
,
0001
0100
1001
0100
,
1010
0101
0010
1000
,
0010
1000
0001
0010
,
1000
0101
0010
1001
,
0100
1010
0011
1010
,
0011
0000
1000
0100
1000
0000
0001
0000
,
0001
0000
0100
0010
0100
0000
1000
0000
,
1000
0000
0001
0010
0001
0000
1000
0000
,
1000
0001
0110
1000
,
0101
0000
1010
0000
0100
0000
0001
0100
,
0001
0000
1000
0000
1000
0000
0001
0010
,
0001
0110
1000
0101
,
0010
1100
0101
1100
,
0101
0000
1000
0100
1000
0000
0001
0010
,
0001
0000
1000
0010
1000
0000
0001
0100
,
0001
2002
0000
0000
,
0000
0000
0000
0000
,
0000
3003
0000
0000
;

//---------------dance-single - ----------------
#NOTES:
     dance-single:
     :
     Beginner:
     2:
     0.202,0.238,0.216,0.144,0.000: // measure 1
0000
0000
0000
0000
,  // measure 2
0000
0000
0000
0000
,  // measure 3
0000
1000
0000
0001
,  // measure 4
0000
0100
0000
1000
,  // measure 5
0000
0100
0000
0001
,  // measure 6
0000
1000
0000
0001
,  // measure 7
0001
0000
0110
0000
,  // measure 8
1000
1000
1000
1000
,  // measure 9
0002
0003
0200
0300
,  // measure 10
0020
0030
2000
3000
,  // measure 11
0001
0000
0110
0000
,  // measure 12
1000
0000
0110
0000
,  // measure 13
0002
0003
0020
0030
,  // measure 14
0200
0300
2000
3000
,  // measure 15
0001
0000
1001
0000
,  // measure 16
1000
0000
0001
0000
,  // measure 17
1000
0000
0100
0000
,  // measure 18
0001
0000
0100
0000
,  // measure 19
1000
0000
0010
0000
,  // measure 20
0001
0000
0010
0000
,  // measure 21
1000
0000
0100
0000
,  // measure 22
0001
0000
0100
0000
,  // measure 23
1000
0000
0010
0000
,  // measure 24
0001
0001
0001
0001
,  // measure 25
2000
0000
0000
3000
,  // measure 26
0002
0000
0000
0003
,  // measure 27
0200
0000
0000
0300
,  // measure 28
0020
0000
0000
1030
,  // measure 29
0000
0001
0000
0110
,  // measure 30
0000
1000
0000
0110
,  // measure 31
0000
0001
0000
0110
,  // measure 32
0000
0001
0000
0100
,  // measure 33
0000
0010
0000
0100
,  // measure 34
0000
0001
0000
1000
,  // measure 35
0000
0000
1001
0000
,  // measure 36
0110
0000
0000
1000
,  // measure 37
0000
0100
0000
0001
,  // measure 38
0000
1001
0000
1001
,  // measure 39
0000
0110
0110
0110
,  // measure 40
0000
0010
0010
0010
,  // measure 41
0000
0100
0100
0100
,  // measure 42
0000
0001
0001
0001
,  // measure 43
0000
0000
1001
0000
,  // measure 44
1001
0000
0100
0100
,  // measure 45
0000
1000
1000
1000
,  // measure 46
0000
0110
0000
0110
,  // measure 47
0000
0001
1000
0001
,  // measure 48
1000
0001
0000
1001
,  // measure 49
0000
1000
0000
1001
,  // measure 50
0000
0220
0000
0000
,  // measure 51
0000
0000
0000
0000
,  // measure 52
0000
0330
0000
0000
;
