#TITLE:Pinball (Clubhunter Remix);
#SUBTITLE:;
#ARTIST:CCK;
#TITLETRANSLIT:;
#SUBTITLETRANSLIT:;
#ARTISTTRANSLIT:;
#CREDIT:348 with Timer Rabbit;
#BANNER:Pinball (Clubhunter Remix) Banner.png;
#BACKGROUND:Pinball (Clubhunter Remix) Background.png;
#LYRICSPATH:Pinball (Clubhunter Remix).lrc;
#CDTITLE:348 with Timer Rabbit.png;
#MUSIC:Pinball (Clubhunter Remix).mp3;
#OFFSET:-1.103;
#SAMPLESTART:14.817;
#SAMPLELENGTH:15.000;
#SELECTABLE:YES;
#BPMS:0.000=140.000;
#STOPS:;
#BGCHANGES:;

//---------------dance-single - ----------------
#NOTES:
     dance-single:
     :
     Beginner:
     1:
     0.091,0.137,0.008,0.000,0.000: // measure 1
0000
0000
0000
0000
,  // measure 2
0000
0000
0000
0000
,  // measure 3
0000
0000
0000
0000
,  // measure 4
0000
0000
0000
0000
,  // measure 5
1000
0000
0000
0000
,  // measure 6
0100
0000
0000
0000
,  // measure 7
0010
0000
0000
0000
,  // measure 8
0001
0000
0000
0000
,  // measure 9
1000
0000
0000
0000
,  // measure 10
1000
0000
1000
0000
,  // measure 11
0001
0000
0000
0000
,  // measure 12
0001
0000
0001
0000
,  // measure 13
0100
0000
0000
0000
,  // measure 14
0100
0000
0100
0000
,  // measure 15
0010
0000
0000
0000
,  // measure 16
0010
0000
0010
0000
,  // measure 17
1000
0000
0000
0000
,  // measure 18
0000
1000
1000
0000
,  // measure 19
0001
0000
0000
0000
,  // measure 20
0000
0001
0001
0000
,  // measure 21
0100
0000
0000
0000
,  // measure 22
0000
0100
0100
0000
,  // measure 23
0010
0000
0000
0000
,  // measure 24
0000
0010
0010
0000
,  // measure 25
1000
0000
0000
0000
,  // measure 26
0000
0000
0000
0000
,  // measure 27
0001
0000
0000
0000
,  // measure 28
0000
0000
0000
0000
,  // measure 29
0010
0000
0000
0000
,  // measure 30
0000
0000
0000
0000
,  // measure 31
0100
0000
0000
0000
,  // measure 32
0000
0000
0000
0000
,  // measure 33
1000
0000
0000
0000
,  // measure 34
0001
0000
1000
0000
,  // measure 35
0001
0000
0000
0000
,  // measure 36
1000
0000
0000
0000
,  // measure 37
0100
0000
0010
0000
,  // measure 38
0001
0000
0000
0000
,  // measure 39
0100
0000
0010
0000
,  // measure 40
1000
0000
0000
0000
,  // measure 41
0010
0000
0000
0000
,  // measure 42
1000
0000
0000
0000
,  // measure 43
0100
0000
0000
0000
,  // measure 44
0010
0000
0001
0000
,  // measure 45
1000
0000
0000
0000
,  // measure 46
0001
0000
1000
0000
,  // measure 47
0010
0000
0000
0000
,  // measure 48
0100
0000
0000
0000
,  // measure 49
0001
0000
0000
0000
,  // measure 50
0010
0000
0000
0000
,  // measure 51
0001
0000
0000
0000
,  // measure 52
1000
0000
0000
0000
,  // measure 53
1000
0000
0000
0000
,  // measure 54
0010
0000
0000
0000
,  // measure 55
0010
0000
0000
0000
,  // measure 56
0100
0000
0000
0000
,  // measure 57
0100
0000
0000
0000
,  // measure 58
0001
0000
0000
0000
,  // measure 59
0001
0000
0000
0000
,  // measure 60
1000
0000
0000
0000
,  // measure 61
0010
0000
0000
0000
,  // measure 62
0100
0000
0000
0000
,  // measure 63
0001
0000
0000
0000
,  // measure 64
1000
0000
0001
0000
,  // measure 65
1000
0000
0001
0000
,  // measure 66
0100
0000
0010
0000
,  // measure 67
0100
0000
0010
0000
,  // measure 68
1001
0000
0000
0000
;

//---------------dance-single - ----------------
#NOTES:
     dance-single:
     :
     Easy:
     4:
     0.295,0.332,0.254,0.172,0.000: // measure 1
0000
0000
0000
0000
,  // measure 2
0000
0000
0000
0000
,  // measure 3
0000
0000
0000
0000
,  // measure 4
0000
0000
0000
0000
,  // measure 5
1000
0100
1000
0000
,  // measure 6
0001
0010
0001
0000
,  // measure 7
1000
0001
1000
0000
,  // measure 8
0010
0100
0000
0010
,  // measure 9
1000
0100
0010
0001
,  // measure 10
2000
3001
1000
0010
,  // measure 11
1100
0000
0001
1000
,  // measure 12
0002
1003
0001
0100
,  // measure 13
0001
0010
0100
1000
,  // measure 14
0011
0000
0100
0010
,  // measure 15
1100
1100
0001
0010
,  // measure 16
0011
0000
1000
0100
,  // measure 17
1000
0010
0100
0001
,  // measure 18
0200
0310
0100
0001
,  // measure 19
1010
0000
0001
1000
,  // measure 20
0020
0130
0010
1000
,  // measure 21
0001
0010
0100
1000
,  // measure 22
0101
0000
1000
0010
,  // measure 23
1010
1010
1000
0001
,  // measure 24
0101
0000
1001
0000
,  // measure 25
2000
0000
0010
3000
,  // measure 26
0002
0000
0100
0003
,  // measure 27
1000
0100
1100
0000
,  // measure 28
0010
0001
0011
0000
,  // measure 29
1000
0001
1001
0000
,  // measure 30
0200
0000
0010
0310
,  // measure 31
2000
0000
3001
0100
,  // measure 32
0020
0000
1030
0001
,  // measure 33
0200
0300
0002
0003
,  // measure 34
1000
0100
0001
0100
,  // measure 35
1001
0000
0110
0000
,  // measure 36
1000
0100
1000
0100
,  // measure 37
0010
0001
0010
0001
,  // measure 38
1000
0001
1000
0001
,  // measure 39
2000
0000
0001
3001
,  // measure 40
0001
0100
0001
0100
,  // measure 41
0010
1000
0010
1000
,  // measure 42
0010
0100
0010
0100
,  // measure 43
0020
0000
0100
0130
,  // measure 44
1001
0000
1000
0100
,  // measure 45
0011
0000
0001
0100
,  // measure 46
1010
0000
0010
0100
,  // measure 47
0110
0000
0110
0000
,  // measure 48
0110
0000
0001
0010
,  // measure 49
1100
0000
1000
0010
,  // measure 50
0101
0000
1000
0001
,  // measure 51
1001
0000
1001
0000
,  // measure 52
2000
0000
0100
3100
,  // measure 53
0020
0000
0001
0031
,  // measure 54
0001
0100
1000
0100
,  // measure 55
0001
0010
1000
0010
,  // measure 56
0002
0000
0100
0103
,  // measure 57
0020
0000
1000
1030
,  // measure 58
1000
0001
0100
0010
,  // measure 59
1001
0000
0110
0000
,  // measure 60
1000
0000
0100
0000
,  // measure 61
0010
0000
0001
0000
,  // measure 62
1000
0000
0100
0000
,  // measure 63
0001
0000
0010
0000
,  // measure 64
1000
0010
0100
0001
,  // measure 65
0100
0001
1000
0010
,  // measure 66
2000
3010
0002
0103
,  // measure 67
1001
0000
0110
0000
,  // measure 68
2002
0000
3003
0000
;

//---------------dance-single - ----------------
#NOTES:
     dance-single:
     :
     Medium:
     5:
     0.348,0.360,0.221,0.246,0.000: // measure 1
0000
0000
0000
0000
,  // measure 2
0000
0000
0000
0000
,  // measure 3
0000
0000
0000
0000
,  // measure 4
0000
0000
0000
0000
,  // measure 5
1000
0100
0001
0100
,  // measure 6
1000
0010
0001
0010
,  // measure 7
1000
0100
0010
0001
,  // measure 8
1002
0000
2003
0000
,  // measure 9
3001
0000
0010
0000
0001
0010
0001
0000
,  // measure 10
0200
0301
0002
1003
,  // measure 11
1001
0000
1000
1001
,  // measure 12
2000
3010
0020
0130
,  // measure 13
0100
0000
0001
0000
1000
0010
1000
0000
,  // measure 14
0101
0000
1010
0000
,  // measure 15
0001
0000
0100
0000
0010
1000
0010
0000
,  // measure 16
1100
0000
0011
0000
,  // measure 17
1000
0000
0100
0000
1000
0100
1000
0000
,  // measure 18
0200
1300
0020
0130
,  // measure 19
0110
0000
0010
0110
,  // measure 20
0002
0013
2000
3001
,  // measure 21
1000
0000
0100
0000
0010
0001
0010
0000
,  // measure 22
0011
0000
0101
0000
,  // measure 23
0010
0000
1000
0000
0001
0100
0001
0000
,  // measure 24
1100
0000
1010
0000
,  // measure 25
0002
0000
0200
0003
,  // measure 26
0020
0300
2000
0030
,  // measure 27
3002
0010
0010
0013
,  // measure 28
0200
1000
1000
1300
,  // measure 29
2000
0010
0010
3010
,  // measure 30
0020
0100
0100
0130
,  // measure 31
1000
0000
0001
0000
,  // measure 32
1000
0100
0020
0000
,  // measure 33
0031
0010
0100
1000
,  // measure 34
0001
0010
0001
0000
1000
0100
1000
0000
,  // measure 35
0002
0000
2000
3003
,  // measure 36
0101
0000
1000
0100
,  // measure 37
0001
0100
1000
0001
,  // measure 38
1010
0000
0001
0100
,  // measure 39
0010
0100
0001
1000
,  // measure 40
0011
0000
1000
0001
,  // measure 41
0100
0010
1000
0001
,  // measure 42
1100
0000
0001
0010
,  // measure 43
1000
0000
0010
0000
0001
0000
1000
0100
,  // measure 44
2000
0000
3100
0000
0000
0100
1000
0000
,  // measure 45
0002
0000
0013
0000
0000
0010
0001
0000
,  // measure 46
0001
1000
0001
0110
,  // measure 47
1000
0000
0100
0000
0010
0001
0010
0000
,  // measure 48
0002
0000
0000
0000
1003
0100
1000
0000
,  // measure 49
0020
0000
0000
0000
0130
0001
0100
0000
,  // measure 50
0001
0010
0001
1010
,  // measure 51
1000
0000
0001
0000
1000
0001
1000
0000
,  // measure 52
0110
0000
0002
1003
,  // measure 53
0001
0000
0100
0000
0100
0001
0100
0000
,  // measure 54
1001
0000
1000
0100
,  // measure 55
1000
0000
0010
0000
1000
0001
1000
0000
,  // measure 56
0001
1000
0010
1010
,  // measure 57
1000
0001
0100
0101
,  // measure 58
0001
0000
1000
0100
1000
0000
1001
0000
,  // measure 59
0200
0000
0020
0330
,  // measure 60
1000
0100
0100
1000
,  // measure 61
0001
0010
0010
0001
,  // measure 62
0100
0001
0100
1000
,  // measure 63
0100
0001
1000
0010
,  // measure 64
1000
0000
0100
0000
1000
0010
1000
0000
,  // measure 65
0001
0000
0010
0000
0001
0100
0001
0000
,  // measure 66
1000
0001
1000
0000
0010
0100
0010
0000
,  // measure 67
1001
0000
0110
0000
,  // measure 68
2002
0000
3003
0000
;

//---------------dance-single - ----------------
#NOTES:
     dance-single:
     :
     Hard:
     7:
     0.474,0.498,0.262,0.246,0.045: // measure 1
0000
0000
0000
0000
,  // measure 2
0000
0000
0000
0000
,  // measure 3
0000
0000
0000
0000
,  // measure 4
0000
0000
0000
0000
,  // measure 5
2000
0100
0100
3100
,  // measure 6
0200
0010
0010
0310
,  // measure 7
0020
0001
0001
0031
,  // measure 8
2002
0000
0000
3003
,  // measure 9
0011
0000
0101
0000
1000
0100
0001
0100
,  // measure 10
2000
0000
3010
0000
0100
0001
0100
0000
,  // measure 11
1001
0000
0000
0000
0001
0010
1000
0010
,  // measure 12
0002
0013
0100
1100
,  // measure 13
1000
0000
1001
0000
0001
0010
0100
0010
,  // measure 14
0001
0000
1000
0000
0010
0100
0001
0100
,  // measure 15
0010
0000
1000
0000
0001
0010
0100
1000
,  // measure 16
0001
0000
1000
0010
1000
0000
0001
0000
,  // measure 17
1100
0000
1010
0000
0001
0100
1000
0100
,  // measure 18
0002
0000
0103
0000
0010
1000
0010
0000
,  // measure 19
0110
0000
0000
0000
1000
0010
0001
0010
,  // measure 20
2000
3100
0010
0011
,  // measure 21
0001
0000
0110
0000
1000
0010
0100
0001
,  // measure 22
1000
0000
0010
0000
0100
0001
1000
0001
,  // measure 23
0100
0000
0001
0000
1000
0010
0100
0010
,  // measure 24
2000
0000
0002
3003
,  // measure 25
0001
0010
0200
1300
,  // measure 26
1000
0100
0020
0031
,  // measure 27
0002
0010
0100
0103
,  // measure 28
0200
0001
0010
0310
,  // measure 29
0020
0100
1000
1030
,  // measure 30
2000
0100
0001
3001
,  // measure 31
0001
0000
0100
0010
1000
0001
0100
0000
,  // measure 32
0010
0000
1000
0010
0100
0001
0010
0000
,  // measure 33
0001
1000
0100
0000
0010
0001
1000
0000
,  // measure 34
0001
0010
0001
0010
0100
1000
0100
1000
,  // measure 35
0001
0000
0000
0110
0000
0000
1000
0000
0002
0000
0000
0000
1003
0000
0000
0000
,  // measure 36
1000
0000
0000
0100
0000
0000
1000
0000
0001
0000
0010
0000
0100
0000
0010
0000
,  // measure 37
0001
0000
0000
0010
0000
0000
0001
0000
1000
0000
0000
0000
0101
0000
0000
0000
,  // measure 38
1000
0000
0000
0001
0000
0000
0100
0000
0010
0000
0100
0000
0001
0000
0100
0000
,  // measure 39
0001
0000
0000
1000
0000
0000
0010
0000
0100
0000
0000
0000
1010
0000
0000
0000
,  // measure 40
0001
0000
0000
0110
0000
0000
1000
0000
0100
0000
0010
0000
0001
0000
0100
0000
,  // measure 41
0010
0000
0000
1001
0000
0000
0100
0000
0001
0000
1000
0000
0100
0000
0010
0000
,  // measure 42
0001
0000
0000
1010
0000
0000
0001
0000
0100
0000
0010
0000
1000
0000
0001
0000
,  // measure 43
1000
0000
0000
0110
0000
0000
1001
0000
1001
0000
0000
0000
0110
0000
0000
0000
,  // measure 44
2000
0000
3001
0010
1000
0010
0001
0100
,  // measure 45
0020
0000
1030
0100
0010
0001
1000
0001
,  // measure 46
0200
0000
0301
0010
0100
0010
0001
0010
,  // measure 47
0002
0000
0000
1000
0000
0000
1000
0000
1003
0000
0000
0000
0010
0000
0100
0000
,  // measure 48
0002
0000
1003
0100
0010
0100
1000
0100
,  // measure 49
0010
0001
0100
0001
2000
0000
3001
0000
,  // measure 50
0200
0000
0301
0010
0100
1000
0010
0100
,  // measure 51
0020
0000
0000
0100
0000
0000
0130
0000
0110
0000
0000
0000
1001
0000
0000
0000
,  // measure 52
1000
0000
0100
0000
0010
0001
0010
0000
,  // measure 53
0001
0010
1000
0010
0000
0001
0000
1000
,  // measure 54
0001
0000
0010
0000
0100
1000
0100
0000
,  // measure 55
1000
0100
0010
0100
1000
0001
0100
0000
,  // measure 56
0001
0000
1000
0000
0001
0100
0010
0000
,  // measure 57
0010
1000
0100
0000
0100
0010
0001
0000
,  // measure 58
1000
0100
0010
0100
1000
0100
0001
0100
,  // measure 59
1000
0001
1000
0001
1000
0000
0110
0000
,  // measure 60
0001
0100
0020
0130
,  // measure 61
0100
0001
2000
3001
,  // measure 62
0001
1100
1000
0011
,  // measure 63
0100
0101
0010
1010
,  // measure 64
0001
0010
0001
0000
1000
0100
0010
0000
,  // measure 65
0100
1000
0100
0000
0010
0001
1000
0000
,  // measure 66
0001
0100
0001
0010
0100
1000
0010
1000
,  // measure 67
0001
0100
0000
0011
0000
1100
0000
1001
,  // measure 68
2002
0000
3003
0000
;

//---------------dance-single - ----------------
#NOTES:
     dance-single:
     :
     Challenge:
     9:
     0.650,0.636,0.287,0.172,0.287: // measure 1
0000
0000
0000
0000
,  // measure 2
0000
0000
0000
0000
,  // measure 3
0000
0000
0000
0000
,  // measure 4
0000
0000
0000
0000
,  // measure 5
1000
0000
0000
0001
1000
0000
0100
0000
0010
0000
0100
0000
2000
0000
0000
0000
,  // measure 6
3010
0000
0000
0100
0001
0000
0010
0000
1000
0000
0010
0000
0002
0000
0000
0000
,  // measure 7
1003
0000
0000
0010
0100
0000
0001
0000
1000
0000
0100
0000
0010
0000
0001
0000
,  // measure 8
2002
0000
0000
0000
0003
0000
0000
0000
3010
0000
0100
0001
0100
0000
0010
0000
,  // measure 9
1000
0100
1100
0000
1000
0100
0001
0100
,  // measure 10
1000
0001
0011
0000
0100
0001
1000
0001
,  // measure 11
0010
0001
0011
0000
1000
0100
0010
0100
,  // measure 12
1000
0001
0010
0001
0100
0010
1000
0001
,  // measure 13
1000
0000
0100
1000
0100
0000
0000
0000
0010
0000
0001
0000
1000
0000
0100
0000
,  // measure 14
0010
0000
0001
0010
0001
0000
0000
0000
1000
0000
0001
0000
0100
0000
0001
0000
,  // measure 15
1000
0000
0010
0100
0010
0000
0100
0000
0001
0000
0010
0000
1000
0000
0010
0000
,  // measure 16
0001
0000
1000
0000
0010
0000
0100
0000
0001
1000
0001
0000
2000
0000
0000
0000
,  // measure 17
3001
0100
0101
0000
1000
1000
0100
0010
,  // measure 18
0100
1000
1010
0000
0001
1000
0100
1000
,  // measure 19
0010
0100
0110
0000
1000
0100
1000
0100
,  // measure 20
0100
0000
1000
0000
0001
0000
0010
0000
0001
0000
1000
0100
1000
0000
0001
0000
,  // measure 21
0100
0000
0001
0100
0001
0000
0000
0000
1000
0000
0100
0000
0001
0000
0100
0000
,  // measure 22
1000
0000
0001
0010
0001
0000
0000
0000
0100
0000
0001
0000
1000
0000
0010
0000
,  // measure 23
0100
0000
0001
0010
0001
0000
1000
0000
0001
0000
1000
0000
0010
0000
0100
0000
,  // measure 24
0001
1000
0000
0011
0000
1100
0000
1001
,  // measure 25
1002
0100
0010
0103
,  // measure 26
0210
1000
0001
0310
,  // measure 27
0110
0000
0000
1000
0100
0000
1000
0000
0010
0000
0100
0000
0002
0000
0010
0000
,  // measure 28
0013
0000
0000
0001
1000
0000
0100
0000
0010
0000
0100
0000
2000
0000
0010
0000
,  // measure 29
3010
0000
0000
0010
1000
0000
0100
0000
0010
0000
0010
0000
0001
0000
1000
0000
,  // measure 30
0002
0000
0000
0103
0010
0000
0100
0000
0020
0000
0000
1030
0100
0000
1000
0001
,  // measure 31
1000
0000
0100
0000
1000
0000
0010
0000
1000
0000
0001
0000
1000
0000
0001
0010
,  // measure 32
0001
0000
1000
0000
0001
0000
0100
0000
0001
0000
0010
0000
0001
0000
1000
0001
,  // measure 33
1000
0000
0001
0000
0100
0000
0010
0100
0010
0000
0100
0000
0001
0000
1000
0100
,  // measure 34
1000
0000
0100
0010
0100
0000
0010
0001
0010
0000
0001
1000
0001
0000
0100
0010
,  // measure 35
0100
0001
0000
1000
0010
0000
0100
0000
0110
0000
0000
0000
0110
0000
0000
0000
,  // measure 36
1000
0100
0000
0100
1000
0000
0001
0000
0010
0000
0001
0000
0100
0000
0001
0000
,  // measure 37
0010
0001
0000
0001
0010
0000
0001
0000
1000
0000
0100
0000
0020
0000
0000
0000
,  // measure 38
0031
0100
0000
0100
0001
0000
1000
0000
0010
0000
0001
0000
0010
0000
1000
0000
,  // measure 39
0001
0000
0000
0110
0000
0000
2000
0000
0001
0000
3001
0010
0001
0000
1000
0000
,  // measure 40
0001
0100
0000
0010
2000
0000
0001
0000
3001
0000
1000
0000
0010
0000
0000
0000
,  // measure 41
0100
0001
0000
1000
0020
0000
1000
0000
1030
0000
0001
0000
0100
0000
0000
0000
,  // measure 42
0001
1000
0000
1000
0001
0000
0100
0000
0010
0000
0100
0000
0001
0000
1000
0000
,  // measure 43
0100
1000
0000
0001
0010
0000
0001
0000
1000
0000
0001
0010
0001
0010
0001
0000
,  // measure 44
1000
0100
0000
0010
0100
0000
1000
0000
0100
0000
1000
0000
0010
0000
0100
0000
,  // measure 45
0011
0000
0000
1100
0000
0000
1001
0000
1000
0000
0010
0100
0010
0000
1000
0000
,  // measure 46
0001
0100
0000
0010
0100
0000
0001
0000
1000
0000
0001
0000
0100
0000
0001
0000
,  // measure 47
1010
0000
0000
0101
0000
0000
0110
0000
0010
0000
1000
0001
1000
0000
0010
0000
,  // measure 48
1000
0000
0001
0100
0001
0000
1000
0000
0100
0000
1000
0000
0001
0000
0010
0000
,  // measure 49
0001
0000
0100
0010
0100
0000
0001
0000
1000
0000
0100
0000
0001
0000
0100
0000
,  // measure 50
1000
0000
0010
0100
0001
0000
1000
0000
0001
0000
0010
0100
1000
0000
0001
0000
,  // measure 51
0100
0010
0000
0010
0100
0000
0001
0000
1000
0000
0001
0010
0100
0000
1000
0000
,  // measure 52
0001
0010
1000
0010
0001
0100
1000
0100
,  // measure 53
0001
0010
1000
0010
0001
0100
1000
0100
,  // measure 54
0001
0010
0100
1000
0001
0100
0010
1000
,  // measure 55
0001
0000
0010
0000
0100
0000
0010
0000
0001
0000
1000
0000
0100
0000
1000
0010
,  // measure 56
1000
0100
0001
0100
1000
0010
0001
0010
,  // measure 57
1000
0100
0010
0001
1000
0001
0100
0010
,  // measure 58
1000
0100
1000
1100
0010
0001
0010
0011
,  // measure 59
0001
0000
1000
0100
0010
0000
0001
0010
0100
0000
1000
0000
1001
0000
0000
0000
,  // measure 60
2000
0100
0000
0010
0000
0001
0000
3010
,  // measure 61
0000
1010
0000
1001
0000
0101
0000
1001
,  // measure 62
0000
0021
0000
1000
0000
0100
0000
0031
,  // measure 63
0000
0000
0011
0000
0000
0000
0110
0000
0000
0000
1100
0000
0000
0000
0010
0100
,  // measure 64
0010
1000
0100
1000
0100
0010
0001
0100
,  // measure 65
0001
0100
0010
1000
0100
0010
0001
1000
,  // measure 66
0001
0000
1000
0100
0010
0000
0100
0010
0001
0000
0100
0001
0010
0000
0100
1000
,  // measure 67
0010
0000
1000
0001
1000
0000
0010
0000
0220
0000
0000
0000
0000
0330
0000
0000
,  // measure 68
2002
0000
3003
0000
;
