#TITLE:Magic Still Remains;
#SUBTITLE:;
#ARTIST:ReinXeed;
#TITLETRANSLIT:;
#SUBTITLETRANSLIT:;
#ARTISTTRANSLIT:;
#CREDIT:;
#BANNER:bn.PNG;
#BACKGROUND:bg.PNG;
#LYRICSPATH:;
#CDTITLE:;
#MUSIC:Magic Still Remains.mp3;
#OFFSET:-0.660;
#SAMPLESTART:46.740;
#SAMPLELENGTH:13.820;
#SELECTABLE:YES;
#BPMS:0.000=130.010;
#STOPS:;
#BGCHANGES:;

//---------------dance-single - ----------------
#NOTES:
     dance-single:
     :
     Hard:
     7:
     0.510,0.507,0.156,0.302,0.203:
0000
0000
0000
0000
,
0000
0000
0000
0000
,
0000
0000
0000
0000
,
0000
0000
0000
0000
,
1000
0000
0010
0000
0000
0100
0000
0000
0001
0000
0000
0010
0000
0000
0001
0000
,
0100
0000
1000
0000
0000
0100
0000
0000
0001
0000
0000
0010
0000
0000
0100
0000
,
1000
0000
0010
0000
0000
1000
0000
0000
0100
0000
0000
0010
0000
0000
0001
0000
,
0100
0000
0010
0000
0000
1000
0000
0000
0001
0000
0010
0000
0100
0000
1000
0000
,
0010
0100
0001
1000
0010
1000
1100
0000
,
0100
0000
0000
0010
0000
0000
0001
0000
2000
0000
0000
0000
3010
0000
1000
0000
,
0100
0000
0000
0001
0000
0000
0100
0000
0020
0000
0000
0000
0130
0000
0000
0000
,
0010
0000
0000
1000
0000
0000
0001
0000
0010
0000
0000
0100
0000
0000
1000
0000
,
0100
0010
0001
1000
0010
0100
0101
1001
,
1100
0000
0000
0010
0000
0000
0001
0000
1000
0000
0000
0010
0000
0000
1000
0000
,
0100
0000
0000
0001
0000
0000
0100
0000
0010
0000
0000
0000
1010
0000
0010
0000
,
0100
0000
0000
0001
0000
0000
0010
0000
0001
0000
0000
0100
0000
0000
1000
0000
,
0100
0001
0010
0100
1000
0010
0001
0010
,
1010
0020
0230
0302
,
0013
0001
0100
1000
0100
0001
0010
0100
,
1100
0000
0000
0000
1000
0000
0000
0000
0010
0000
0000
0100
0000
0000
0001
0000
,
0010
0001
0100
0010
1000
0100
0001
0100
,
1100
2000
3020
0230
,
0301
0010
0001
0100
1000
0100
0001
0010
,
0100
0000
0000
1000
0000
0000
0010
0000
0100
0000
0000
0001
0000
0000
0010
0000
,
1000
0000
0010
0000
0001
0000
0100
0000
0110
0000
0000
1010
0000
0000
0110
0000
,
0100
0000
0000
0001
0000
0000
0010
0000
1000
0000
0000
0010
0000
0000
0001
0000
,
0100
0000
0000
0010
0000
0000
1000
0000
0100
0000
0001
0000
0101
0000
0000
0000
,
0100
0000
0000
1000
0000
0000
0010
0000
0100
0000
0000
0001
0000
0000
0010
0000
,
0001
0100
0010
1000
0100
0010
0001
1000
,
1010
0000
0000
0010
0000
0000
0100
0000
0001
0000
0000
0010
0000
0000
1000
0000
,
0010
0000
0000
0001
0000
0000
0100
0000
0010
0000
0000
0000
0110
0000
0000
0000
,
0020
2030
3002
0023
,
0031
0100
0010
1000
0100
0001
0100
1000
,
0020
0000
1030
0100
0001
0100
0010
0001
,
0010
0000
0000
1000
0000
0000
0010
0000
0000
0000
0000
0000
0100
0000
0000
0000
0100
0000
0001
0000
0000
0000
0001
0000
,
0020
0230
2300
3002
,
0023
0000
0031
0100
2000
0000
3100
0010
,
0022
0000
0000
0033
0001
0000
0010
0000
0100
0000
1000
0000
0010
0000
0100
0000
,
0002
0000
1003
0010
2000
0000
3100
0000
,
0010
0000
0000
0001
0000
0000
0100
0000
0000
0010
0000
0000
1000
0000
0100
0000
,
0001
0000
0000
0100
0000
0000
1000
0000
0010
0000
0100
0000
0001
0000
0010
0000
,
0001
0000
0000
0100
0000
0000
1000
0000
0001
0000
0000
0010
0000
0000
1000
0000
,
0001
0000
0000
0100
0000
0000
0010
0000
1000
0000
0000
0100
0000
0000
0010
0000
,
0001
0000
0000
1000
0000
0000
0010
0000
1000
0000
0000
0001
0000
0000
0010
0000
,
0002
0000
1003
0100
2000
0000
3010
0000
,
0100
0001
0010
1000
0010
0001
0100
0010
,
2000
0000
3001
0010
0002
0000
0103
0000
,
0020
0000
1030
0001
0100
0100
0001
0001
,
0010
0001
0100
0001
0010
0100
1000
0100
,
0010
0001
1000
0010
0100
0001
1000
0100
,
0010
0010
0001
0001
1000
1000
0100
0100
,
0020
0030
0000
0000
;

//---------------dance-single - ----------------
#NOTES:
     dance-single:
     :
     Challenge:
     9:
     0.758,0.720,0.187,0.468,0.458:
0000
0000
0000
0000
,
0000
0000
0000
0000
,
0000
0000
0000
0000
,
0000
0000
0000
0000
,
1000
0000
0010
0000
0100
0001
0000
0100
0001
0000
0010
0001
0000
0010
0001
0000
,
1000
0000
0010
0000
0100
0010
0000
0100
0010
0000
1000
0010
0000
1000
0010
0000
,
0100
0000
0001
0000
0010
0001
0000
0010
0001
0000
1000
0100
0000
1000
0100
0000
,
0010
0000
0001
0000
0100
0010
0000
1000
0010
0000
0100
0001
0100
0000
0010
1000
,
0010
0000
1000
0100
1000
0000
0001
0010
0001
0000
1000
0001
1000
0000
0000
0000
,
0001
0010
1000
0010
0002
0000
0013
0100
,
1000
0100
0010
0001
0200
0310
0110
0000
,
0010
1000
0001
0100
0001
0010
0100
1000
,
0100
0010
0001
1000
0010
0100
0110
0110
,
0100
0000
0001
0000
0010
0001
0010
0000
0001
0000
0100
0000
0010
1000
0010
0000
,
1000
0000
0100
0000
1000
0100
1000
0000
0100
0000
0010
0000
0001
0010
0001
0000
,
1001
0000
0001
0000
0100
0010
0100
0000
0010
0000
1000
0000
0100
1000
0100
0000
,
1100
0000
0100
0000
0010
0100
0010
0000
0001
0010
0001
0010
0100
1000
0100
1000
,
0100
0010
0002
0013
2000
3010
0002
0013
,
1000
0000
0010
0000
0100
0000
0001
0000
1000
0100
1000
0000
0001
0100
0001
0000
,
0011
0001
0200
0310
2000
3100
0002
0203
,
0310
1000
0100
0010
0001
1000
0001
0100
,
0101
0100
0020
1030
0200
0310
0002
1003
,
0010
1000
0100
0001
0100
1000
0010
1000
,
1010
0010
0100
0001
0010
0001
1000
0010
,
0100
0010
0100
0000
0001
1000
0001
0000
1001
0000
0001
1000
0000
1000
0010
0000
,
1010
0000
1000
0000
0010
0100
0010
0000
0100
0000
0001
0000
0010
0001
0010
0000
,
0011
0000
0001
0000
0100
0001
0100
0000
0010
0000
0100
0000
0010
1000
0010
0000
,
1010
0000
0010
0000
1000
0100
1000
0000
1100
0000
0100
0000
0010
0001
0010
0000
,
1001
0000
0001
0000
0100
0010
0100
0000
0010
0000
1000
0000
0010
0100
0010
0100
,
0010
0000
0100
0000
0001
0010
0001
0000
1001
0000
0001
0000
1000
0010
1000
0000
,
1010
0000
0010
0000
0100
0010
0100
0000
0110
0000
0100
0000
0001
0100
0001
0000
,
2000
3100
0002
0103
2000
3010
0002
0013
,
1000
0010
1000
0000
0001
0100
0001
0000
2000
0000
3020
0000
0230
0000
0302
0000
,
0023
0000
0001
0000
0100
0000
0031
0000
0100
0000
0010
0100
0010
0000
0100
0000
,
0020
0000
0000
2030
0000
0000
3002
0000
0000
1003
0000
0000
0001
0000
0010
0000
0100
0000
1000
0000
0010
0000
0100
0000
,
0002
0000
1003
0000
0200
0000
1300
0010
2000
0000
3010
0000
0200
0000
0301
0000
,
0020
0000
0001
0000
0130
0000
0010
1000
0020
0000
0130
0000
0001
0000
1000
0000
,
0200
0010
0001
0310
0002
0203
0320
2030
,
3002
0010
1000
0013
0200
1000
0001
1300
,
0100
0000
0100
0010
0000
0010
0001
0000
0001
1000
0000
1000
0010
0000
0100
0000
,
0001
0000
0010
0100
0000
0100
1000
0000
0010
1000
0010
1000
0001
0100
0001
0100
,
0010
0000
1000
0100
1000
0000
0100
0000
0010
0000
0001
0010
0001
0000
0100
0000
,
0010
0000
1000
0010
1000
0000
0010
0000
0100
0000
0001
1000
0001
0000
0010
0000
,
0011
0000
0010
0100
0010
0000
0100
0000
1000
0000
0001
1000
0001
0000
0010
0000
,
0001
0000
0100
0010
0100
0000
0010
0000
1000
0000
0100
1000
0100
0000
0010
0000
,
0001
0010
0001
0000
1000
0010
1000
0000
0001
0100
0001
0000
1000
0100
1000
0000
,
0002
0010
0100
1003
2000
0010
0100
3001
,
0020
0100
1030
0100
0020
0032
2003
3200
,
0310
0001
0100
0001
0010
0100
1000
0100
,
0010
0001
0010
0000
0001
0100
0001
0000
0100
0010
0100
0000
0010
1000
0010
0000
,
1000
0000
0000
0100
0000
0000
0010
0000
0000
0001
0000
0000
1000
0000
0010
0000
1000
0000
0001
0000
0010
0000
0001
0000
,
2000
3000
0000
0000
;

//---------------dance-single - ----------------
#NOTES:
     dance-single:
     :
     Beginner:
     1:
     0.094,0.133,0.010,0.000,0.000:
0000
0000
0000
0000
,
0000
0000
0000
0000
,
0000
0000
0000
0000
,
0000
0000
0000
0000
,
1000
0000
0000
0000
,
0001
0000
0000
0000
,
0010
0000
0000
0000
,
0001
0000
0000
0000
,
1000
0000
1000
0000
,
1000
0000
0000
0000
,
0010
0000
0000
0000
,
0100
0000
0000
0000
,
0001
0000
0000
0000
,
0010
0000
0000
0000
,
0001
0000
0000
0000
,
0100
0000
0000
0000
,
0010
0000
0000
0000
,
1000
0000
0000
0000
,
0001
0000
0001
0000
,
0001
0000
0000
0000
,
0100
0000
0100
0000
,
0100
0000
0000
0000
,
0010
0000
0010
0000
,
0010
0000
0000
0000
,
1000
0000
1000
0000
,
1000
0000
0000
0000
,
0001
0000
0000
0000
,
0010
0000
0010
0000
,
0010
0000
0000
0000
,
0001
0000
0000
0000
,
0100
0000
0000
0000
,
0010
0000
0010
0000
,
0010
0000
0000
0000
,
1000
0000
0000
0000
,
0100
0000
0100
0000
,
0100
0000
0000
0000
,
0001
0000
0000
0000
,
0100
0000
0000
0000
,
0010
0000
0010
0000
,
0010
0000
0000
0000
,
1000
0000
1000
0000
,
1000
0000
0000
0000
,
0001
0000
0000
0000
,
0010
0000
0000
0000
,
0001
0000
0001
0000
,
0001
0000
0000
0000
,
1000
0000
0000
0000
,
0100
0000
0000
0000
,
0010
0000
0010
0000
,
0001
0000
0001
0000
,
1000
0000
1000
0000
,
1001
0000
0000
0000
;

//---------------dance-single - ----------------
#NOTES:
     dance-single:
     :
     Easy:
     3:
     0.242,0.265,0.021,0.000,0.000:
0000
0000
0000
0000
,
0000
0000
0000
0000
,
0000
0000
0000
0000
,
0000
0000
0000
0000
,
1000
0010
0100
0100
,
0001
0010
0001
0001
,
0100
0010
1000
1000
,
0100
0010
0001
1000
,
0010
0100
1000
1001
,
1000
0010
1000
0001
,
0010
0001
0100
0000
,
0010
1000
0100
0001
,
0100
1000
0010
0100
,
0001
0010
0001
0100
,
0010
1000
0100
0000
,
0001
0100
1000
0010
,
0100
0001
0010
0001
,
0100
0010
1000
0010
,
0100
0001
0010
0000
,
0100
1000
0010
1000
,
0001
0010
0001
0000
,
0100
0010
1000
0100
,
0001
0100
1000
0000
,
0010
0100
0001
0010
,
0100
1000
1001
0000
,
0001
0010
0001
1000
,
0010
1000
0001
0000
,
0100
0001
0010
0100
,
1000
0000
0010
0000
,
1000
0010
0100
0001
,
1000
0100
0010
0000
,
0001
0010
1000
0010
,
0001
0100
0010
1000
,
0100
0000
0010
0000
,
0001
0100
0001
1000
,
0100
0100
1000
1000
,
0010
0000
0100
0000
,
0001
0000
0010
0001
,
0100
0000
0010
0000
,
1000
0100
1000
0001
,
0100
0001
1000
0010
,
1000
0000
0001
0000
,
0010
0000
0001
0000
,
0100
0000
0010
0000
,
1000
0000
0100
0000
,
1000
0100
1000
0010
,
0100
0000
0001
0000
,
0010
0000
0001
0100
,
0010
1000
0100
0001
,
0100
1000
0010
0001
,
0010
1000
0010
0100
,
0001
0000
0000
0000
;

//---------------dance-single - ----------------
#NOTES:
     dance-single:
     :
     Medium:
     5:
     0.388,0.425,0.000,0.187,0.021: // measure 1
0000
0000
0000
0000
,  // measure 2
0000
0000
0000
0000
,  // measure 3
0000
0000
0000
0000
,  // measure 4
0000
0000
0000
0000
,  // measure 5
1000
0000
0010
0000
0100
0000
0001
0100
,  // measure 6
0001
0000
0010
0000
0001
0000
1000
0010
,  // measure 7
1000
0000
0010
0000
0100
0000
0001
0100
,  // measure 8
0001
0000
0010
0000
0001
1000
0001
0000
,  // measure 9
1000
0010
1000
0000
0010
0100
0010
0000
,  // measure 10
0100
0000
0001
0000
0010
0000
0001
1000
,  // measure 11
0001
1000
0010
0000
,  // measure 12
0100
0000
0001
0000
0010
0000
0100
1000
,  // measure 13
0100
0000
0010
0000
0001
0000
0100
0100
,  // measure 14
0100
0000
0010
0000
1000
0000
0100
1000
,  // measure 15
0100
0010
0001
0000
,  // measure 16
1000
0000
0010
0000
0001
0000
0010
1000
,  // measure 17
0010
0000
0100
0000
0001
0100
0001
0100
,  // measure 18
0001
0010
0100
1000
,  // measure 19
0010
1000
0010
1000
0010
0000
0100
0001
,  // measure 20
0100
0010
1000
0100
,  // measure 21
0001
0100
0001
0100
1000
0000
0010
0100
,  // measure 22
0001
0010
0001
1000
,  // measure 23
0010
0100
0010
0100
0010
0000
0100
0000
,  // measure 24
0001
0000
0010
0001
1000
0000
0010
1000
,  // measure 25
0001
0000
0000
0000
0010
0000
0000
0000
0001
0000
0000
1000
0000
0000
0001
0000
,  // measure 26
1000
0000
0010
1000
0010
0000
0100
0001
,  // measure 27
0100
0000
0001
0010
0001
0000
1000
0000
,  // measure 28
0010
0000
1000
0100
1000
0000
0001
0100
,  // measure 29
0001
0000
1000
0000
0010
0000
0001
0010
,  // measure 30
0001
0000
0010
1000
0010
0000
1000
0100
,  // measure 31
1000
0000
0001
0100
0001
0000
1000
0000
,  // measure 32
0020
2030
3200
0320
,  // measure 33
0031
0000
1000
0000
0010
0100
0001
0100
,  // measure 34
0010
1000
0100
0001
,  // measure 35
0100
0001
0100
0000
1000
0100
1000
0000
,  // measure 36
0200
0320
0032
2003
,  // measure 37
3020
0000
1030
0100
2000
0000
3001
0100
,  // measure 38
0002
0000
1003
0000
0010
1000
0100
1000
,  // measure 39
0020
0130
0002
0013
,  // measure 40
0001
0000
0000
0100
0000
0000
0010
0000
0000
1000
0000
0000
0100
0000
0010
0000
,  // measure 41
0001
0000
0000
1000
0000
0000
0010
0000
0100
0000
0001
0000
0100
0000
0010
0000
,  // measure 42
1000
0000
0100
1000
0100
0000
0010
0001
,  // measure 43
0010
0000
0001
0100
0001
0000
1000
0010
,  // measure 44
1000
0000
0001
0010
0001
0000
1000
0010
,  // measure 45
2000
0000
0000
3010
0200
0000
0000
0300
,  // measure 46
0001
0010
0001
0000
1000
0010
1000
0000
,  // measure 47
0002
0000
2003
0000
,  // measure 48
3020
0000
0000
0000
0130
0001
0100
0000
,  // measure 49
0010
1000
0100
0000
0010
0001
0100
0000
,  // measure 50
0010
1000
0001
0000
0010
0001
1000
0000
,  // measure 51
0010
1000
0100
0000
0010
0000
0001
0000
,  // measure 52
1000
0000
0000
0000
;
