#TITLE:Honoo No Condor;
#SUBTITLE:;
#ARTIST:Gai Yuuki;
#TITLETRANSLIT:;
#SUBTITLETRANSLIT:;
#ARTISTTRANSLIT:;
#CREDIT:;
#BANNER:bn.PNG;
#BACKGROUND:bg.PNG;
#LYRICSPATH:;
#CDTITLE:;
#MUSIC:Honoo No Condor.mp3;
#OFFSET:-0.060;
#SAMPLESTART:43.100;
#SAMPLELENGTH:16.420;
#SELECTABLE:YES;
#BPMS:0.000=137.200;
#STOPS:;
#BGCHANGES:;

//---------------dance-single - ----------------
#NOTES:
     dance-single:
     :
     Hard:
     7:
     0.560,0.503,0.272,0.419,0.063:
0000
0000
0000
0000
,
0000
0000
0000
0000
,
0000
0000
0000
0000
,
0000
0000
0000
0000
,
2000
0000
0000
0000
3001
0000
0010
0001
0020
0000
0000
0000
0031
0000
0000
0000
,
0200
0000
0000
0000
0310
0000
1000
0010
2000
0000
0000
0000
3010
0000
0000
0000
,
0200
0000
0000
0000
0001
0000
0000
0000
0310
0000
0001
0000
1000
0001
1000
0001
,
1000
0000
0000
0010
0000
0000
1000
0000
0100
0000
0000
0000
0110
0000
0000
0000
,
0020
0000
0031
0200
0000
0310
1000
0001
,
0020
0000
0031
0000
0100
0001
0100
0000
,
0020
0000
1030
0200
0000
0310
0001
1000
,
0010
1000
0100
0000
0010
0001
0100
0000
,
0010
1000
0001
0010
0000
0001
0100
1000
,
0100
0001
0000
0010
0100
0000
1000
0000
,
0020
0130
0002
0013
,
0001
0000
0100
0000
0010
0000
1000
0000
0010
1000
0010
0000
0100
0000
0001
0000
,
0201
0000
0301
0020
0000
0130
1000
0010
,
1000
0100
0010
0002
0000
0013
0100
0000
,
1000
0010
1000
0001
0000
0010
0001
0100
,
0010
1000
0100
2000
0000
3001
0010
0000
,
0001
0100
1000
0100
0000
0001
0010
0000
,
0100
1000
0010
1000
0000
0100
0010
0001
,
2000
0000
3020
0000
0230
0000
0301
0010
,
0011
0000
0001
0101
0000
0100
0110
0000
,
0010
1000
0100
0110
0000
0010
0001
1000
,
1020
1030
2100
3001
,
1001
0000
0001
0010
0000
0001
1000
0100
,
1000
0001
0010
0001
1000
0100
1000
0001
,
0100
0000
0010
0000
1000
0000
0100
0000
0000
0000
0010
0001
0010
0000
0001
0000
,
1002
1003
2010
3010
,
0100
0001
0010
0001
0000
0100
0010
1000
,
0200
0000
0302
0000
0203
0000
1300
0010
,
0110
0100
0001
0000
0010
0001
0100
0010
,
2100
3001
0102
1003
,
0010
1000
0100
0010
0000
0001
0010
1000
,
0020
0000
0031
0100
0010
1000
0100
0001
,
0100
0000
1000
0000
0010
0000
0100
0000
0000
0000
0001
0010
0001
0000
0100
0000
,
0210
0310
1020
1030
,
0100
0010
0001
0100
0000
0010
1000
0001
,
0010
1000
0010
0001
0100
1000
0100
0001
,
0012
0000
1000
0000
0100
0100
1003
0000
,
2001
0000
0000
0000
0001
0000
3000
0000
0010
0000
0001
0000
0000
0100
0000
0000
,
0010
1000
0000
0100
0010
0000
0011
0001
,
0010
0000
0000
0100
1000
0000
0010
0000
2000
0000
0000
0000
3001
0000
0100
0000
,
0002
0000
0013
0001
0100
0010
0110
0000
,
0020
0000
1030
0010
1000
0010
1000
0010
,
0100
0001
0100
0001
0010
0001
0010
0001
,
0010
0100
0010
0100
1000
0100
1000
0100
,
1000
0010
1000
0010
0100
0001
0100
0001
,
2000
0000
0000
0000
3001
0000
0010
0001
0200
0000
0000
0000
1300
0000
0000
0000
,
0200
0000
0000
0000
0301
0000
0010
0001
2000
0000
0000
0000
3001
0000
0000
0000
,
1001
0000
1000
1100
0000
0100
0110
0000
,
0000
0010
0001
0101
0000
0010
1000
1100
,
0000
0010
0001
1001
0000
0000
0000
0000
;

//---------------dance-single - ----------------
#NOTES:
     dance-single:
     :
     Beginner:
     1:
     0.103,0.139,0.010,0.000,0.000:
0000
0000
0000
0000
,
0000
0000
0000
0000
,
0000
0000
0000
0000
,
0000
0000
0000
0000
,
1000
0000
0000
0000
,
0001
0000
0000
0000
,
0010
0000
0000
0000
,
0001
0000
0001
0000
,
0001
0000
0000
0000
,
0100
0000
0000
0000
,
0010
0000
0010
0000
,
0010
0000
0000
0000
,
1000
0000
0000
0000
,
0100
0000
0000
0000
,
0001
0000
0001
0000
,
0001
0000
0000
0000
,
0100
0000
0000
0000
,
0010
0000
0000
0000
,
1000
0000
1000
0000
,
1000
0000
0000
0000
,
0001
0000
0000
0000
,
0010
0000
0000
0000
,
0001
0000
0000
0000
,
0100
0000
0000
0000
,
0010
0000
0010
0000
,
0010
0000
0000
0000
,
1000
0000
1000
0000
,
1000
0000
0000
0000
,
0001
0000
0001
0000
,
0001
0000
0000
0000
,
0100
0000
0100
0000
,
0100
0000
0000
0000
,
0010
0000
0010
0000
,
0010
0000
0000
0000
,
1000
0000
0001
0000
,
1000
0000
0000
0000
,
0010
0000
0100
0000
,
0010
0000
0000
0000
,
0100
0000
0001
0000
,
0100
0000
0000
0000
,
0010
0000
1000
1000
,
1000
0000
0000
0000
,
0001
0000
0000
0000
,
0010
0000
0000
0000
,
0001
0000
0100
0000
,
0001
0000
0000
0000
,
1000
0000
0000
0000
,
0100
0000
0000
0000
,
0010
0000
0100
0000
,
0010
0000
0000
0000
,
0001
0000
0000
0000
,
1000
0000
0010
0000
,
0000
1000
0000
0001
,
0000
1001
0000
0000
;

//---------------dance-single - ----------------
#NOTES:
     dance-single:
     :
     Easy:
     3:
     0.242,0.252,0.178,0.073,0.000:
0000
0000
0000
0000
,
0000
0000
0000
0000
,
0000
0000
0000
0000
,
0000
0000
0000
0000
,
0100
0000
1001
0000
,
0010
0000
1001
0000
,
0002
0000
0000
1003
,
0010
0100
0010
0110
,
0010
0000
1000
0100
,
1000
0000
0001
0000
,
0010
0001
0100
0001
,
0010
0000
0100
0000
,
1000
0010
1000
0000
,
0001
0010
0001
0000
,
2000
0000
3020
0000
,
0230
0000
0301
0000
,
0010
0000
0001
0100
,
0001
0000
1000
0000
,
0100
1000
0010
1000
,
0100
0000
0010
0000
,
0001
1000
0001
0000
,
0010
0100
0010
0000
,
0001
0100
0001
0000
,
1000
0000
0001
0000
,
0010
0001
0100
0000
,
0110
0000
1001
0000
,
1000
0100
0001
0000
,
0100
1000
0010
0100
,
0001
0010
0001
0000
,
1010
0000
0101
0000
,
0001
0010
0100
0000
,
1000
0010
1000
0001
,
0010
0001
1000
0010
,
0110
0000
0101
0000
,
0001
0010
0100
0000
,
1000
0010
1000
0001
,
0100
0001
0010
0000
,
0011
0000
1100
0000
,
0010
0100
0001
0000
,
1000
0010
1000
0010
,
0100
0001
0100
0001
,
1000
0000
1010
0000
,
0001
0000
0011
0000
,
1000
0000
0100
0010
,
0002
0000
2003
0000
,
3010
0000
0101
0000
,
0010
0000
1100
0000
,
0020
0000
0030
0001
,
0100
0010
1000
0100
,
0010
0000
0110
0000
,
0010
0000
1001
0000
,
1000
0000
0000
0001
0000
0000
0010
0000
,
0000
0001
0000
0001
0000
1000
0000
1000
,
0000
0010
0000
0010
0000
0000
0000
0000
;

//---------------dance-single - ----------------
#NOTES:
     dance-single:
     :
     Medium:
     5:
     0.394,0.419,0.021,0.314,0.005: // measure 1
0000
0000
0000
0000
,  // measure 2
0000
0000
0000
0000
,  // measure 3
0000
0000
0000
0000
,  // measure 4
0000
0000
0000
0000
,  // measure 5
1000
0000
0001
0100
0002
0000
0003
0000
,  // measure 6
1000
0000
0010
0100
0020
0000
0030
0000
,  // measure 7
0100
0000
0001
0000
0010
0000
0001
1000
,  // measure 8
0001
0000
0000
0001
0000
0000
0001
0000
1000
0000
0000
0000
1001
0000
0000
0000
,  // measure 9
0001
0000
0010
0000
0100
0000
1000
0010
,  // measure 10
1000
0010
0100
0001
,  // measure 11
1000
0000
0100
0000
0001
0000
0100
1000
,  // measure 12
0100
0010
0001
0100
,  // measure 13
0010
0000
0010
0000
1000
0000
1000
0001
,  // measure 14
1000
0001
0010
0100
,  // measure 15
2000
3010
0002
0013
,  // measure 16
0001
0000
0100
0000
0010
0100
0010
0000
,  // measure 17
1000
0000
0100
0000
0001
0000
0100
1000
,  // measure 18
0100
0010
0001
0100
,  // measure 19
0010
1000
0010
0000
0100
0000
0001
0100
,  // measure 20
0001
1000
0100
0010
,  // measure 21
0001
0010
0001
0000
1000
0000
0010
0000
,  // measure 22
0100
0010
0100
0000
0010
0000
0100
0000
,  // measure 23
0001
0000
0010
0000
1000
0000
0010
0001
,  // measure 24
0100
0000
0000
0010
0000
0000
1000
0000
,  // measure 25
0000
0001
0010
0001
0000
1000
0010
1000
,  // measure 26
0002
0013
0200
1300
,  // measure 27
0010
0000
0100
0001
0000
0100
0010
0000
,  // measure 28
1000
0000
0100
0000
0010
0001
0010
0000
,  // measure 29
0001
0000
0100
0010
0000
1000
0100
0000
,  // measure 30
0020
0031
0200
0310
,  // measure 31
1000
0000
0001
0010
0000
0001
0100
0000
,  // measure 32
0010
0000
1000
0000
0100
0000
0001
0100
,  // measure 33
0001
0000
0100
0000
1000
0100
1000
0000
,  // measure 34
0200
0310
0002
1003
,  // measure 35
0010
0000
1000
0001
0000
0010
0001
0000
,  // measure 36
0100
0000
0010
0000
1000
0100
1000
0000
,  // measure 37
0001
0000
0100
0001
0000
0010
0001
0000
,  // measure 38
2000
3010
0200
0301
,  // measure 39
1000
0000
0100
0010
0000
0001
1000
0000
,  // measure 40
0010
1000
0010
0000
0100
0001
0100
0000
,  // measure 41
0020
2030
3200
0320
,  // measure 42
0032
0000
1003
0010
2000
0000
3000
0000
,  // measure 43
0010
0000
0100
0001
0200
0000
0300
0000
,  // measure 44
0020
0000
1000
0000
0130
0000
1000
0010
,  // measure 45
0200
0301
0020
0031
,  // measure 46
2000
0000
3010
0100
0002
0000
0003
0000
,  // measure 47
0010
0000
0001
0100
0020
0000
0030
0000
,  // measure 48
2000
0000
0001
0000
3010
0000
0001
0100
,  // measure 49
0020
1030
0200
0310
,  // measure 50
0001
0000
1000
0010
2000
0000
3001
0000
,  // measure 51
0010
0000
0001
0100
0002
0000
0103
0000
,  // measure 52
0010
0000
1000
0100
0000
0010
0001
0000
,  // measure 53
0000
1000
0010
1000
0000
0001
0010
0001
,  // measure 54
0000
1000
0100
1001
0000
0000
0000
0000
;
