#TITLE:ハイタッチ! 2009;
#SUBTITLE:for SC;
#ARTIST:サトシ&ヒカリ;
#TITLETRANSLIT:High Touch! 2009;
#SUBTITLETRANSLIT:;
#ARTISTTRANSLIT:Satoshi and Hikari;
#CREDIT:348;
#BANNER:;
#BACKGROUND:;
#LYRICSPATH:;
#CDTITLE:;
#MUSIC:High Touch! 2009.mp3;
#OFFSET:-1.393;
#SAMPLESTART:50.378;
#SAMPLELENGTH:15.000;
#SELECTABLE:YES;
#BPMS:0.000=136.880;
#STOPS:;
#BGCHANGES:;

//---------------dance-single - ----------------
#NOTES:
     dance-single:
     :
     Beginner:
     1:
     0.091,0.137,0.011,0.000,0.000:
0000
0000
0000
0000
,
0000
0000
0000
0000
,
0000
0000
0000
0000
,
0000
0000
0000
0000
,
1000
0000
0000
0000
,
0001
0000
0000
0000
,
1000
0000
0000
0000
,
0001
0000
0000
0000
,
0100
0000
0000
0000
,
0000
0000
0000
0000
,
0010
0000
0010
0000
,
0010
0000
0000
0000
,
0100
0000
0000
0000
,
0010
0000
0000
0000
,
0100
0000
0000
0000
,
0010
0000
0000
0000
,
1000
0000
0000
0000
,
0000
0000
0000
0000
,
0001
0000
0001
0000
,
0001
0000
0000
0000
,
1000
0000
0000
0000
,
0001
0000
0000
0000
,
0100
0000
0000
0000
,
0010
0000
0000
0000
,
1000
0000
0100
0000
,
1000
0000
0000
0000
,
0001
0000
0010
0000
,
0001
0000
0000
0000
,
0100
0000
0100
0000
,
0000
0100
0100
0000
,
0010
0000
0010
0000
,
0000
0010
0010
0000
,
1000
0000
0000
0000
,
1000
0000
0000
0000
,
0001
0000
0001
0000
,
0001
0000
0000
0000
,
1000
0000
0000
0000
,
0000
0000
0000
0000
,
0010
0000
0000
0000
,
0000
0000
0000
0000
,
1000
0000
1000
0000
,
0000
1000
1000
0000
,
0001
0000
0001
0000
,
0000
0001
0001
0000
,
0100
0000
0000
0000
,
0100
0000
0000
0000
,
0010
0000
0010
0000
,
0010
0000
0000
0000
,
1000
0000
0000
0000
,
0001
0000
1001
0000
;

//---------------dance-single - ----------------
#NOTES:
     dance-single:
     :
     Easy:
     3:
     0.224,0.276,0.166,0.110,0.000:
0000
0000
0000
0000
,
0000
0000
0000
0000
,
0000
0000
0000
0000
,
0000
0000
0000
0000
,
1000
0100
0010
0000
,
0100
0000
1000
0000
,
0001
0010
0100
0000
,
0010
0000
0001
0000
,
1000
0100
0010
0001
,
0100
0000
0001
1000
,
0001
1000
0010
0100
,
0001
0000
0110
0000
,
0100
0001
1000
0000
,
0001
0000
0100
0000
,
0010
1000
0001
0000
,
1000
0000
0010
0000
,
0100
0001
1000
0010
,
1000
0000
0010
0100
,
0001
1000
0100
0010
,
0100
0000
1001
0000
,
0002
0000
0000
0003
,
2000
0000
0000
3000
,
0020
0000
1000
0030
,
0200
0000
0001
0300
,
0001
1000
0100
0000
,
1000
0001
0010
0000
,
0001
0000
1000
0000
,
1001
0000
0100
0010
,
1000
0100
0010
0001
,
1000
0000
0101
0000
,
0001
0100
0010
1000
,
0001
0000
1010
0000
,
1000
0000
0110
0000
,
0001
0000
0110
0000
,
1000
0100
0010
0000
,
0001
0010
0100
0000
,
2000
0000
0000
3000
,
0200
0000
0000
0300
,
0020
0000
0000
0030
,
0002
0000
1000
1003
,
1000
0100
0001
0010
,
1000
0000
0011
0000
,
0001
0100
1000
0010
,
0001
0000
1100
0000
,
0010
0000
1001
0000
,
0100
0000
1001
0000
,
1000
0010
0100
0000
,
0001
0100
0010
0000
,
1001
0000
0110
0000
,
1001
0000
2002
0000
,
3003
0000
0000
0000
;

//---------------dance-single - ----------------
#NOTES:
     dance-single:
     :
     Medium:
     5:
     0.342,0.359,0.210,0.243,0.000:
0000
0000
0000
0000
,
0000
0000
0000
0000
,
0000
0000
0000
0000
,
0000
0000
0000
0000
,
1000
0100
1000
0010
,
0100
0000
0001
0000
0010
0000
0001
1000
,
0001
0100
1000
0100
,
0001
1000
0010
0100
,
0002
0013
0200
1300
,
0011
0000
0000
1001
0000
0000
1100
0000
,
0001
0000
1000
0000
0001
0100
0001
0000
,
1000
0000
0001
1001
,
1000
0001
1000
0100
,
0010
0000
0001
0000
0100
0000
0010
1000
,
0010
0100
0010
0001
,
0010
1000
0001
1000
,
0020
0130
2000
3001
,
1010
0000
0000
0110
0000
0000
0101
0000
,
1000
0000
0001
0000
0100
0010
0100
0000
,
0001
0000
0110
0000
,
2000
0000
0020
3030
,
0002
0000
0200
0303
,
1000
0000
0100
0000
0010
0001
0010
0000
,
0100
1000
0100
0000
0010
0000
0001
0000
,
1000
0000
0100
0000
1000
0010
1000
0000
,
0001
0000
0100
0000
0001
0010
0001
0000
,
0200
0000
0000
0010
0000
0000
0010
0000
,
0000
0010
0000
0000
0310
0000
0110
0000
,
1000
0000
0001
0010
0000
0100
1000
0000
,
0001
0000
0000
0110
0000
0000
1000
0000
,
0001
0000
0100
0001
0000
1000
0010
0000
,
0100
0000
0000
1001
0000
0000
0010
0000
,
2000
0000
0000
3001
0000
0000
0020
0000
,
0000
0130
0000
0000
0011
0000
1100
0000
,
0001
1000
0010
0100
,
0001
1000
0001
0000
1000
0000
0010
0100
,
0020
0000
2030
0000
,
3002
0000
0203
0000
,
0302
1003
0200
0310
,
0001
0000
1000
0000
0010
0100
0010
0000
,
1000
0000
1000
0100
0000
0100
1000
0000
,
0001
0000
0000
1100
0000
0000
0001
0000
,
0010
0000
0001
0010
0000
0010
0001
0000
,
1000
0000
0000
0101
0000
0000
1000
0000
,
0002
0000
0000
1003
0000
0000
0200
0000
,
0000
0310
0000
0000
0101
0000
1010
0000
,
0001
0000
1000
0100
1000
0000
0001
0000
,
0100
0000
0010
0000
1000
0000
0001
0200
,
0000
0010
0000
0010
0000
0310
1000
0000
,
0110
0000
0000
2002
0000
0000
0000
0000
,
3003
0000
0000
0000
;

//---------------dance-single - ----------------
#NOTES:
     dance-single:
     :
     Hard:
     7:
     0.451,0.442,0.265,0.243,0.000: // measure 1
0000
0000
0000
0000
,  // measure 2
0000
0000
0000
0000
,  // measure 3
0000
0000
0000
0000
,  // measure 4
0000
0000
0000
0000
,  // measure 5
1100
0000
0001
0010
0001
0100
0001
2000
,  // measure 6
0000
0000
3001
0010
0000
0100
1000
0000
,  // measure 7
0011
0000
1000
0100
1000
0100
1000
0000
,  // measure 8
0010
0000
1001
0000
1000
0100
1000
0000
,  // measure 9
0001
0010
0200
0000
1300
0100
0020
0000
,  // measure 10
0031
0000
1000
0001
0000
0001
1000
0000
,  // measure 11
0001
0010
0100
0010
0000
0001
1000
0000
,  // measure 12
0001
0101
1000
1010
,  // measure 13
0001
1000
0001
0000
1000
0100
1000
0020
,  // measure 14
0000
0000
1030
0000
0001
0010
0001
0000
,  // measure 15
0100
0001
1000
0000
0001
0010
1000
0010
,  // measure 16
0001
0000
1000
0010
0000
0010
1000
0000
,  // measure 17
0002
0000
1003
0000
1000
0001
0000
0110
,  // measure 18
0000
0000
1000
0100
0010
0100
1000
0000
,  // measure 19
0020
0000
0130
0000
0001
1000
0001
0000
,  // measure 20
2000
0100
0010
3001
,  // measure 21
0002
0000
0000
0100
0200
0003
0010
0000
,  // measure 22
0020
0300
0000
1000
2000
0030
0001
0000
,  // measure 23
3001
0000
0100
0001
1000
0001
0100
0000
,  // measure 24
0010
0000
1000
0100
0010
0001
1000
0000
,  // measure 25
0001
0010
0100
0000
0100
0010
0001
0000
,  // measure 26
1000
0010
0100
0000
0100
0010
1000
0000
,  // measure 27
0002
0000
0103
0020
0000
1030
0200
0000
,  // measure 28
1300
0002
0000
0103
0010
0000
1001
0000
,  // measure 29
1000
0100
1000
0002
0000
1003
0100
0000
,  // measure 30
0010
0001
0000
1001
0000
1000
0100
0000
,  // measure 31
1000
0000
0001
0100
0000
0100
0001
0000
,  // measure 32
0100
1000
0100
0002
0000
1000
1003
0000
,  // measure 33
0011
0000
0000
1010
0000
0000
1100
0000
,  // measure 34
0000
0101
0000
0000
1001
0000
1001
0000
,  // measure 35
0001
1000
0001
0000
1000
0100
0001
0100
,  // measure 36
1000
0000
0001
1000
0000
0010
0100
0020
,  // measure 37
0000
1000
0100
1030
,  // measure 38
0200
0001
0010
0301
,  // measure 39
0001
0100
0010
0000
0010
1000
0001
0000
,  // measure 40
1000
0100
0010
0001
0100
0010
1000
0000
,  // measure 41
0001
0100
1000
0200
0000
0301
1000
0000
,  // measure 42
0001
0100
0000
0110
0000
0010
1000
0000
,  // measure 43
0001
0010
0001
0010
0100
1000
0100
1000
,  // measure 44
0001
0000
1000
0001
0000
0001
1000
0000
,  // measure 45
0101
0000
0000
1010
0000
0000
1100
0000
,  // measure 46
0000
0011
0000
0000
0110
0000
0110
0000
,  // measure 47
1000
0100
0010
0100
1000
0001
0010
0000
,  // measure 48
0001
0010
1000
0010
0000
0001
1000
0001
,  // measure 49
0000
1010
0000
0101
0000
1000
0010
0100
,  // measure 50
0000
0001
1000
2002
0000
0000
0000
0000
,  // measure 51
3003
0000
0000
0000
;

//---------------dance-single - ----------------
#NOTES:
     dance-single:
     :
     Challenge:
     9:
     0.650,0.580,0.751,0.221,0.149: // measure 1
0000
0000
0000
0000
,  // measure 2
0000
0000
0000
0000
,  // measure 3
0000
0000
0000
0000
,  // measure 4
0000
0000
0000
0000
,  // measure 5
1100
0000
0000
0000
0011
0000
0000
1000
0100
0000
0001
0000
0100
0000
1000
0000
,  // measure 6
0100
0010
0001
0100
0010
1000
0001
0100
,  // measure 7
0011
0000
0000
0000
1100
0000
0000
0001
1000
0000
0100
0000
1000
0000
0010
0000
,  // measure 8
0001
0010
1000
0100
0010
0001
1000
0001
,  // measure 9
0110
0000
0000
1000
0001
0000
0000
0000
1001
0000
0000
0010
0100
0000
0000
0100
,  // measure 10
0001
1000
0100
1000
0001
0010
0100
1000
,  // measure 11
0001
0010
0002
0000
0000
0000
1000
0000
1003
0000
0100
0000
0010
0000
0001
0000
,  // measure 12
1001
0000
0000
0100
0001
0000
1000
0000
1100
0000
0000
0000
0101
0000
0000
0000
,  // measure 13
1100
0000
0000
0000
1010
0000
0000
0001
0100
0000
0010
0000
1000
0000
0100
0000
,  // measure 14
0010
0100
0001
0100
1000
0100
0010
0100
,  // measure 15
0011
0000
0000
0000
0101
0000
0000
1000
0100
0000
0010
0000
0100
0000
1000
0000
,  // measure 16
0100
0010
0100
1000
0001
0100
0001
0010
,  // measure 17
1001
0000
0000
0100
0010
0000
0000
0000
0110
0000
0000
0001
1000
0000
0000
0000
,  // measure 18
1000
0100
0010
0002
0000
0013
0100
1000
,  // measure 19
1000
0010
2000
0000
0000
0000
0001
0000
3001
0000
0100
0000
0010
0000
1000
0000
,  // measure 20
1001
0000
0000
1001
0000
0000
0110
0000
0110
0000
0000
0000
1100
0000
0000
0000
,  // measure 21
0012
0000
0000
0000
1003
0000
0100
0001
0100
0000
1000
0000
0100
0000
0010
0000
,  // measure 22
2100
0000
0000
0000
3001
0000
0010
1000
0010
0000
0001
0000
1000
0000
0010
0000
,  // measure 23
0100
0000
0001
1000
0001
0000
0100
0000
0001
0000
1000
0000
0100
0000
1000
0000
,  // measure 24
0001
0000
0100
0010
0100
0000
0001
0000
1000
0000
0001
0000
0100
0000
0001
0000
,  // measure 25
1000
0100
1000
0100
0001
0100
0001
0100
,  // measure 26
1000
0010
1000
0010
0001
0010
0001
0010
,  // measure 27
1010
0000
0101
0101
0000
0011
0011
0000
,  // measure 28
1100
1100
0000
1010
0110
0000
1001
0000
,  // measure 29
1000
0000
0100
1000
0100
0000
2000
0000
0000
0000
3001
0000
0010
0000
0100
0000
,  // measure 30
1000
0001
0010
0012
0000
1003
1001
0000
,  // measure 31
0001
0000
0010
0000
0100
0000
1000
0001
1000
0000
0010
0000
0100
0000
0001
0000
,  // measure 32
1000
0010
1000
2100
0000
3001
1001
0000
,  // measure 33
1100
1100
0000
1001
1001
0000
0011
0011
,  // measure 34
0000
1001
1001
0000
0110
0000
1001
0000
,  // measure 35
1000
0000
0010
0100
0010
0000
0100
0000
0001
0000
0010
0000
0001
0000
1000
0000
,  // measure 36
0001
0001
1000
2000
0000
0010
0010
0010
,  // measure 37
3010
1000
0100
0002
0000
0103
1000
0020
,  // measure 38
0000
0130
0001
1000
1001
0000
1001
0000
,  // measure 39
0001
0100
1000
0200
0000
0301
0010
2000
,  // measure 40
0000
0000
3010
0000
0001
0000
1000
0000
0001
1000
0001
1000
0001
0000
1000
0000
,  // measure 41
0001
0000
0010
0001
0010
0000
0002
0000
0000
0000
0103
0000
0001
0000
1000
0000
,  // measure 42
0100
0010
0001
1020
0000
0130
0110
0000
,  // measure 43
0010
0000
1000
0000
0001
0000
0100
1000
0100
0000
0001
0000
1000
0000
0010
0000
,  // measure 44
1000
0010
0100
0201
0000
0310
0110
0000
,  // measure 45
0110
0110
0000
0101
0101
0000
0110
0110
,  // measure 46
0000
1010
1010
0000
0110
0000
1001
0000
,  // measure 47
1000
0000
0001
0010
0100
0000
0010
0000
0001
0000
1000
0000
0100
0000
1000
0000
,  // measure 48
0001
0000
1000
0100
0010
0000
0001
0000
0000
0000
1000
0000
0100
0000
0012
0000
,  // measure 49
0000
0000
1003
0000
0001
1000
0002
0000
0000
0000
1003
0000
1100
0000
1010
0000
,  // measure 50
0000
0110
1001
2002
0000
0000
0000
0000
,  // measure 51
3003
0000
0000
0000
;
