#TITLE:Ground;
#SUBTITLE:;
#ARTIST:Assemblage 23;
#TITLETRANSLIT:;
#SUBTITLETRANSLIT:;
#ARTISTTRANSLIT:;
#CREDIT:;
#BANNER:ground bn.PNG;
#BACKGROUND:ground bg.PNG;
#LYRICSPATH:;
#CDTITLE:;
#MUSIC:ground.ogg;
#OFFSET:-0.610;
#SAMPLESTART:100.012;
#SAMPLELENGTH:12.000;
#SELECTABLE:YES;
#BPMS:0.000=136.986;
#STOPS:;
#BGCHANGES:;

//---------------dance-single - ----------------
#NOTES:
     dance-single:
     :
     Hard:
     7:
     0.452,0.578,0.228,0.403,0.044:
0000
0000
0000
0000
,
0000
0000
0000
0000
,
0000
0000
0000
0000
,
0000
0000
0000
1000
0000
0010
0000
1000
,
0000
0010
0000
0100
0000
0001
0000
1000
,
0000
0100
0000
0001
0000
0100
0000
1000
,
1001
0000
1001
0000
0110
0100
1000
0100
,
0010
0000
0001
0000
1001
0000
0100
0010
,
0110
0000
0001
0000
1001
0000
1000
0100
,
1000
0100
0010
0001
0010
0000
0001
1000
,
0100
0200
0000
0320
0000
0032
0000
2003
,
0000
3002
0000
1003
0100
0010
0001
2000
,
0100
0100
3100
0000
1100
0000
0001
1000
,
0001
0000
1000
0100
0010
0001
1000
1000
,
0001
0001
1001
0000
0001
1000
0000
1000
,
0000
1000
0100
0010
0001
2000
0000
3200
,
0000
0302
0000
0203
0000
1300
0010
1000
,
0001
0100
0001
0010
0000
0100
1000
0200
,
0000
0010
0000
1000
0000
0010
0000
1000
,
0000
0320
0000
0000
0001
0001
0000
0032
,
0000
1003
0001
1000
0001
0010
0100
1000
,
0100
0010
0001
1000
0002
0000
0000
1003
,
0001
1000
0001
1000
0001
0000
0000
0000
2010
0000
0000
0000
0000
0000
0100
0000
,
0000
0000
3010
0000
1002
0000
0000
0010
,
0000
0000
0103
0000
1002
0000
0000
0100
,
0003
0000
0010
0000
0202
0000
0000
0010
,
0000
0313
0000
0000
,
1000
0000
0000
0000
0002
1000
0000
0100
,
0000
0000
0010
0000
1003
1000
0100
1000
,
0100
0010
0100
1000
0100
0010
0001
1000
,
0001
1000
1001
0000
0100
0010
0100
1000
,
0100
0010
0001
0000
0010
0100
0010
0001
,
1000
0100
0001
0000
0100
1000
0100
0010
,
0001
1000
0010
0100
0101
0000
0000
0000
,
1000
0002
0000
0000
0103
0020
0000
0000
,
1030
0000
1000
0001
1000
0100
0010
0100
,
1001
1000
1001
0001
,
0101
0000
0001
0000
1001
0000
1000
0100
,
0001
0100
1001
0000
1002
0000
0000
1000
,
0000
0000
0013
0000
2001
0000
0000
0010
,
0000
0000
3100
0000
1002
0000
0000
0010
,
0000
0000
0103
0000
2200
0000
0000
0010
,
0000
0000
0001
3300
0000
0000
0000
0000
,
0000
0000
0000
0000
2000
0001
0000
0010
,
3000
0000
0100
1000
0100
0010
0001
0010
,
0100
1000
0001
0000
0001
0000
1000
0001
,
1000
0001
1001
0000
0012
0000
0000
0100
,
0000
0000
0103
0000
2000
0100
0000
0010
,
0000
3001
0000
1000
0010
0100
1000
0001
,
0010
0100
0001
0100
1000
0100
0010
1000
,
0001
0000
0000
0000
0001
0010
0001
0010
0001
0000
0000
0000
0001
1000
0001
1000
,
0001
0000
0000
0000
1000
0100
1000
0100
1000
0000
0000
0000
0001
1000
0001
1000
,
0001
0000
1000
0100
1000
0100
0010
0100
,
1000
0100
0010
0100
0010
0001
1000
1000
,
0001
0001
2001
0000
0000
0000
0000
0000
,
0000
3002
0000
0203
,
0000
2300
0000
3200
,
0000
0302
0000
0203
,
0000
2300
0000
3020
,
0000
0032
0000
0023
,
0000
0230
0000
2300
,
0000
3002
0000
2003
,
0000
0002
0000
3003
;

//---------------dance-single - Copied from----------------
#NOTES:
     dance-single:
     Copied from:
     Challenge:
     9:
     0.584,0.678,0.210,0.272,0.232:
0000
0000
0000
0000
,
0000
0000
0000
0000
,
0000
0000
0000
0000
,
0000
0000
0000
1000
0000
0010
0000
1000
,
0000
0010
0000
0100
0000
0001
0000
1000
,
0000
0100
0000
0001
0000
0100
0000
1000
,
1001
0000
1000
0001
1001
0000
0100
1000
,
1100
0000
0001
1000
1001
0000
0100
0010
,
0110
0000
0001
1000
1001
0002
1003
0100
,
1000
0100
0010
0001
0010
0002
1003
0100
,
0010
0200
0000
0320
0000
0032
0000
2003
,
0000
3002
0000
1003
0100
0010
0001
2000
,
0100
0100
3100
1000
1100
0000
0001
1000
,
0001
0001
1000
0100
0010
0001
1000
1000
,
0001
0001
1000
1000
0001
2000
3010
1000
,
0010
1000
0100
0010
0001
2000
0000
3200
,
0000
0302
0000
0203
0000
1300
0010
1000
,
0001
0100
0001
0010
0000
0100
1000
0200
,
0310
0002
0013
0200
1300
0002
0103
0020
,
0130
0002
0000
0000
0100
0203
0300
0002
,
0000
1003
0001
1000
0100
0010
0100
1000
,
0100
0010
0001
1000
0002
0000
0000
1003
,
0001
1000
0001
1000
0001
0000
1000
0000
1001
0000
0000
0000
1000
0000
0100
0000
,
1100
0000
0010
0001
0011
0000
1000
0001
,
1001
0000
0000
0000
1000
0100
1000
0000
0100
0000
0010
0000
0001
1000
0001
0000
,
0010
0000
0100
0000
1000
0001
1000
0000
0100
0000
0010
0000
0001
1000
0001
0000
,
0010
0000
0100
0000
1000
0010
1000
0000
0100
0000
1000
0000
0001
0100
0001
0000
,
0010
0000
0010
0000
0001
0100
0001
0000
2000
0000
0001
0000
0000
0000
3001
0000
,
0000
0000
1000
0100
1000
0001
0010
0001
,
1000
0001
1000
0001
0010
0100
0010
0010
,
0100
0000
0100
0000
1001
0000
0000
0000
1000
0100
0010
0001
1000
0000
0000
0000
,
0001
0010
0100
1000
0001
0000
0000
0000
1000
0100
1000
0100
1000
0000
0000
0000
,
0001
0100
0001
1000
0001
0000
0000
0000
1000
0100
1000
0000
0001
0000
0100
0000
,
0001
0010
0001
0000
1000
0000
0100
0000
0010
0001
0010
0000
0100
0000
1000
0000
,
1001
0002
0000
0003
0101
0020
0000
0000
,
1030
0100
0001
0100
1000
0001
0010
0001
,
1001
0000
1000
0100
1100
0000
0100
0010
,
0110
0000
0001
0010
0011
0000
0001
0001
,
1000
0000
1000
0000
1002
0000
0000
0000
1003
0100
1000
0100
1000
0000
0000
0000
,
0001
0010
0001
0010
0001
0000
0000
0000
1000
0100
1000
0100
1000
0000
0000
0000
,
0001
0010
0001
1000
0001
0000
0000
0000
1000
0100
1000
0000
0001
0000
0001
0000
,
1000
0100
1000
0000
0001
0000
0001
0000
1000
0010
1000
0000
0100
0000
0100
0000
,
0010
0001
0010
0000
0100
0000
0100
0000
1000
0000
0001
0000
0100
0000
1000
0000
,
0100
0001
0010
0100
0001
0100
1000
0100
,
0001
0100
1000
0010
1000
0010
0001
0010
,
1000
0100
0001
0001
0100
1000
0001
0001
,
1000
0000
1000
0000
1001
0000
0000
0000
0001
0100
0001
0100
0010
1000
0010
1000
,
0001
1000
0001
1000
0001
0000
0000
0000
1000
0100
1000
0000
0001
0100
0001
0000
,
1000
0100
1000
0000
0002
0000
0000
0000
1003
0100
0010
0001
1000
0100
0010
0001
,
0010
0100
1000
0001
0010
0000
0000
0000
1100
0000
0010
0000
0001
0000
1000
0000
,
1001
0002
0000
0003
1100
0200
0000
0300
,
0001
0010
0001
0000
1000
0100
1000
0000
0100
0000
0010
0000
0001
0000
0010
0000
,
0100
1000
0100
0000
0010
0001
0010
0000
0100
0000
1000
0000
0100
0000
0010
0000
,
0001
1000
0001
0000
0001
1000
0001
0000
0100
0000
0010
0000
0100
0000
0100
0000
,
0010
0010
2001
0000
0000
0000
0001
0000
,
0000
0010
0000
0001
,
0000
0100
0000
0010
,
0000
3002
0000
0100
,
0000
0010
0000
1000
,
0000
0100
0000
0010
,
0000
1000
0000
0010
,
0000
0000
0100
0000
0000
0000
1000
0003
;

//---------------dance-single - ----------------
#NOTES:
     dance-single:
     :
     Medium:
     4:
     0.303,0.355,0.132,0.368,0.000:
0000
0000
0000
0000
,
0000
0000
0000
0000
,
0000
0000
0000
0000
,
0000
0000
0000
0000
,
0000
0000
0000
0000
,
0000
0000
0000
0000
,
0000
0000
1001
0000
,
0110
0000
0011
0000
,
1100
0000
0001
0000
,
1000
0000
0001
0000
,
1000
0001
1000
0100
,
0010
0100
1000
0001
,
1000
1001
0100
0010
,
0001
0000
1000
0000
0001
0000
1000
0001
,
1000
1001
0100
0010
,
0001
1000
0100
0010
,
0001
0000
0100
0010
1000
0000
0001
0000
,
0010
0100
1000
0001
,
1000
0000
0100
0000
1100
0000
0100
0010
,
0100
0000
0001
0000
1001
0000
0001
0100
,
0001
1000
0100
0010
,
0001
0000
1000
0001
1000
0001
1000
0001
,
1000
0000
0200
0000
0320
0000
0000
0032
,
0000
0000
0103
0000
0020
0000
0000
2030
,
0000
0000
3002
0000
0023
0000
0000
0230
,
0000
0000
2300
0000
3002
0000
0000
0203
,
0000
0000
0320
0000
2030
0000
0000
3002
,
0000
0000
0103
0000
0010
1000
0000
0010
,
0000
0000
1001
0000
0100
0010
0000
0100
,
0000
0000
2000
0000
0001
0000
0000
0010
,
0000
0000
3001
0000
0002
0000
0000
0100
,
0000
0003
0000
0000
0000
0000
0000
0000
0000
0000
0000
0000
0000
0000
0000
0000
0000
0000
0000
0000
0000
0000
0000
0000
1000
0000
0000
0000
0000
0000
0000
0000
0000
0000
0000
0000
0000
0000
0000
0000
0000
0000
0000
0000
0000
0000
0000
0000
0000
0000
0000
0000
0000
0000
0000
0000
0000
0000
0000
0000
0000
0000
0000
0000
0000
0000
0000
0000
0000
0000
0000
0000
0000
0000
0000
0000
0000
0000
0000
0000
0000
0000
0000
0000
0000
0000
0000
0000
0000
0000
0000
0000
0000
0000
0000
0000
0001
0000
0000
0000
0000
0000
0000
0000
0000
0000
0000
0000
0000
0000
0000
0000
0000
0000
0000
0000
0000
0000
0000
0000
1000
0000
0000
0000
0000
0000
0000
0000
0000
0000
0000
0000
0000
0000
0000
0000
0000
0000
0000
0000
0000
0000
0000
0000
0000
0000
0000
0000
0000
0000
0000
0000
0000
0000
0000
0000
0000
0000
0000
0000
0000
0000
0000
0000
0000
0000
0000
0000
0100
0000
0000
0000
0000
0000
0000
0000
0000
0000
0000
0000
0000
0000
0000
0000
0000
0000
0000
0000
0000
0000
0000
0000
,
0000
0010
0000
0100
0000
0000
0000
0000
,
1001
0000
0110
0000
,
0001
0100
0000
0000
1000
0010
0000
0000
,
0001
1000
0001
1000
,
0010
0100
0010
0100
,
0001
1000
0100
0010
,
0001
0000
1001
0000
0200
0000
0000
0320
,
0000
0000
0032
0000
0203
0000
0000
0320
,
0000
0000
2030
0000
3002
0000
0000
0203
,
0000
0300
0020
0000
2030
0000
0000
3002
,
0000
0000
0203
0000
0320
0000
0000
2030
,
0000
0000
3002
0000
0100
0000
0000
0100
,
0000
0000
0103
0000
0020
0000
0000
1000
,
0000
0030
0000
0000
0000
0000
0000
0000
0000
0000
0000
0000
0000
0000
0000
0000
0000
0000
0000
0000
0000
0000
0000
0000
0000
0000
0000
0000
0000
0000
0000
0000
0000
0000
0000
0000
0000
0000
0000
0000
0000
0000
0000
0000
0000
0000
0000
0000
1000
0000
0000
0000
0000
0000
0000
0000
0000
0000
0000
0000
0000
0000
0000
0000
0000
0000
0000
0000
0000
0000
0000
0000
0000
0000
0000
0000
0000
0000
0000
0000
0000
0000
0000
0000
0000
0000
0000
0000
0000
0000
0000
0000
0000
0000
0000
0000
0002
0000
0000
0000
0000
0000
0000
0000
0000
0000
0000
0000
0000
0000
0000
0000
0000
0000
0000
0000
0000
0000
0000
0000
0000
0000
0000
0000
0000
0000
0000
0000
0000
0000
0000
0000
0000
0000
0000
0000
0000
0000
0000
0000
0000
0000
0000
0000
0000
0000
0000
0000
0000
0000
0000
0000
0000
0000
0000
0000
0000
0000
0000
0000
0000
0000
0000
0000
0000
0000
0000
0000
1000
0000
0000
0000
0000
0000
0000
0000
0000
0000
0000
0000
0000
0000
0000
0000
0000
0000
0000
0000
0000
0000
0000
0000
,
0000
0000
1003
0000
0200
0000
0000
0010
,
0000
0310
0001
1000
,
1001
0100
0110
0001
,
1001
0000
0010
0001
0010
0000
0001
0000
,
1000
0001
0000
0000
0001
1000
0000
0000
,
1000
0100
0000
0000
0010
0000
0001
0000
,
1000
0001
0100
0000
0010
0000
1000
0000
,
0001
0010
0100
0000
1000
0010
0100
0000
,
0001
1000
0002
0000
0000
0000
0000
0000
,
0000
2003
0000
0000
,
0000
3020
0000
0000
,
0000
0230
0000
0000
,
0000
0302
0000
0000
,
0000
2003
0000
0000
,
0000
3200
0000
0000
,
0000
0320
0000
0000
,
0000
0030
0000
0000
;

//---------------dance-single - Copied from Copied f----------------
#NOTES:
     dance-single:
     Copied from Copied f:
     Edit:
     11:
     0.698,0.897,0.246,0.482,0.566: // measure 1
0000
0000
0000
0000
,  // measure 2
0000
0000
0000
0000
,  // measure 3
0000
0000
0000
0000
,  // measure 4
0000
0000
0000
1000
0000
0010
0000
1000
,  // measure 5
0000
0010
0000
0100
0000
0001
0000
1000
,  // measure 6
0000
0100
0000
0001
0000
0100
0000
1000
,  // measure 7
1001
0000
1000
0001
1001
1000
0100
1000
,  // measure 8
1100
0000
0001
1000
1001
0000
0100
0010
,  // measure 9
0110
0001
0001
1000
1001
0002
1003
0100
,  // measure 10
1000
0100
0010
0001
0010
0002
1003
0100
,  // measure 11
0010
0200
0000
0320
0000
M032
0000
2003
,  // measure 12
0000
3002
0000
1003
0100
M010
0001
2000
,  // measure 13
0100
0100
3100
1000
1100
0001
0001
1000
,  // measure 14
0001
0001
1000
0100
0010
0M01
1000
1000
,  // measure 15
0001
0001
1001
1000
0001
2000
3010
1000
,  // measure 16
0010
1000
0100
0010
0001
200M
0000
3200
,  // measure 17
0000
0302
0000
0203
0000
130M
0010
1000
,  // measure 18
0001
0100
0001
0010
0000
01M0
1000
0200
,  // measure 19
0310
0002
0013
0200
1300
00M2
0103
0020
,  // measure 20
0130
0002
0000
0000
0100
0203
0300
0002
,  // measure 21
0000
1003
0001
1000
0100
001M
0100
1000
,  // measure 22
0100
0010
0001
1000
0002
00M0
0000
1003
,  // measure 23
0001
1000
0001
1000
0001
0000
1000
0000
1001
0000
0001
0100
0010
1000
0010
0100
,  // measure 24
0001
0010
0100
1000
0100
0010
0001
0010
0001
0100
0010
1000
0010
0100
0001
1000
,  // measure 25
0001
0010
0100
1000
0001
0010
0100
1000
0001
0100
0001
0100
0010
1000
0010
1000
,  // measure 26
0001
1000
0001
1000
0001
1000
0001
1000
0001
0100
0001
0100
0010
1000
0010
1000
,  // measure 27
0001
0100
0001
0100
0001
0100
0001
1000
0001
1000
0001
1000
0010
1000
0010
1000
,  // measure 28
0010
0100
0001
1000
0010
0100
0001
1000
0100
1000
0001
0010
0001
1000
0010
1000
,  // measure 29
0001
0100
0001
1000
0100
0010
0001
0010
0100
1000
0100
0010
0100
1000
0001
0010
,  // measure 30
0001
1000
0100
1000
0100
0010
0001
0010
0001
0100
0001
1000
0001
0000
1000
0000
,  // measure 31
0001
0000
1000
0000
1001
0000
0000
0000
1000
0010
1000
0010
0100
0001
0100
0001
,  // measure 32
0100
0010
1000
0010
1000
0000
0000
0000
0001
0100
0010
1000
0010
0100
0001
1000
,  // measure 33
0100
0010
0001
0100
0001
0000
0000
0000
1000
0100
0010
0001
0100
0010
1000
0001
,  // measure 34
0010
0100
1000
0010
0100
0001
0100
0010
1000
0000
0100
0000
0010
0000
0001
0000
,  // measure 35
1001
00M2
0000
0003
0101
M020
0000
0000
,  // measure 36
1030
0100
1000
0100
1000
0001
0010
0001
0010
0100
0010
0100
1000
0001
1000
0001
,  // measure 37
1001
0000
0000
0000
1000
0100
0010
0001
1001
0000
0000
0000
0001
0100
0001
0100
,  // measure 38
0101
0000
0000
0000
0001
1000
0001
1000
1001
0000
0000
0000
1000
0000
0100
0000
,  // measure 39
0001
0100
1001
0000
2200
0000
0000
0020
,  // measure 40
0000
0000
3331
0000
0202
0000
0000
1000
,  // measure 41
0000
0000
1313
0000
2020
0000
0000
0100
,  // measure 42
0000
0000
3031
0000
2002
0000
0000
0010
,  // measure 43
0000
0000
3010
0000
0200
0000
0000
0010
,  // measure 44
0000
0000
1303
0000
2000
0001
0000
0010
,  // measure 45
3000
0000
0000
0000
1000
0100
0010
0001
0010
0100
1000
0001
0010
0100
1000
0100
,  // measure 46
0010
0001
0010
0100
1000
0010
1000
0010
0100
0001
0100
0001
1000
0000
0001
0000
,  // measure 47
1000
0001
1001
0000
0202
0000
0000
0010
,  // measure 48
2000
0000
3313
0000
2000
0100
0000
0100
,  // measure 49
0000
3100
0000
1000
1100
0100
1000
0100
,  // measure 50
1001
0100
0010
0100
1001
0100
0010
1000
,  // measure 51
1001
0000
0000
0000
0001
0010
0001
0010
0001
1000
0001
0000
1000
0100
0010
0001
,  // measure 52
0010
0100
1000
0000
0001
0100
1000
0100
0001
0100
0001
0000
0010
0100
1000
0100
,  // measure 53
0010
0001
1000
0000
0100
0010
0100
0010
0100
0010
0001
0010
0100
1000
0001
0010
,  // measure 54
0100
0010
0001
1000
0100
0010
0100
0010
0100
1000
0100
0010
0001
0000
0001
0000
,  // measure 55
0001
0001
2000
0000
0000
0000
3020
0000
,  // measure 56
0000
0230
0000
0302
,  // measure 57
0000
2003
0000
3200
,  // measure 58
0000
0320
0000
0032
,  // measure 59
0000
2003
0000
3020
,  // measure 60
0000
0230
0000
0302
,  // measure 61
0000
2003
0000
3002
,  // measure 62
0000
2003
0000
3002
,  // measure 63
0003
0000
0000
0000
;

//---------------dance-single - ----------------
#NOTES:
     dance-single:
     :
     Beginner:
     1:
     0.125,0.191,0.053,0.000,0.000:
0000
0000
0000
0000
,
0000
0000
0000
0000
,
0000
0000
0000
0000
,
0000
0000
0000
0000
,
0000
0000
0000
0000
,
0000
0000
0000
0000
,
0000
1001
0000
0000
,
0100
0000
0010
0000
,
0001
0000
1000
0000
,
0100
0000
0010
0000
,
0001
0000
1000
0000
,
0100
0000
0010
0000
,
0001
0000
1000
0000
,
0100
0000
0001
0000
,
0000
1001
0000
0100
,
0000
0010
0000
0001
,
0000
1000
0000
0100
,
0000
0010
0000
0001
,
0000
1000
0000
0001
,
0000
1000
0000
0100
,
0000
0010
0000
0001
,
0000
1000
0001
0000
,
0000
0001
0000
0000
,
0000
0000
1000
0000
,
0000
1000
0000
0000
,
0000
0000
0001
0000
,
0000
0001
0000
0000
,
0000
0000
0010
0000
,
0000
0001
0000
0000
,
0000
0000
1000
0000
,
0000
0100
0000
0000
,
0000
0000
1000
0000
,
0001
0000
1000
0000
,
0001
0000
0000
0000
,
1000
0000
0100
0000
,
0001
0000
0100
0000
,
1000
0000
0001
0000
,
0010
0000
0100
0000
,
1000
1000
1000
0000
,
0001
0000
1000
0000
,
0001
0000
1000
0000
,
0100
0000
0010
0000
,
0001
0000
1001
0000
,
0100
0000
0110
0000
,
0001
0000
1000
0000
,
0001
0000
1000
0000
,
0001
0000
0001
0000
,
0001
0000
1000
0000
,
0001
0000
1000
0000
,
0001
0000
1000
0000
,
0100
0000
0010
0000
,
0010
0000
0100
0000
,
0001
0000
1000
0000
,
1000
0000
1000
0000
,
0000
1001
0000
0000
,
0000
0100
0000
0000
,
0000
0001
0000
0000
,
0000
0010
0000
0000
,
0000
1000
0000
0000
,
0000
0001
0000
0000
,
0000
1000
0000
0000
,
0000
0001
0000
0000
,
0000
1001
0000
0000
0000
0000
0000
0000
;

//---------------dance-single - Copied from----------------
#NOTES:
     dance-single:
     Copied from:
     Easy:
     2:
     0.152,0.218,0.053,0.000,0.000:
0000
0000
0000
0000
,
0000
0000
0000
0000
,
0000
0000
0000
0000
,
0000
0000
0000
0000
,
0000
0000
0000
0000
,
0000
0000
0000
0000
,
1000
1001
1000
0000
,
0100
0000
0010
0000
,
0001
0000
1000
0000
,
0100
0000
0010
0000
,
0001
0000
1000
0000
,
0100
0000
0010
0000
,
0001
0000
1000
0000
,
0100
0000
0010
0001
,
0001
1001
0000
0100
,
0000
0010
0000
0001
,
0000
1000
0000
0100
,
0000
0010
0000
0001
,
0000
1000
0000
0001
,
0000
1000
0000
0100
,
0000
0010
0000
0001
,
0000
0000
1000
0000
0001
0000
0000
1000
,
0000
0001
0000
0000
,
0000
0000
0000
0000
1000
0000
0000
0100
,
0000
1000
0000
0000
,
0000
0000
0000
0000
0001
0000
0000
1000
,
0000
0001
0000
0000
,
0000
0000
0000
0000
0010
0000
0000
1000
,
0000
0001
0000
0000
,
0000
0000
0000
0000
1000
0000
0000
0001
,
0000
0100
0000
0000
,
0000
0000
0000
0000
0000
1000
0000
0000
,
0000
0001
0000
0000
0000
1000
0000
0000
,
0000
0001
0000
0000
0000
0000
0000
0000
,
1000
0000
0100
0000
,
0001
0000
0100
0000
,
1000
0000
0001
0000
,
0010
0000
0100
0000
,
1000
0001
1000
0000
,
0100
0010
0100
0000
,
0010
0001
1001
0000
,
0100
0010
0001
0000
,
1000
0001
1001
0000
,
0100
0000
0010
0000
,
0001
0000
1000
0000
,
0100
0000
0010
0010
,
0100
0100
1000
0000
,
0001
0000
1000
0000
,
0001
0000
1000
0000
,
0001
0000
1000
0000
,
0100
0100
0010
0000
,
0010
0010
0100
0000
,
0001
0001
1000
0000
,
1000
0100
0001
0100
,
1000
1001
0000
0000
,
0000
0100
0000
0000
,
0000
0001
0000
0000
,
0000
0010
0000
0000
,
0000
1000
0000
0000
,
0000
0001
0000
0000
,
0000
1000
0000
0000
,
0000
0001
0000
0000
,
0000
1001
0000
0000
0000
0000
0000
0000
;
