#TITLE:GAME;
#SUBTITLE:;
#ARTIST:GP Basic;
#TITLETRANSLIT:;
#SUBTITLETRANSLIT:;
#ARTISTTRANSLIT:;
#CREDIT:;
#BANNER:bn.PNG;
#BACKGROUND:bg.PNG;
#LYRICSPATH:;
#CDTITLE:;
#MUSIC:GAME.ogg;
#OFFSET:-0.026;
#SAMPLESTART:46.460;
#SAMPLELENGTH:16.420;
#SELECTABLE:YES;
#BPMS:0.000=124.000;
#STOPS:;
#BGCHANGES:;

//---------------dance-single - ----------------
#NOTES:
     dance-single:
     :
     Hard:
     7:
     0.475,0.442,0.196,0.294,0.006:
0000
0000
0000
0000
,
0000
0000
0000
0000
,
0000
0000
0000
0000
,
0000
0000
0000
0000
0000
1000
1001
0000
,
0001
0010
0001
1000
0010
0000
1000
1000
,
0010
0100
0001
0010
0001
0000
0100
0010
,
1000
0100
0001
0100
1000
0000
0010
1000
,
0001
0000
0000
0010
0000
0000
0001
0000
0100
0000
0010
0000
1010
0000
0000
0000
,
0100
0001
0010
1000
0010
0000
0001
0100
,
0010
0000
1000
0100
0020
0000
0031
0100
,
0010
1000
0100
0010
0002
0000
1003
0000
,
0010
1000
0100
0010
0002
0000
0013
0000
,
0001
0100
0010
1000
0100
0010
0001
0001
,
1000
1000
0010
1000
0100
0100
0010
0010
,
0001
1000
0010
1000
0001
0000
0010
0001
,
0100
0000
0010
1000
0200
0000
0310
0000
,
0011
0000
0101
0000
0110
0000
0010
1000
,
0001
0010
0001
0100
0110
0000
0010
1000
,
1100
0000
1001
0000
0011
0000
0001
0100
,
0010
1000
0100
0010
0001
0100
0010
0000
,
1000
0001
1000
0001
0010
0101
0000
0000
,
1000
0010
1000
0010
0100
0011
0000
0001
,
0100
0010
0100
0010
1000
0101
0000
0100
,
0010
1000
0100
0010
0001
1000
0010
1000
,
0001
0010
0001
0000
1000
0010
1000
0000
,
0001
0010
0001
0100
0010
1000
0100
0000
,
0010
0001
1000
0010
1000
0001
0100
0001
,
2000
0000
3020
0000
0130
0001
0010
0100
,
1000
0010
1000
0000
0001
0100
0001
0000
,
1000
0010
1000
0100
1000
0001
0010
0000
,
0001
0100
0010
1000
0100
0010
0001
1000
,
1001
0000
1010
0000
1001
0000
0001
0010
,
0001
0000
0100
0020
0000
2030
0000
3200
,
0000
0320
0000
0032
0000
1003
0001
1000
,
0001
0000
0010
0200
0000
2300
0000
3020
,
0000
2030
0000
3002
0000
0013
0001
0100
,
0010
0000
1000
0200
0000
0320
0000
0032
,
0000
2003
0000
3020
0000
1030
0001
0010
,
0001
0000
0100
0020
0000
2030
0000
3002
,
0013
0001
1000
0010
1000
0100
0010
0001
,
0011
0000
0000
0000
;

//---------------dance-single - ----------------
#NOTES:
     dance-single:
     :
     Easy:
     3:
     0.196,0.221,0.012,0.000,0.000:
0000
0000
0000
0000
,
0000
0000
0000
0000
,
0000
0000
0000
0000
,
0000
0000
0000
0000
,
1000
0001
1000
0000
,
0010
0100
0010
0000
,
1000
0100
1000
0000
,
0001
0100
0001
0000
,
1000
0000
0010
0000
,
0100
0001
0100
0000
,
0001
0000
0010
0000
,
0100
1000
0100
0000
,
0010
0000
0001
0000
,
1000
0000
0010
0000
,
0100
0001
0100
0000
,
0010
1000
0010
0000
,
1000
1000
1000
0000
,
0001
0001
0001
0000
,
0010
0010
0010
0000
,
0100
0100
0100
0000
,
1000
0010
1000
0000
,
0001
0010
0001
0000
,
1000
0100
1000
0000
,
0001
0100
0001
0000
,
1000
1000
0001
0001
,
0010
0001
0100
0100
,
0010
1000
0100
0010
,
0001
1000
0010
1000
,
0001
0001
0010
0010
,
0100
1000
0010
0010
,
0100
0001
0010
0001
,
0100
0010
1000
0100
,
0010
0001
0000
0100
,
0000
0010
0000
1000
,
0001
1000
0000
0010
,
0000
0100
0000
0001
,
0010
0100
0000
1000
,
0000
0010
0000
0100
,
0001
1000
0000
0010
,
1000
0100
0010
0001
,
1001
0000
0000
0000
;

//---------------dance-single - ----------------
#NOTES:
     dance-single:
     :
     Beginner:
     1:
     0.081,0.123,0.012,0.000,0.000:
0000
0000
0000
0000
,
0000
0000
0000
0000
,
0000
0000
0000
0000
,
0000
0000
0000
0000
,
1000
0000
0000
0000
,
0001
0000
0000
0000
,
0010
0000
0000
0000
,
0100
0000
0000
0000
,
1000
0000
0000
0000
,
0010
0000
0010
0000
,
0010
0000
0000
0000
,
0100
0000
0100
0000
,
0100
0000
0000
0000
,
0001
0000
0000
0000
,
0010
0000
0000
0000
,
0100
0000
0000
0000
,
0100
0000
0100
0000
,
0100
0000
0000
0000
,
1000
0000
1000
0000
,
1000
0000
0000
0000
,
0010
0000
0000
0000
,
0100
0000
0000
0000
,
0001
0000
0000
0000
,
0010
0000
0000
0000
,
0100
0000
0100
0000
,
0100
0000
0100
0000
,
0100
0000
0000
0000
,
0010
0000
0000
0000
,
1000
0000
1000
0000
,
1000
0000
1000
0000
,
1000
0000
0000
0000
,
0001
0000
0000
0000
,
0010
0000
0000
0000
,
0001
0000
0000
0000
,
0100
0000
0000
0000
,
0010
0000
0000
0000
,
1000
0000
0000
0000
,
0100
0000
0000
0000
,
0010
0000
0000
0000
,
0001
0000
0000
0000
,
1001
0000
0000
0000
;

//---------------dance-single - ----------------
#NOTES:
     dance-single:
     :
     Medium:
     5:
     0.400,0.417,0.221,0.380,0.000: // measure 1
0000
0000
0000
0000
,  // measure 2
0000
0000
0000
0000
,  // measure 3
0000
0000
0000
0000
,  // measure 4
0000
0000
0000
0000
0000
1000
0001
0000
,  // measure 5
0010
0000
0001
0010
0001
0000
0100
0000
,  // measure 6
0010
0000
1000
0100
1000
0000
0010
0000
,  // measure 7
0100
0000
0001
1000
0001
0000
0010
0000
,  // measure 8
0001
0000
0100
0010
1000
0010
0100
0000
,  // measure 9
0001
0000
0010
0001
0010
0000
0001
0000
,  // measure 10
0100
0000
0010
0100
0020
0000
0030
0000
,  // measure 11
1000
0000
0100
1000
0001
0000
0010
0000
,  // measure 12
0001
0000
0100
0010
2000
0000
3000
0000
,  // measure 13
0010
0000
0100
0001
0100
0000
0001
0010
,  // measure 14
0001
0000
1000
0001
1000
0000
0010
1000
,  // measure 15
0010
0000
0100
0010
0100
0000
0001
0100
,  // measure 16
0001
0000
0010
0001
0020
0000
0031
0000
,  // measure 17
0011
0011
0011
0001
,  // measure 18
0010
0100
0010
0000
0100
0000
1000
0000
,  // measure 19
1010
0000
1010
0000
1010
0000
0010
0100
,  // measure 20
0010
0000
0100
0001
0100
0000
0001
0000
,  // measure 21
0010
0000
0001
0000
0100
0010
0000
0000
,  // measure 22
1000
0000
0100
0000
0010
0001
0000
0000
,  // measure 23
1000
0000
0010
0000
0100
0001
0000
0000
,  // measure 24
1000
0010
1000
0000
0001
0010
0001
0000
,  // measure 25
1001
1001
0110
0110
,  // measure 26
0010
1000
0100
0000
0011
0000
0011
0000
,  // measure 27
0001
0010
0001
0000
0100
0001
0100
0000
,  // measure 28
0020
0000
2030
0000
3002
0000
0103
0010
,  // measure 29
1000
1010
0010
0110
,  // measure 30
0100
0001
0010
0001
0100
0000
0101
0000
,  // measure 31
0001
0010
0100
0000
1000
0010
0100
0000
,  // measure 32
1001
0000
0110
0000
1001
0000
1000
0010
,  // measure 33
0000
2000
0000
3002
0000
2003
0000
3002
,  // measure 34
0000
2003
0000
3002
0000
1003
0010
0100
,  // measure 35
0000
0020
0000
0230
0000
0320
0000
0230
,  // measure 36
0000
0320
0000
0230
0000
0310
1000
0001
,  // measure 37
0000
0020
0000
0032
0000
0023
0000
0032
,  // measure 38
0000
0023
0000
0032
0000
0013
0100
1000
,  // measure 39
0000
0020
0000
0230
0000
0320
0000
0230
,  // measure 40
0320
0000
2030
0000
3002
0000
0103
0010
,  // measure 41
0100
0000
0000
0000
;
